osu file format v12

[General]
AudioFilename: Untitled.mp3
AudioLeadIn: 0
PreviewTime: 48559
Countdown: 0
SampleSet: Soft
StackLeniency: 0.7
Mode: 3
LetterboxInBreaks: 0
SpecialStyle: 0
WidescreenStoryboard: 1

[Editor]
DistanceSpacing: 1
BeatDivisor: 4
GridSize: 8

[Metadata]
Title:eternal reality - TV size -
TitleUnicode:eternal reality - TV size -
Artist:fripSide
ArtistUnicode:fripSide
Creator:17VA
Version:7K NM
Source:Toaru Kagaku no Railgun S
Tags:-_R_u_m_i_a_- season 2 misaka mikoto opening woodyzak justhow0615 とある科学の超電磁砲s
BeatmapID:287000
BeatmapSetID:108577

[Difficulty]
HPDrainRate:7
CircleSize:7
OverallDifficulty:6
ApproachRate:5
SliderMultiplier:1.6
SliderTickRate:1

[Events]
//Background and Video events
Video,0,"Untitled.avi"
0,0,"129373711528349605.jpg",0,0
//Break Periods
//Storyboard Layer 0 (Background)
//Storyboard Layer 1 (Fail)
//Storyboard Layer 2 (Pass)
//Storyboard Layer 3 (Foreground)
//Storyboard Sound Samples
//Background Colour Transformations
3,100,163,162,255

[TimingPoints]
840,413.793103448276,4,2,1,53,1,0
33943,-100,4,2,1,31,0,0
35495,-100,4,2,1,53,0,0
50495,-100,4,2,1,53,0,1
83598,-100,4,2,1,53,0,0
84005,-100,4,2,1,5,0,0

[HitObjects]
36,192,840,1,4,0:0:0:0:
256,192,840,1,2,0:0:0:0:
256,192,1150,1,0,0:0:0:0:
475,192,1460,128,0,2081:0:0:0:0:
329,192,2081,1,0,0:0:0:0:
182,192,2288,1,2,0:0:0:0:
36,192,2495,1,2,0:0:0:0:
256,192,2495,1,4,0:0:0:0:
256,192,2805,1,0,0:0:0:0:
475,192,3115,128,0,3736:0:0:0:0:
109,192,3736,1,0,0:0:0:0:
109,192,3943,1,0,0:0:0:0:
36,192,4150,1,4,0:0:0:0:
329,192,4150,1,2,0:0:0:0:
329,192,4460,1,0,0:0:0:0:
475,192,4771,128,0,5184:0:0:0:0:
109,192,5184,1,0,0:0:0:0:
182,192,5391,1,0,0:0:0:0:
256,192,5598,1,0,0:0:0:0:
109,192,5805,1,0,0:0:0:0:
402,192,5805,1,2,0:0:0:0:
109,192,6219,1,0,0:0:0:0:
402,192,6219,1,2,0:0:0:0:
475,192,6426,1,0,0:0:0:0:
36,192,6633,1,8,0:0:0:0:
475,192,6840,1,8,0:0:0:0:
36,192,7046,1,8,0:0:0:0:
475,192,7253,1,8,0:0:0:0:
109,192,7460,1,12,0:0:0:0:
256,192,7460,1,0,0:0:0:0:
329,192,7667,1,0,0:0:0:0:
36,192,7874,1,2,0:0:0:0:
182,192,8081,1,0,0:0:0:0:
329,192,8288,1,8,0:0:0:0:
475,192,8288,1,0,0:0:0:0:
256,192,8495,1,0,0:0:0:0:
109,192,8702,1,2,0:0:0:0:
256,192,8908,1,0,0:0:0:0:
36,192,9115,1,12,0:0:0:0:
182,192,9115,1,0,0:0:0:0:
329,192,9322,1,0,0:0:0:0:
109,192,9529,1,2,0:0:0:0:
256,192,9736,1,0,0:0:0:0:
329,192,9943,1,8,0:0:0:0:
475,192,9943,1,0,0:0:0:0:
402,192,10150,1,0,0:0:0:0:
109,192,10357,1,2,0:0:0:0:
402,192,10357,1,0,0:0:0:0:
182,192,10564,1,0,0:0:0:0:
329,192,10564,1,0,0:0:0:0:
475,192,10771,1,0,0:0:0:0:
36,192,10771,1,12,0:0:0:0:
109,192,11184,1,2,0:0:0:0:
402,192,11184,1,0,0:0:0:0:
109,192,11391,1,0,0:0:0:0:
402,192,11391,1,0,0:0:0:0:
36,192,11598,1,0,0:0:0:0:
475,192,11598,1,8,0:0:0:0:
109,192,12012,1,2,0:0:0:0:
402,192,12012,1,0,0:0:0:0:
109,192,12219,1,0,0:0:0:0:
402,192,12219,1,0,0:0:0:0:
256,192,12426,128,0,13253:0:0:0:0:
36,192,12426,1,0,0:0:0:0:
475,192,12426,1,12,0:0:0:0:
182,192,12633,1,0,0:0:0:0:
329,192,12840,1,2,0:0:0:0:
475,192,13046,1,0,0:0:0:0:
36,192,13253,1,0,0:0:0:0:
475,192,13357,1,0,0:0:0:0:
36,192,13460,1,0,0:0:0:0:
475,192,13564,1,0,0:0:0:0:
182,192,13667,1,0,0:0:0:0:
329,192,13771,1,0,0:0:0:0:
182,192,13874,1,0,0:0:0:0:
329,192,13977,1,0,0:0:0:0:
36,192,14081,128,0,14908:0:0:0:0:
109,192,14081,1,0,0:0:0:0:
402,192,14081,1,12,0:0:0:0:
329,192,14495,1,2,0:0:0:0:
182,192,14495,1,0,0:0:0:0:
256,192,14908,1,0,0:0:0:0:
475,192,14908,1,8,0:0:0:0:
109,192,15322,1,2,0:0:0:0:
402,192,15529,1,0,0:0:0:0:
182,192,15736,128,0,16564:0:0:0:0:
36,192,15736,1,0,0:0:0:0:
256,192,15736,1,12,0:0:0:0:
329,192,16150,1,0,0:0:0:0:
402,192,16150,1,2,0:0:0:0:
475,192,16564,1,8,0:0:0:0:
109,192,16564,1,0,0:0:0:0:
329,192,16771,1,0,0:0:0:0:
36,192,16977,1,2,0:0:0:0:
182,192,17184,1,0,0:0:0:0:
402,192,17391,1,12,0:0:0:0:
109,192,17495,1,0,0:0:0:0:
402,192,17598,1,0,0:0:0:0:
109,192,17702,1,0,0:0:0:0:
402,192,17805,1,2,0:0:0:0:
475,192,17805,1,0,0:0:0:0:
182,192,18012,1,2,0:0:0:0:
329,192,18219,1,10,0:0:0:0:
182,192,18322,1,0,0:0:0:0:
329,192,18426,1,0,0:0:0:0:
182,192,18529,1,0,0:0:0:0:
329,192,18633,1,2,0:0:0:0:
402,192,18633,1,0,0:0:0:0:
109,192,18840,1,2,0:0:0:0:
36,192,19046,128,0,20702:0:0:0:0:
329,192,21115,128,0,22357:0:0:0:0:
256,192,22357,1,2,0:0:0:0:
109,192,22357,1,0,0:0:0:0:
36,192,23184,1,0,0:0:0:0:
182,192,23184,1,0,0:0:0:0:
256,192,23805,1,0,0:0:0:0:
256,192,24012,1,2,0:0:0:0:
475,192,24012,1,0,0:0:0:0:
36,192,24840,1,0,0:0:0:0:
109,192,24840,1,0,0:0:0:0:
109,192,25667,1,0,0:0:0:0:
329,192,25667,1,2,0:0:0:0:
36,192,26495,1,0,0:0:0:0:
256,192,26495,1,0,0:0:0:0:
182,192,27115,1,2,0:0:0:0:
182,192,27322,1,2,0:0:0:0:
36,192,27322,1,0,0:0:0:0:
256,192,27529,1,0,0:0:0:0:
329,192,27736,1,0,0:0:0:0:
402,192,27943,1,0,0:0:0:0:
36,192,28150,1,4,0:0:0:0:
182,192,28150,1,2,0:0:0:0:
329,192,28357,1,0,0:0:0:0:
256,192,28564,1,2,0:0:0:0:
109,192,28564,1,4,0:0:0:0:
402,192,28771,1,0,0:0:0:0:
182,192,28977,128,0,29805:0:0:0:0:
36,192,28977,1,4,0:0:0:0:
109,192,28977,1,2,0:0:0:0:
329,192,29391,1,2,0:0:0:0:
475,192,29391,1,0,0:0:0:0:
36,192,29805,1,6,0:0:0:0:
329,192,30219,1,2,0:0:0:0:
475,192,30219,1,0,0:0:0:0:
109,192,30633,128,0,31460:0:0:0:0:
36,192,30633,1,4,0:0:0:0:
256,192,30633,1,2,0:0:0:0:
182,192,31046,1,0,0:0:0:0:
402,192,31046,1,2,0:0:0:0:
329,192,31460,1,6,0:0:0:0:
182,192,31874,1,0,0:0:0:0:
402,192,31874,1,2,0:0:0:0:
475,192,32288,128,0,33115:0:0:0:0:
36,192,32288,1,0,0:0:0:0:
109,192,32288,1,6,0:0:0:0:
182,192,32702,1,2,0:0:0:0:
402,192,32702,1,0,0:0:0:0:
256,192,33115,1,2,0:0:0:0:
182,192,33529,1,2,0:0:0:0:
402,192,33529,1,0,0:0:0:0:
109,192,33943,128,0,34771:0:0:0:0:
36,192,33943,1,0,0:0:0:0:
256,192,33943,1,2,0:0:0:0:
402,192,34771,128,0,35598:0:0:0:0:
475,192,34771,1,0,0:0:0:0:
182,192,35598,1,0,0:0:0:0:
36,192,35598,1,4,0:0:0:0:
329,192,35805,1,0,0:0:0:0:
109,192,36012,1,2,0:0:0:0:
329,192,36219,1,0,0:0:0:0:
182,192,36426,1,0,0:0:0:0:
402,192,36426,1,0,0:0:0:0:
475,192,36736,1,0,0:0:0:0:
329,192,37046,1,0,0:0:0:0:
182,192,37253,1,0,0:0:0:0:
402,192,37253,1,4,0:0:0:0:
475,192,37460,1,0,0:0:0:0:
256,192,37667,1,2,0:0:0:0:
475,192,37874,1,0,0:0:0:0:
36,192,38081,1,0,0:0:0:0:
182,192,38081,1,0,0:0:0:0:
256,192,38391,1,0,0:0:0:0:
329,192,38702,1,0,0:0:0:0:
182,192,38908,1,0,0:0:0:0:
402,192,38908,1,4,0:0:0:0:
256,192,39115,1,0,0:0:0:0:
36,192,39322,1,2,0:0:0:0:
256,192,39529,1,0,0:0:0:0:
109,192,39736,1,0,0:0:0:0:
329,192,39736,1,0,0:0:0:0:
402,192,40046,1,0,0:0:0:0:
256,192,40357,1,0,0:0:0:0:
109,192,40564,1,0,0:0:0:0:
329,192,40564,1,4,0:0:0:0:
475,192,40771,1,0,0:0:0:0:
36,192,40977,1,2,0:0:0:0:
256,192,40977,1,0,0:0:0:0:
402,192,41184,1,0,0:0:0:0:
109,192,41391,1,0,0:0:0:0:
182,192,41391,1,0,0:0:0:0:
329,192,41391,1,0,0:0:0:0:
182,192,41805,1,2,0:0:0:0:
402,192,41805,1,0,0:0:0:0:
256,192,41805,1,0,0:0:0:0:
475,192,42219,1,0,0:0:0:0:
36,192,42219,1,0,0:0:0:0:
329,192,42219,1,4,0:0:0:0:
109,192,42219,1,0,0:0:0:0:
182,192,42633,1,2,0:0:0:0:
329,192,42633,1,0,0:0:0:0:
109,192,43046,1,0,0:0:0:0:
256,192,43046,1,0,0:0:0:0:
329,192,43460,1,0,0:0:0:0:
475,192,43460,1,0,0:0:0:0:
182,192,43460,1,2,0:0:0:0:
36,192,43874,1,0,0:0:0:0:
256,192,43874,1,4,0:0:0:0:
182,192,44288,1,2,0:0:0:0:
475,192,44288,1,0,0:0:0:0:
109,192,44702,1,0,0:0:0:0:
402,192,44702,1,0,0:0:0:0:
36,192,45115,1,2,0:0:0:0:
329,192,45115,1,0,0:0:0:0:
475,192,45115,1,0,0:0:0:0:
182,192,45529,128,4,47184:0:0:0:0:
329,192,46357,128,0,47184:0:0:0:0:
109,192,47184,128,4,48840:0:0:0:0:
402,192,48012,128,0,48840:0:0:0:0:
329,192,48840,1,0,0:0:0:0:
36,192,48840,1,0,0:0:0:0:
36,192,49150,1,0,0:0:0:0:
329,192,49150,1,4,0:0:0:0:
182,192,49460,1,4,0:0:0:0:
402,192,49460,1,0,0:0:0:0:
256,192,49771,1,0,0:0:0:0:
475,192,49771,1,4,0:0:0:0:
36,192,50081,1,4,0:0:0:0:
182,192,50081,1,2,0:0:0:0:
402,192,50081,1,0,0:0:0:0:
36,192,50288,1,4,0:0:0:0:
182,192,50288,1,2,0:0:0:0:
402,192,50288,1,0,0:0:0:0:
36,192,50495,1,4,0:0:0:0:
182,192,50495,1,8,0:0:0:0:
475,192,50495,1,0,0:0:0:0:
256,192,50908,1,0,0:0:0:0:
475,192,50908,1,2,0:0:0:0:
329,192,51322,1,8,0:0:0:0:
256,192,51736,1,0,0:0:0:0:
475,192,51736,1,2,0:0:0:0:
36,192,52150,1,4,0:0:0:0:
182,192,52150,1,8,0:0:0:0:
109,192,52564,1,0,0:0:0:0:
329,192,52564,1,2,0:0:0:0:
256,192,52977,1,8,0:0:0:0:
109,192,53391,1,0,0:0:0:0:
329,192,53391,1,2,0:0:0:0:
36,192,53805,1,4,0:0:0:0:
182,192,53805,1,8,0:0:0:0:
256,192,54219,1,0,0:0:0:0:
402,192,54219,1,2,0:0:0:0:
109,192,54633,1,8,0:0:0:0:
256,192,55046,1,0,0:0:0:0:
402,192,55046,1,2,0:0:0:0:
475,192,55460,128,8,55874:0:0:0:0:
36,192,55460,128,4,55874:0:0:0:0:
402,192,55874,128,2,56288:0:0:0:0:
109,192,55874,128,0,56288:0:0:0:0:
329,192,56288,128,8,56702:0:0:0:0:
182,192,56288,128,0,56702:0:0:0:0:
402,192,56702,1,0,0:0:0:0:
475,192,56702,1,2,0:0:0:0:
402,192,56908,1,0,0:0:0:0:
475,192,56908,1,2,0:0:0:0:
36,192,57115,128,4,57943:0:0:0:0:
182,192,57115,1,8,0:0:0:0:
256,192,57529,1,2,0:0:0:0:
475,192,57529,1,0,0:0:0:0:
182,192,57943,1,8,0:0:0:0:
256,192,58357,1,2,0:0:0:0:
475,192,58357,1,0,0:0:0:0:
402,192,58771,128,4,59598:0:0:0:0:
109,192,58771,1,8,0:0:0:0:
36,192,59184,1,0,0:0:0:0:
256,192,59184,1,2,0:0:0:0:
109,192,59598,1,8,0:0:0:0:
36,192,60012,1,0,0:0:0:0:
256,192,60012,1,2,0:0:0:0:
182,192,60426,128,4,61253:0:0:0:0:
329,192,60426,1,8,0:0:0:0:
109,192,60840,1,0,0:0:0:0:
402,192,60840,1,2,0:0:0:0:
329,192,61253,1,8,0:0:0:0:
109,192,61667,1,0,0:0:0:0:
402,192,61667,1,2,0:0:0:0:
475,192,62081,128,12,62495:0:0:0:0:
36,192,62081,128,0,62495:0:0:0:0:
402,192,62495,128,2,62908:0:0:0:0:
109,192,62495,128,0,62908:0:0:0:0:
36,192,62908,1,8,0:0:0:0:
182,192,63012,1,0,0:0:0:0:
329,192,63115,1,0,0:0:0:0:
475,192,63219,1,0,0:0:0:0:
36,192,63322,1,0,0:0:0:0:
182,192,63426,1,0,0:0:0:0:
329,192,63529,1,0,0:0:0:0:
475,192,63633,1,0,0:0:0:0:
182,192,63736,1,8,0:0:0:0:
36,192,63736,128,4,64564:0:0:0:0:
402,192,64150,1,2,0:0:0:0:
109,192,64150,1,0,0:0:0:0:
182,192,64564,1,8,0:0:0:0:
182,192,64771,1,0,0:0:0:0:
402,192,64977,1,2,0:0:0:0:
109,192,64977,1,0,0:0:0:0:
329,192,65391,1,8,0:0:0:0:
182,192,65391,128,4,66219:0:0:0:0:
109,192,65805,1,0,0:0:0:0:
475,192,65805,1,2,0:0:0:0:
402,192,66219,1,8,0:0:0:0:
402,192,66426,1,0,0:0:0:0:
109,192,66633,1,0,0:0:0:0:
475,192,66633,1,2,0:0:0:0:
182,192,67046,1,8,0:0:0:0:
329,192,67046,128,4,67874:0:0:0:0:
402,192,67460,1,2,0:0:0:0:
36,192,67460,1,0,0:0:0:0:
109,192,67874,1,8,0:0:0:0:
109,192,68081,1,0,0:0:0:0:
402,192,68288,1,2,0:0:0:0:
36,192,68288,1,0,0:0:0:0:
475,192,68702,128,12,69529:0:0:0:0:
329,192,69115,128,2,69529:0:0:0:0:
36,192,69529,128,8,70357:0:0:0:0:
182,192,69943,128,2,70357:0:0:0:0:
329,192,69943,1,0,0:0:0:0:
475,192,69943,1,2,0:0:0:0:
329,192,70150,1,0,0:0:0:0:
475,192,70150,1,2,0:0:0:0:
256,192,70357,128,4,71184:0:0:0:0:
402,192,70357,1,8,0:0:0:0:
36,192,70771,1,2,0:0:0:0:
475,192,71184,128,0,71598:0:0:0:0:
402,192,71184,1,8,0:0:0:0:
36,192,71598,1,0,0:0:0:0:
329,192,71598,1,2,0:0:0:0:
256,192,71805,1,0,0:0:0:0:
109,192,72012,128,4,72840:0:0:0:0:
182,192,72012,1,8,0:0:0:0:
36,192,72426,1,2,0:0:0:0:
329,192,72840,1,8,0:0:0:0:
402,192,72840,128,0,73253:0:0:0:0:
256,192,73253,1,2,0:0:0:0:
475,192,73253,1,0,0:0:0:0:
109,192,73460,1,0,0:0:0:0:
36,192,73667,1,0,0:0:0:0:
182,192,73667,1,12,0:0:0:0:
256,192,73874,1,0,0:0:0:0:
329,192,74081,1,2,0:0:0:0:
402,192,74288,1,0,0:0:0:0:
182,192,74288,1,0,0:0:0:0:
36,192,74495,1,0,0:0:0:0:
256,192,74495,1,8,0:0:0:0:
109,192,74702,1,0,0:0:0:0:
182,192,74908,1,2,0:0:0:0:
256,192,75115,1,0,0:0:0:0:
402,192,75115,1,0,0:0:0:0:
109,192,75322,128,12,75529:0:0:0:0:
329,192,75529,128,0,75736:0:0:0:0:
109,192,75736,128,2,75943:0:0:0:0:
329,192,75943,128,0,76150:0:0:0:0:
475,192,76150,1,10,0:0:0:0:
256,192,76150,1,0,0:0:0:0:
402,192,76357,1,2,0:0:0:0:
329,192,76564,1,2,0:0:0:0:
109,192,76564,1,0,0:0:0:0:
256,192,76771,1,2,0:0:0:0:
36,192,76977,1,0,0:0:0:0:
329,192,76977,1,12,0:0:0:0:
182,192,77184,1,0,0:0:0:0:
109,192,77391,1,0,0:0:0:0:
329,192,77391,1,2,0:0:0:0:
256,192,77598,1,0,0:0:0:0:
329,192,77805,1,0,0:0:0:0:
475,192,77805,1,8,0:0:0:0:
36,192,78012,1,0,0:0:0:0:
256,192,78219,1,0,0:0:0:0:
402,192,78219,1,2,0:0:0:0:
109,192,78426,1,0,0:0:0:0:
36,192,78633,128,0,79460:0:0:0:0:
329,192,78633,1,12,0:0:0:0:
182,192,78840,1,0,0:0:0:0:
256,192,79046,1,2,0:0:0:0:
402,192,79253,1,0,0:0:0:0:
475,192,79460,128,0,80288:0:0:0:0:
256,192,79460,1,8,0:0:0:0:
109,192,79667,1,0,0:0:0:0:
182,192,79874,1,2,0:0:0:0:
329,192,80081,1,0,0:0:0:0:
402,192,80288,128,4,80702:0:0:0:0:
36,192,80288,1,8,0:0:0:0:
182,192,80495,1,2,0:0:0:0:
109,192,80702,1,0,0:0:0:0:
256,192,80702,1,10,0:0:0:0:
329,192,80908,1,10,0:0:0:0:
256,192,81115,128,0,81529:0:0:0:0:
36,192,81115,1,8,0:0:0:0:
402,192,81322,1,2,0:0:0:0:
329,192,81529,1,10,0:0:0:0:
475,192,81529,1,0,0:0:0:0:
182,192,81736,1,10,0:0:0:0:
109,192,81943,128,8,82771:0:0:0:0:
402,192,81943,128,4,82771:0:0:0:0:
182,192,82771,1,0,0:0:0:0:
329,192,82771,1,0,0:0:0:0:
36,192,82874,1,0,0:0:0:0:
109,192,82977,1,0,0:0:0:0:
182,192,83081,1,0,0:0:0:0:
256,192,83184,1,0,0:0:0:0:
329,192,83288,1,0,0:0:0:0:
402,192,83391,1,0,0:0:0:0:
475,192,83495,1,0,0:0:0:0:
182,192,83598,1,0,0:0:0:0:
329,192,83598,128,0,87322:0:0:0:0:
36,192,83598,128,0,87322:0:0:0:0:
