osu file format v12

[General]
AudioFilename: Untitled.mp3
AudioLeadIn: 0
PreviewTime: 48559
Countdown: 0
SampleSet: Soft
StackLeniency: 0.7
Mode: 3
LetterboxInBreaks: 0
SpecialStyle: 0
WidescreenStoryboard: 1

[Editor]
DistanceSpacing: 1
BeatDivisor: 4
GridSize: 8

[Metadata]
Title:eternal reality - TV size -
TitleUnicode:eternal reality - TV size -
Artist:fripSide
ArtistUnicode:fripSide
Creator:17VA
Version:4K NM
Source:Toaru Kagaku no Railgun S
Tags:-_R_u_m_i_a_- season 2 misaka mikoto opening woodyzak justhow0615 とある科学の超電磁砲s
BeatmapID:286738
BeatmapSetID:108577

[Difficulty]
HPDrainRate:7
CircleSize:4
OverallDifficulty:6
ApproachRate:5
SliderMultiplier:1.6
SliderTickRate:1

[Events]
//Background and Video events
Video,0,"Untitled.avi"
0,0,"129373711528349605.jpg",0,0
//Break Periods
//Storyboard Layer 0 (Background)
//Storyboard Layer 1 (Fail)
//Storyboard Layer 2 (Pass)
//Storyboard Layer 3 (Foreground)
//Storyboard Sound Samples
//Background Colour Transformations
3,100,163,162,255

[TimingPoints]
840,413.793103448276,4,2,1,53,1,0
33943,-100,4,2,1,31,0,0
35495,-100,4,2,1,53,0,0
50495,-100,4,2,1,53,0,1
83598,-100,4,2,1,53,0,0
84005,-100,4,2,1,5,0,0

[HitObjects]
64,192,840,1,2,0:0:0:0:
192,192,840,1,4,0:0:0:0:
192,192,1150,1,0,0:0:0:0:
448,192,1460,128,0,2081:0:0:0:0:
192,192,2081,1,0,0:0:0:0:
64,192,2495,1,2,0:0:0:0:
192,192,2805,1,0,0:0:0:0:
448,192,3115,128,0,3736:0:0:0:0:
192,192,3736,1,0,0:0:0:0:
320,192,4150,1,2,0:0:0:0:
192,192,4460,1,0,0:0:0:0:
448,192,4771,128,0,5391:0:0:0:0:
320,192,5805,1,2,0:0:0:0:
448,192,6012,1,0,0:0:0:0:
192,192,6219,1,0,0:0:0:0:
320,192,6426,1,0,0:0:0:0:
64,192,6633,1,10,0:0:0:0:
448,192,6840,1,10,0:0:0:0:
64,192,7046,1,10,0:0:0:0:
448,192,7253,1,10,0:0:0:0:
320,192,7460,1,8,0:0:0:0:
64,192,7460,128,4,8288:0:0:0:0:
448,192,7874,1,2,0:0:0:0:
320,192,8288,1,8,0:0:0:0:
192,192,8288,1,0,0:0:0:0:
448,192,8702,1,2,0:0:0:0:
192,192,9115,128,4,9943:0:0:0:0:
64,192,9115,1,8,0:0:0:0:
448,192,9529,1,2,0:0:0:0:
320,192,9943,1,8,0:0:0:0:
64,192,9943,1,0,0:0:0:0:
448,192,10357,1,2,0:0:0:0:
320,192,10771,1,8,0:0:0:0:
64,192,10771,128,4,11391:0:0:0:0:
448,192,11391,1,0,0:0:0:0:
192,192,11598,1,8,0:0:0:0:
320,192,11598,128,0,12219:0:0:0:0:
448,192,12219,1,0,0:0:0:0:
64,192,12426,1,8,0:0:0:0:
192,192,12426,128,4,13253:0:0:0:0:
320,192,12840,1,2,0:0:0:0:
64,192,13253,1,0,0:0:0:0:
448,192,13253,1,8,0:0:0:0:
320,192,13460,1,0,0:0:0:0:
192,192,13667,1,2,0:0:0:0:
320,192,13874,1,0,0:0:0:0:
64,192,14081,1,12,0:0:0:0:
320,192,14081,1,0,0:0:0:0:
448,192,14288,1,0,0:0:0:0:
64,192,14495,1,2,0:0:0:0:
192,192,14702,1,0,0:0:0:0:
320,192,14908,1,8,0:0:0:0:
64,192,15115,1,0,0:0:0:0:
448,192,15322,1,2,0:0:0:0:
320,192,15529,1,0,0:0:0:0:
64,192,15736,1,12,0:0:0:0:
320,192,15736,1,0,0:0:0:0:
192,192,15943,1,0,0:0:0:0:
320,192,16150,1,2,0:0:0:0:
448,192,16357,1,0,0:0:0:0:
64,192,16564,1,8,0:0:0:0:
448,192,16771,1,0,0:0:0:0:
192,192,16977,1,2,0:0:0:0:
320,192,17184,1,0,0:0:0:0:
64,192,17391,1,8,0:0:0:0:
448,192,17391,1,0,0:0:0:0:
320,192,17598,1,0,0:0:0:0:
320,192,17908,1,0,0:0:0:0:
64,192,18219,128,0,19046:0:0:0:0:
448,192,18219,1,8,0:0:0:0:
320,192,18529,1,0,0:0:0:0:
320,192,18840,1,0,0:0:0:0:
192,192,19046,1,8,0:0:0:0:
448,192,19046,128,4,20495:0:0:0:0:
320,192,19460,1,2,0:0:0:0:
64,192,19874,1,8,0:0:0:0:
192,192,19874,1,0,0:0:0:0:
320,192,20081,1,0,0:0:0:0:
64,192,20288,1,10,0:0:0:0:
192,192,20495,1,0,0:0:0:0:
320,192,20495,1,8,0:0:0:0:
320,192,21115,128,0,22357:0:0:0:0:
64,192,22357,1,0,0:0:0:0:
448,192,22357,1,2,0:0:0:0:
320,192,23184,1,0,0:0:0:0:
320,192,23805,1,0,0:0:0:0:
192,192,24012,1,2,0:0:0:0:
448,192,24012,1,0,0:0:0:0:
64,192,24840,1,0,0:0:0:0:
192,192,25667,1,0,0:0:0:0:
448,192,25667,1,0,0:0:0:0:
64,192,26495,1,0,0:0:0:0:
192,192,27115,1,0,0:0:0:0:
192,192,27322,1,0,0:0:0:0:
320,192,27322,1,2,0:0:0:0:
64,192,28150,1,2,0:0:0:0:
320,192,28150,1,0,0:0:0:0:
192,192,28564,1,2,0:0:0:0:
448,192,28564,1,0,0:0:0:0:
64,192,28977,1,6,0:0:0:0:
192,192,29184,1,0,0:0:0:0:
320,192,29391,1,2,0:0:0:0:
448,192,29598,1,0,0:0:0:0:
64,192,29805,1,2,0:0:0:0:
320,192,29805,1,0,0:0:0:0:
192,192,30219,1,2,0:0:0:0:
448,192,30426,1,0,0:0:0:0:
64,192,30633,1,6,0:0:0:0:
192,192,30840,1,0,0:0:0:0:
320,192,31046,1,2,0:0:0:0:
448,192,31253,1,0,0:0:0:0:
64,192,31460,1,0,0:0:0:0:
192,192,31460,1,2,0:0:0:0:
320,192,31874,1,2,0:0:0:0:
448,192,32081,1,0,0:0:0:0:
64,192,32288,1,6,0:0:0:0:
320,192,32288,1,0,0:0:0:0:
192,192,32702,1,2,0:0:0:0:
320,192,32908,1,2,0:0:0:0:
64,192,33115,1,0,0:0:0:0:
448,192,33115,1,2,0:0:0:0:
320,192,33529,1,2,0:0:0:0:
448,192,33736,1,2,0:0:0:0:
64,192,33943,128,0,34771:0:0:0:0:
192,192,33943,1,0,0:0:0:0:
448,192,34771,1,2,0:0:0:0:
192,192,34977,1,2,0:0:0:0:
448,192,35184,1,2,0:0:0:0:
192,192,35391,1,2,0:0:0:0:
64,192,35598,1,4,0:0:0:0:
320,192,35598,1,0,0:0:0:0:
192,192,36012,1,2,0:0:0:0:
64,192,36426,1,0,0:0:0:0:
320,192,36426,1,0,0:0:0:0:
448,192,36736,1,0,0:0:0:0:
320,192,37046,1,0,0:0:0:0:
64,192,37253,1,4,0:0:0:0:
192,192,37253,1,0,0:0:0:0:
320,192,37667,1,2,0:0:0:0:
64,192,38081,1,0,0:0:0:0:
192,192,38391,1,0,0:0:0:0:
320,192,38702,1,0,0:0:0:0:
64,192,38908,1,4,0:0:0:0:
448,192,38908,1,0,0:0:0:0:
192,192,39322,1,2,0:0:0:0:
64,192,39736,1,0,0:0:0:0:
320,192,39736,1,0,0:0:0:0:
448,192,40046,1,0,0:0:0:0:
192,192,40357,1,0,0:0:0:0:
320,192,40564,1,0,0:0:0:0:
448,192,40564,1,4,0:0:0:0:
64,192,40874,1,0,0:0:0:0:
448,192,41184,1,0,0:0:0:0:
192,192,41391,1,0,0:0:0:0:
320,192,41391,1,0,0:0:0:0:
64,192,41805,1,2,0:0:0:0:
448,192,41805,1,0,0:0:0:0:
192,192,42219,1,4,0:0:0:0:
448,192,42219,1,0,0:0:0:0:
64,192,42633,1,2,0:0:0:0:
320,192,43046,1,0,0:0:0:0:
448,192,43046,1,0,0:0:0:0:
64,192,43460,1,2,0:0:0:0:
320,192,43460,1,0,0:0:0:0:
64,192,43667,1,0,0:0:0:0:
192,192,43874,1,4,0:0:0:0:
448,192,43874,1,0,0:0:0:0:
320,192,44288,1,2,0:0:0:0:
64,192,44702,1,0,0:0:0:0:
192,192,44702,1,0,0:0:0:0:
192,192,45115,1,0,0:0:0:0:
448,192,45115,1,2,0:0:0:0:
448,192,45322,1,2,0:0:0:0:
64,192,45529,1,0,0:0:0:0:
192,192,45529,1,4,0:0:0:0:
320,192,45943,1,2,0:0:0:0:
64,192,46357,1,0,0:0:0:0:
448,192,46357,1,0,0:0:0:0:
192,192,46771,1,2,0:0:0:0:
64,192,47184,1,4,0:0:0:0:
320,192,47184,1,0,0:0:0:0:
448,192,47598,1,2,0:0:0:0:
192,192,48012,1,0,0:0:0:0:
320,192,48012,1,0,0:0:0:0:
448,192,48426,1,2,0:0:0:0:
448,192,48840,1,4,0:0:0:0:
64,192,48943,1,0,0:0:0:0:
448,192,49150,1,4,0:0:0:0:
64,192,49253,1,0,0:0:0:0:
320,192,49460,1,0,0:0:0:0:
192,192,49460,1,4,0:0:0:0:
448,192,49771,1,4,0:0:0:0:
192,192,49771,1,0,0:0:0:0:
448,192,50081,1,2,0:0:0:0:
64,192,50081,1,4,0:0:0:0:
64,192,50288,1,4,0:0:0:0:
448,192,50288,1,2,0:0:0:0:
64,192,50495,1,4,0:0:0:0:
320,192,50495,1,12,0:0:0:0:
320,192,50805,1,0,0:0:0:0:
448,192,51115,128,0,51736:0:0:0:0:
320,192,51736,1,2,0:0:0:0:
64,192,51943,1,0,0:0:0:0:
192,192,52150,1,0,0:0:0:0:
320,192,52150,1,12,0:0:0:0:
320,192,52460,1,0,0:0:0:0:
448,192,52771,128,0,53391:0:0:0:0:
192,192,53391,1,2,0:0:0:0:
192,192,53598,1,2,0:0:0:0:
64,192,53805,1,0,0:0:0:0:
320,192,53805,1,12,0:0:0:0:
320,192,54115,1,0,0:0:0:0:
448,192,54426,128,0,54840:0:0:0:0:
64,192,54840,1,0,0:0:0:0:
192,192,55046,1,2,0:0:0:0:
320,192,55253,1,0,0:0:0:0:
448,192,55460,128,0,55874:0:0:0:0:
192,192,55460,1,12,0:0:0:0:
320,192,55874,128,2,56288:0:0:0:0:
192,192,56288,128,8,57115:0:0:0:0:
64,192,57115,1,0,0:0:0:0:
320,192,57115,1,12,0:0:0:0:
320,192,57426,1,0,0:0:0:0:
448,192,57736,128,0,58357:0:0:0:0:
320,192,58357,1,2,0:0:0:0:
192,192,58564,1,0,0:0:0:0:
64,192,58771,1,0,0:0:0:0:
320,192,58771,1,12,0:0:0:0:
320,192,59081,1,0,0:0:0:0:
448,192,59391,128,0,60012:0:0:0:0:
320,192,60012,1,2,0:0:0:0:
320,192,60219,1,2,0:0:0:0:
64,192,60426,1,0,0:0:0:0:
192,192,60426,1,12,0:0:0:0:
320,192,60736,1,0,0:0:0:0:
448,192,61046,128,0,61460:0:0:0:0:
64,192,61460,1,0,0:0:0:0:
320,192,61667,1,0,0:0:0:0:
64,192,61874,1,0,0:0:0:0:
448,192,62081,128,0,62495:0:0:0:0:
192,192,62081,1,12,0:0:0:0:
320,192,62495,128,2,62908:0:0:0:0:
64,192,62908,128,0,63736:0:0:0:0:
192,192,62908,1,0,0:0:0:0:
448,192,63115,1,0,0:0:0:0:
320,192,63322,1,2,0:0:0:0:
448,192,63529,1,0,0:0:0:0:
192,192,63736,1,12,0:0:0:0:
320,192,63736,1,0,0:0:0:0:
320,192,64046,1,0,0:0:0:0:
448,192,64357,128,0,64977:0:0:0:0:
320,192,64977,1,2,0:0:0:0:
192,192,65184,1,0,0:0:0:0:
64,192,65391,1,0,0:0:0:0:
320,192,65391,1,12,0:0:0:0:
320,192,65702,1,0,0:0:0:0:
448,192,66012,128,0,66633:0:0:0:0:
192,192,66633,1,2,0:0:0:0:
64,192,66840,1,2,0:0:0:0:
192,192,67046,1,12,0:0:0:0:
320,192,67046,1,0,0:0:0:0:
320,192,67357,1,0,0:0:0:0:
448,192,67667,128,0,68081:0:0:0:0:
64,192,68081,1,0,0:0:0:0:
192,192,68288,1,0,0:0:0:0:
320,192,68495,1,0,0:0:0:0:
448,192,68702,128,0,69115:0:0:0:0:
64,192,68702,1,12,0:0:0:0:
320,192,69115,128,2,69529:0:0:0:0:
192,192,69529,128,8,69943:0:0:0:0:
64,192,69943,128,2,70357:0:0:0:0:
192,192,70357,1,4,0:0:0:0:
448,192,70357,1,8,0:0:0:0:
320,192,70564,1,0,0:0:0:0:
64,192,70771,1,2,0:0:0:0:
192,192,70977,1,0,0:0:0:0:
64,192,71184,1,0,0:0:0:0:
448,192,71184,1,8,0:0:0:0:
320,192,71391,1,0,0:0:0:0:
192,192,71598,1,2,0:0:0:0:
320,192,71805,1,0,0:0:0:0:
64,192,72012,1,0,0:0:0:0:
192,192,72012,1,12,0:0:0:0:
320,192,72219,1,0,0:0:0:0:
448,192,72426,1,0,0:0:0:0:
192,192,72633,1,0,0:0:0:0:
64,192,72840,1,2,0:0:0:0:
448,192,72840,1,8,0:0:0:0:
320,192,73046,1,0,0:0:0:0:
192,192,73253,1,2,0:0:0:0:
320,192,73460,1,0,0:0:0:0:
64,192,73667,1,4,0:0:0:0:
192,192,73667,1,8,0:0:0:0:
192,192,74081,1,2,0:0:0:0:
448,192,74081,1,0,0:0:0:0:
64,192,74495,1,0,0:0:0:0:
320,192,74495,1,8,0:0:0:0:
192,192,74908,1,2,0:0:0:0:
448,192,74908,1,0,0:0:0:0:
64,192,75322,1,0,0:0:0:0:
448,192,75322,1,12,0:0:0:0:
320,192,75529,1,0,0:0:0:0:
192,192,75736,1,2,0:0:0:0:
448,192,75736,1,0,0:0:0:0:
320,192,75943,1,0,0:0:0:0:
192,192,76150,1,8,0:0:0:0:
64,192,76150,1,0,0:0:0:0:
448,192,76357,1,0,0:0:0:0:
320,192,76564,1,2,0:0:0:0:
320,192,76771,1,0,0:0:0:0:
64,192,76977,1,4,0:0:0:0:
192,192,76977,1,8,0:0:0:0:
192,192,77391,1,2,0:0:0:0:
448,192,77391,1,0,0:0:0:0:
64,192,77805,1,0,0:0:0:0:
320,192,77805,1,8,0:0:0:0:
448,192,78012,1,0,0:0:0:0:
192,192,78219,1,2,0:0:0:0:
320,192,78219,1,0,0:0:0:0:
448,192,78426,1,0,0:0:0:0:
64,192,78633,1,4,0:0:0:0:
320,192,78633,1,8,0:0:0:0:
192,192,79046,1,2,0:0:0:0:
320,192,79046,1,0,0:0:0:0:
64,192,79460,1,0,0:0:0:0:
448,192,79460,1,8,0:0:0:0:
320,192,79667,1,0,0:0:0:0:
64,192,79874,1,0,0:0:0:0:
192,192,79874,1,2,0:0:0:0:
320,192,80081,1,0,0:0:0:0:
448,192,80288,128,4,81115:0:0:0:0:
64,192,80288,1,10,0:0:0:0:
320,192,80495,1,2,0:0:0:0:
64,192,80702,1,10,0:0:0:0:
320,192,80908,1,10,0:0:0:0:
64,192,81115,128,0,81943:0:0:0:0:
192,192,81115,1,10,0:0:0:0:
448,192,81322,1,2,0:0:0:0:
192,192,81529,1,10,0:0:0:0:
448,192,81736,1,10,0:0:0:0:
192,192,81943,1,4,0:0:0:0:
320,192,81943,1,8,0:0:0:0:
448,192,82150,1,2,0:0:0:0:
64,192,82357,1,2,0:0:0:0:
320,192,82357,1,4,0:0:0:0:
192,192,82564,1,2,0:0:0:0:
448,192,82564,1,4,0:0:0:0:
64,192,82771,1,0,0:0:0:0:
320,192,82977,1,0,0:0:0:0:
192,192,83184,1,0,0:0:0:0:
448,192,83391,1,0,0:0:0:0:
64,192,83598,128,0,85253:0:0:0:0:
320,192,83598,128,0,85253:0:0:0:0:
