osu file format v12

[General]
AudioFilename: endless memoryrefrain as Da Capo.mp3
AudioLeadIn: 0
PreviewTime: 90213
Countdown: 0
SampleSet: Soft
StackLeniency: 0.7
Mode: 0
LetterboxInBreaks: 0
EpilepsyWarning: 1

[Editor]
Bookmarks: 40713,56713,72713
DistanceSpacing: 1
BeatDivisor: 4
GridSize: 4

[Metadata]
Title:endless memory ~refrain as Da Capo~
TitleUnicode:endless memory ~refrain as Da Capo~
Artist:fripSide
ArtistUnicode:fripSide
Creator:Xinely
Version:Normal
Source:D.C.III R ~Da Capo R III~
Tags:circus opening eroge visual novel X-rated Gloria Guard -_t_e_n_n_y_a_- tennya Hinsvar Setsurei
BeatmapID:243596
BeatmapSetID:89276

[Difficulty]
HPDrainRate:4
CircleSize:3
OverallDifficulty:4
ApproachRate:5
SliderMultiplier:1.3
SliderTickRate:2

[Events]
//Background and Video events
0,0,"ero.jpg",0,0
//Break Periods
//Storyboard Layer 0 (Background)
//Storyboard Layer 1 (Fail)
//Storyboard Layer 2 (Pass)
//Storyboard Layer 3 (Foreground)
//Storyboard Sound Samples
//Background Colour Transformations
3,100,163,162,255

[TimingPoints]
4720,535.714285714286,4,2,1,40,1,0
17557,550.45871559633,4,2,1,30,1,0
19758,588.235294117647,4,2,1,30,1,0
24713,500,4,2,1,60,1,0
35213,-100,4,2,2,60,0,0
35338,-100,4,2,1,60,0,0
37213,-100,4,2,2,60,0,0
37338,-100,4,2,1,60,0,0
40713,-100,4,2,1,50,0,0
55713,-100,4,2,1,30,0,0
56713,-100,4,2,1,50,0,0
76213,-100,4,2,2,50,0,0
76338,-100,4,2,1,50,0,0
85213,-100,4,2,2,50,0,0
85338,-100,4,2,1,50,0,0
87213,-100,4,2,2,50,0,0
87338,-100,4,2,1,50,0,0
90713,-100,4,2,1,65,0,1
95213,-100,4,2,2,65,0,1
95338,-100,4,2,1,65,0,1
97213,-100,4,2,2,65,0,1
97338,-100,4,2,1,65,0,1
104713,-100,4,2,1,40,0,0
106213,-100,4,2,1,45,0,0
106713,-100,4,2,1,65,0,1
111213,-100,4,2,2,65,0,1
111338,-100,4,2,1,65,0,1
116213,-100,4,2,2,65,0,1
116338,-100,4,2,1,65,0,1
117213,-100,4,2,2,65,0,1
117338,-100,4,2,1,65,0,1
119213,-100,4,2,2,65,0,1
119338,-100,4,2,1,65,0,1
120713,-100,4,2,1,65,0,0
124213,-100,4,2,1,5,0,0

[Colours]
Combo1 : 244,117,241
Combo2 : 255,255,136

[HitObjects]
164,112,4719,2,0,P|232:96|304:128,1,130,2|0,0:0|0:0,0:0:0:0:
288,244,5791,2,0,P|220:260|148:228,1,130,2|0,0:0|0:0,0:0:0:0:
112,200,6595,1,0,0:0:0:0:
132,140,6862,2,0,P|168:80|221:54,1,130,2|0,0:0|0:0,0:0:0:0:
356,48,7934,2,0,P|319:107|266:133,1,130,2|0,0:0|0:0,0:0:0:0:
208,160,8737,1,0,0:0:0:0:
144,176,9005,6,0,P|80:196|12:160,2,130,2|0|2,0:0|0:0|0:0,0:0:0:0:
256,240,10612,1,0,0:0:0:0:
368,176,11148,2,0,P|420:200|500:160,2,130,2|0|2,0:0|0:0|0:0,0:0:0:0:
256,108,12755,2,0,L|256:40,2,65,0|0|2,0:0|0:0|0:0,0:0:0:0:
132,152,13827,6,0,P|108:212|136:288,1,130,0|2,0:0|0:0,0:0:0:0:
184,300,14630,1,0,0:0:0:0:
248,284,14898,2,0,P|272:224|244:148,1,130,0|2,0:0|0:0,0:0:0:0:
128,180,15970,2,0,P|153:120|226:86,1,130,0|2,0:0|0:0,0:0:0:0:
328,36,17041,1,0,0:0:0:0:
260,136,17557,5,2,0:0:0:0:
132,160,18107,1,0,0:0:0:0:
164,216,18382,1,0,0:0:0:0:
200,272,18657,2,0,P|244:312|328:296,1,130,2|0,0:0|0:0,0:0:0:0:
364,268,19483,1,0,0:0:0:0:
256,192,19758,12,0,24169,0:0:0:0:
216,168,24713,6,0,P|276:152|364:176,1,130,4|8,0:0|0:0,0:0:0:0:
344,228,25463,2,0,P|284:244|196:220,1,130,2|0,0:0|0:0,0:0:0:0:
156,212,26213,1,8,0:0:0:0:
24,196,26713,2,0,P|28:260|84:320,1,130,2|8,0:0|0:0,0:0:0:0:
112,356,27463,1,2,0:0:0:0:
240,336,27963,2,0,L|304:300,1,65,0|8,0:0|0:0,0:0:0:0:
352,268,28463,1,0,0:0:0:0:
408,232,28713,6,0,P|436:188|416:104,1,130,2|8,0:0|0:0,0:0:0:0:
392,56,29463,1,2,0:0:0:0:
264,48,29963,2,0,P|228:60|196:64,1,65,0|8,0:0|0:0,0:0:0:0:
136,72,30463,1,2,0:0:0:0:
48,168,30963,2,0,P|76:180|116:184,1,65,0|8,0:0|0:0,0:0:0:0:
176,196,31463,1,2,0:0:0:0:
260,96,31963,1,0,0:0:0:0:
320,120,32213,1,8,0:0:0:0:
436,176,32713,6,0,P|420:248|368:284,1,130,4|8,0:0|0:0,0:0:0:0:
324,316,33463,2,0,P|253:338|196:311,1,130,2|0,0:0|0:0,0:0:0:0:
152,276,34213,1,8,0:0:0:0:
192,156,34713,2,0,B|236:140|256:92|256:92|308:100|356:44,2,195,2|2|8,0:0|0:0|0:0,0:0:0:0:
144,200,36463,1,0,0:0:0:0:
100,248,36713,6,0,P|168:288|284:248,1,195,2|2,0:0|0:0,0:0:0:0:
368,168,37963,1,0,0:0:0:0:
316,128,38213,1,8,0:0:0:0:
264,88,38463,2,0,P|200:56|136:72,1,130,2|0,0:0|0:0,0:0:0:0:
94,108,39213,2,0,L|43:178,1,65,8|0,0:0|0:0,0:0:0:0:
25,218,39713,2,0,P|89:250|153:234,1,130,2|8,0:0|0:0,0:0:0:0:
265,192,40713,5,4,0:0:0:0:
332,308,41213,2,0,P|392:324|464:284,1,130,0|2,0:0|0:0,0:0:0:0:
348,216,42213,2,0,P|401:184|424:105,1,130,0|2,0:0|0:0,0:0:0:0:
372,84,42963,1,0,0:0:0:0:
316,48,43213,1,0,0:0:0:0:
260,12,43463,2,0,P|206:43|183:122,1,130,2|0,0:0|0:0,0:0:0:0:
176,168,44213,1,2,0:0:0:0:
176,296,44713,6,0,P|240:316|312:288,1,130,2|0,0:0|0:0,0:0:0:0:
311,235,45463,1,0,0:0:0:0:
300,172,45713,2,0,P|236:152|164:180,1,130,2|0,0:0|0:0,0:0:0:0:
44,152,46713,1,2,0:0:0:0:
44,280,47213,1,0,0:0:0:0:
164,328,47713,1,2,0:0:0:0:
244,224,48213,1,0,0:0:0:0:
204,172,48463,1,0,0:0:0:0:
164,120,48713,5,2,0:0:0:0:
292,100,49213,2,0,P|352:76|424:104,1,130,0|2,0:0|0:0,0:0:0:0:
420,224,50213,2,0,P|360:248|288:220,1,130,0|2,0:0|0:0,0:0:0:0:
240,208,50963,2,0,P|180:182|156:100,1,130
284,128,51963,2,0,P|344:154|368:236,1,130,2|0,0:0|0:0,0:0:0:0:
376,276,52713,5,2,0:0:0:0:
256,336,53213,1,0,0:0:0:0:
136,276,53713,1,2,0:0:0:0:
60,172,54213,2,0,P|40:112|64:40,2,130,0|2|0,0:0|0:0|0:0,0:0:0:0:
136,276,55713,2,2,P|260:328|380:260,1,260,2|4,0:0|0:0,0:0:0:0:
392,148,57213,6,0,P|372:88|312:56,1,130,8|2,0:0|0:0,0:0:0:0:
304,184,58213,2,0,P|324:244|384:276,1,130,8|2,0:0|0:0,0:0:0:0:
444,260,58963,2,0,P|468:236|480:184,1,65,0|8,0:0|0:0,0:0:0:0:
492,144,59463,2,0,P|448:96|372:100,1,130,2|0,0:0|0:0,0:0:0:0:
328,124,60213,1,8,0:0:0:0:
212,64,60713,6,0,P|148:68|96:124,1,130,2|8,0:0|0:0,0:0:0:0:
88,176,61463,1,0,0:0:0:0:
144,208,61713,2,0,P|208:204|260:148,1,130,2|8,0:0|0:0,0:0:0:0:
376,108,62713,2,0,P|400:168|364:244,1,130,2|8,0:0|0:0,0:0:0:0:
252,228,63713,2,0,P|228:168|264:92,1,130,2|8,0:0|0:0,0:0:0:0:
356,32,64713,5,4,0:0:0:0:
448,132,65213,2,0,L|376:264,1,130,8|2,0:0|0:0,0:0:0:0:
264,292,66213,2,0,L|296:232,1,65,8|0,0:0|0:0,0:0:0:0:
312,172,66713,2,0,P|328:108|304:40,2,130,2|8|2,0:0|0:0|0:0,0:0:0:0:
188,132,68213,2,0,L|124:112,1,65,8|0,0:0|0:0,0:0:0:0:
60,116,68713,6,0,P|32:184|60:252,2,130,2|8|2,0:0|0:0|0:0,0:0:0:0:
188,132,70213,1,8,0:0:0:0:
300,68,70713,2,0,B|340:132|304:192|304:192|340:256|288:320,1,260,2|2,0:0|0:0,0:0:0:0:
164,324,72213,2,0,L|96:280,1,65,8|0,0:0|0:0,0:0:0:0:
60,248,72713,6,0,P|44:184|76:120,1,130,4|8,0:0|0:0,0:0:0:0:
160,36,73713,1,2,0:0:0:0:
284,72,74213,2,0,L|332:132,1,65,8|0,0:0|0:0,0:0:0:0:
368,172,74713,2,0,P|424:188|508:152,2,130,2|8|2,0:0|0:0|0:0,0:0:0:0:
328,224,75963,2,0,P|260:200|192:220,1,130
200,276,76713,6,0,P|268:300|336:280,1,130,2|8,0:0|0:0,0:0:0:0:
380,260,77463,1,2,0:0:0:0:
256,192,77713,12,2,79713,0:0:0:0:
364,88,80713,6,0,P|388:144|344:220,1,130,4|8,0:0|0:0,0:0:0:0:
312,324,81713,1,2,0:0:0:0:
256,208,82213,2,0,L|180:248,1,65,8|0,0:0|0:0,0:0:0:0:
140,264,82713,6,0,P|72:240|44:176,1,130,2|8,0:0|0:0,0:0:0:0:
116,80,83713,1,2,0:0:0:0:
240,40,84213,1,8,0:0:0:0:
288,84,84463,1,0,0:0:0:0:
332,132,84713,2,0,P|336:260|224:344,1,260,2|2,0:0|0:0,0:0:0:0:
176,348,85963,1,0,0:0:0:0:
160,284,86213,2,0,L|144:200,1,65,8|0,0:0|0:0,0:0:0:0:
20,236,86963,6,0,P|34:165|93:128,1,130
128,92,87713,1,2,0:0:0:0:
248,44,88213,1,8,0:0:0:0:
300,80,88463,1,0,0:0:0:0:
348,124,88713,2,0,P|360:176|328:240,2,97.5,2|0|0,0:0|0:0|0:0,0:0:0:0:
300,80,89713,2,0,P|248:120|176:136,1,130,2|8,0:0|0:0,0:0:0:0:
64,88,90713,5,4,0:0:0:0:
84,216,91213,2,0,P|96:276|152:316,1,130,8|2,0:0|0:0,0:0:0:0:
204,348,91963,1,0,0:0:0:0:
256,308,92213,2,0,L|296:240,1,65,8|0,0:0|0:0,0:0:0:0:
308,188,92713,2,0,P|296:128|240:88,1,130,2|8,0:0|0:0,0:0:0:0:
180,96,93463,2,0,P|144:108|100:104,1,65,0|2,0:0|0:0,0:0:0:0:
56,224,94213,1,8,0:0:0:0:
176,272,94713,6,0,P|240:312|276:308,2,97.5,2|0|0,0:0|0:0|0:0,0:0:0:0:
156,208,95713,2,0,P|140:160|172:80,1,130,2|8,0:0|0:0,0:0:0:0:
296,84,96713,2,0,P|344:96|408:68,2,97.5,2|0|0,0:0|0:0|0:0,0:0:0:0:
232,76,97713,1,2,0:0:0:0:
176,192,98213,2,0,P|216:204|248:236,1,65,8|0,0:0|0:0,0:0:0:0:
272,268,98713,6,0,P|328:304|400:296,2,130,4|8|2,0:0|0:0|0:0,0:0:0:0:
312,216,99963,1,0,0:0:0:0:
312,152,100213,1,8,0:0:0:0:
268,104,100463,1,0,0:0:0:0:
216,64,100713,2,0,P|176:56|100:100,1,130,2|8,0:0|0:0,0:0:0:0:
64,152,101463,2,0,P|60:188|36:232,1,65,0|2,0:0|0:0,0:0:0:0:
136,308,102213,2,0,P|164:304|204:308,1,65,8|0,0:0|0:0,0:0:0:0:
264,320,102713,6,0,P|324:340|392:316,1,130,2|8,0:0|0:0,0:0:0:0:
424,268,103463,1,0,0:0:0:0:
384,216,103713,2,0,P|324:196|256:220,1,130,2|8,0:0|0:0,0:0:0:0:
224,268,104463,1,0,0:0:0:0:
176,316,104713,2,2,P|80:244|128:104,1,260
212,48,106213,2,0,L|284:108,1,65,8|0,0:0|0:0,0:0:0:0:
312,132,106713,5,4,0:0:0:0:
416,56,107213,2,0,P|440:120|412:188,1,130,8|2,0:0|0:0,0:0:0:0:
388,232,107963,2,0,P|364:264|328:292,1,65,0|8,0:0|0:0,0:0:0:0:
292,320,108463,1,0,0:0:0:0:
232,348,108713,2,0,P|160:348|112:320,1,130,2|8,0:0|0:0,0:0:0:0:
76,264,109463,1,0,0:0:0:0:
76,200,109713,2,0,P|88:140|144:100,1,130,2|8,0:0|0:0,0:0:0:0:
264,56,110713,6,0,P|312:64|376:36,2,97.5,2|0|0,0:0|0:0|0:0,0:0:0:0:
212,96,111713,1,2,0:0:0:0:
168,144,111963,1,0,0:0:0:0:
120,188,112213,2,0,P|166:235|232:240,1,130,8|2,0:0|0:0,0:0:0:0:
292,256,112963,2,0,P|315:264|355:264,2,65,0|8|0,0:0|0:0|0:0,0:0:0:0:
228,240,113713,1,2,0:0:0:0:
304,132,114213,6,0,P|244:156|180:136,1,130,8|4,0:0|0:0,0:0:0:0:
80,60,115213,2,0,P|140:36|204:56,1,130,8|2,0:0|0:0,0:0:0:0:
252,92,115963,2,0,P|312:116|372:98,1,130,0|0,0:0|0:0,0:0:0:0:
436,112,116713,2,0,P|464:152|464:216,2,97.5,2|0|0,0:0|0:0|0:0,0:0:0:0:
373,99,117713,1,2,0:0:0:0:
252,48,118213,6,0,P|212:44|168:48,2,65,8|0|2,0:0|0:0|0:0,0:0:0:0:
308,80,118963,2,0,P|320:148|280:224,1,130
248,244,119713,2,0,L|248:332,2,65,2|0|8,0:0|0:0|0:0,0:0:0:0:
248,180,120463,1,0,0:0:0:0:
256,192,120713,12,0,124213,0:0:0:0:
