osu file format v12

[General]
AudioFilename: endless memoryrefrain as Da Capo.mp3
AudioLeadIn: 0
PreviewTime: 90213
Countdown: 0
SampleSet: Soft
StackLeniency: 0.7
Mode: 0
LetterboxInBreaks: 0
EpilepsyWarning: 1

[Editor]
Bookmarks: 40713
DistanceSpacing: 1
BeatDivisor: 4
GridSize: 4

[Metadata]
Title:endless memory ~refrain as Da Capo~
TitleUnicode:endless memory ~refrain as Da Capo~
Artist:fripSide
ArtistUnicode:fripSide
Creator:Xinely
Version:Huard
Source:D.C.III R ~Da Capo R III~
Tags:circus opening eroge visual novel X-rated Gloria Guard -_t_e_n_n_y_a_- tennya Hinsvar Setsurei
BeatmapID:244788
BeatmapSetID:89276

[Difficulty]
HPDrainRate:6
CircleSize:4
OverallDifficulty:6
ApproachRate:7
SliderMultiplier:1.6
SliderTickRate:1

[Events]
//Background and Video events
0,0,"ero.jpg",0,0
//Break Periods
//Storyboard Layer 0 (Background)
//Storyboard Layer 1 (Fail)
//Storyboard Layer 2 (Pass)
//Storyboard Layer 3 (Foreground)
//Storyboard Sound Samples
//Background Colour Transformations
3,100,163,162,255

[TimingPoints]
4720,535.714285714286,4,2,2,40,1,0
17557,550.45871559633,4,2,2,30,1,0
19758,588.235294117647,4,2,2,30,1,0
24713,500,4,2,1,70,1,0
24838,-100,4,2,2,70,0,0
40963,-100,4,2,1,50,0,0
72713,-100,4,2,2,60,0,0
90713,-100,4,2,1,70,0,1
104713,-100,4,2,1,70,0,0
106713,-100,4,2,2,70,0,1
120713,-100,4,2,2,70,0,0
124213,-100,4,2,2,5,0,0

[Colours]
Combo1 : 244,117,241
Combo2 : 255,255,136

[HitObjects]
144,36,4719,2,0,B|144:84|172:124|172:124|144:184,1,160,0|2,0:0|0:0,0:0:0:0:
36,304,5791,1,0,0:0:0:0:
96,356,6059,1,0,0:0:0:0:
176,356,6327,1,2,0:0:0:0:
236,304,6595,1,0,0:0:0:0:
252,228,6862,6,0,P|332:228|400:268,1,160,0|2,0:0|0:0,0:0:0:0:
376,344,7666,1,0,0:0:0:0:
376,344,7934,2,0,P|412:272|488:244,1,160,0|2,0:0|0:0,0:0:0:0:
488,164,8737,1,0,0:0:0:0:
488,84,9005,6,0,P|444:40|388:40,2,120
412,116,10077,2,0,L|380:192,1,80
320,136,10612,2,0,L|244:168,1,80,2|0,0:0|0:0,0:0:0:0:
232,88,11148,6,0,P|168:88|120:60,2,120
288,32,12220,2,0,P|308:108|256:168,1,160,0|2,0:0|0:0,0:0:0:0:
184,192,13023,1,0,0:0:0:0:
108,220,13291,6,0,P|59:278|79:354,2,160,0|2|0,0:0|0:0|0:0,0:0:0:0:
136,296,14630,1,0,0:0:0:0:
188,236,14898,1,2,0:0:0:0:
188,156,15166,1,0,0:0:0:0:
128,104,15434,6,0,P|72:104|16:132,2,120
188,156,16505,2,0,P|268:156|332:112,1,160,0|2,0:0|0:0,0:0:0:0:
332,32,17309,1,0,0:0:0:0:
408,24,17557,6,0,P|448:24|484:40,1,80
432,100,18107,2,0,P|464:128|480:168,1,80,2|0,0:0|0:0,0:0:0:0:
400,180,18657,2,0,P|400:260|348:316,1,160,0|2,0:0|0:0,0:0:0:0:
268,316,19483,1,0,0:0:0:0:
216,260,19758,1,0,0:0:0:0:
256,192,19905,12,0,24169,0:0:0:0:
336,72,24713,6,0,P|376:72|412:88,2,80,6|0|8,0:0|0:0|0:0,0:0:0:0:
360,148,25463,2,0,P|316:216|236:216,1,160
236,340,26213,1,8,0:0:0:0:
352,356,26463,1,0,0:0:0:0:
352,356,26588,1,0,0:0:0:0:
352,356,26713,6,0,P|392:356|432:340,1,80,0|0,0:0|0:0,0:0:0:0:
492,240,27213,1,8,0:0:0:0:
428,140,27463,1,0,0:0:0:0:
320,192,27713,2,0,L|268:192,2,40,0|8|0,0:0|0:0|0:0,0:0:0:0:
428,140,28213,2,0,P|472:136|508:160,1,80,8|0,0:0|0:0,0:0:0:0:
452,216,28713,6,0,L|432:300,2,80,0|0|8,0:0|0:0|0:0,0:0:0:0:
428,140,29463,2,0,P|348:140|284:96,1,160
228,36,30213,1,8,0:0:0:0:
148,36,30463,6,0,P|72:64|32:132,1,160
80,192,31213,2,0,L|164:192,1,80,8|0,0:0|0:0,0:0:0:0:
256,124,31713,2,0,L|256:80,2,40,0|8|0,0:0|0:0|0:0,0:0:0:0:
352,192,32213,1,8,0:0:0:0:
256,264,32463,1,0,0:0:0:0:
256,264,32588,1,0,0:0:0:0:
256,264,32713,6,0,L|256:344,2,80,0|0|8,0:0|0:0|0:0,0:0:0:0:
188,220,33463,2,0,P|256:184|324:224,1,160
392,320,34213,1,8,0:0:0:0:
460,220,34463,1,0,0:0:0:0:
460,220,34588,1,0,0:0:0:0:
460,220,34713,6,0,L|460:132,2,80,0|0|8,0:0|0:0|0:0,0:0:0:0:
460,300,35463,2,0,P|376:300|312:256,1,160
256,156,36213,1,8,0:0:0:0:
340,72,36463,1,0,0:0:0:0:
256,156,36713,6,0,P|216:156|176:140,2,80,0|0|8,0:0|0:0|0:0,0:0:0:0:
232,80,37463,2,0,L|200:240,1,160
256,296,38213,1,8,0:0:0:0:
256,296,38463,6,0,P|200:248|116:272,1,160
48,240,39213,2,0,L|48:160,1,80,8|0,0:0|0:0,0:0:0:0:
124,136,39713,2,0,L|124:176,2,40,0|8|0,0:0|0:0|0:0,0:0:0:0:
204,132,40213,1,8,0:0:0:0:
256,72,40463,1,8,0:0:0:0:
256,72,40588,1,8,0:0:0:0:
256,72,40713,6,0,P|296:72|336:92,1,80,4|0,0:0|0:0,0:0:0:0:
364,164,41213,2,0,P|448:164|512:120,2,160,2|2|2,0:0|0:0|0:0,0:0:0:0:
284,152,42463,2,0,P|232:212|232:300,1,160
336,344,43213,1,2,0:0:0:0:
448,304,43463,1,0,0:0:0:0:
456,184,43713,2,0,P|452:144|428:112,1,80,2|0,0:0|0:0,0:0:0:0:
372,168,44213,2,0,P|344:140|308:124,1,80,2|0,0:0|0:0,0:0:0:0:
192,26,44713,5,0,0:0:0:0:
115,131,44963,1,2,0:0:0:0:
239,91,45213,1,0,0:0:0:0:
115,51,45463,1,2,0:0:0:0:
192,156,45713,2,0,P|192:196|216:228,2,80,2|0|2,0:0|0:0|0:0,0:0:0:0:
115,131,46463,2,0,P|116:216|152:280,1,160
224,316,47213,6,0,P|192:348|156:356,1,80,2|0,0:0|0:0,0:0:0:0:
52,304,47713,2,0,L|8:304,2,40,2|0|0,0:0|0:0|0:0,0:0:0:0:
96,192,48213,1,2,0:0:0:0:
212,160,48463,1,2,0:0:0:0:
316,216,48713,6,0,P|396:216|460:168,1,160,0|2,0:0|0:0,0:0:0:0:
332,72,49713,2,0,P|252:72|188:120,1,160,0|2,0:0|0:0,0:0:0:0:
112,92,50463,2,0,P|76:168|88:248,1,160
128,308,51213,1,2,0:0:0:0:
204,284,51463,2,0,P|284:284|352:332,1,160
420,360,52213,1,2,0:0:0:0:
492,324,52463,1,2,0:0:0:0:
492,244,52713,6,0,L|492:164,2,80,2|0|2,0:0|0:0|0:0,0:0:0:0:
492,324,53463,2,0,P|412:324|352:276,1,160
296,204,54213,2,0,L|296:124,1,80,2|0,0:0|0:0,0:0:0:0:
216,116,54713,6,0,L|216:32,2,80,2|0|2,0:0|0:0|0:0,0:0:0:0:
296,124,55463,2,0,P|376:124|440:168,1,160
356,256,56213,1,2,0:0:0:0:
256,188,56463,1,2,0:0:0:0:
256,188,56588,1,2,0:0:0:0:
256,188,56713,6,0,B|204:172|148:208|96:180,2,160,4|2|2,0:0|0:0|0:0,0:0:0:0:
332,328,58213,1,2,0:0:0:0:
332,328,58463,2,0,P|256:304|180:328,1,160
104,352,59213,1,2,0:0:0:0:
36,312,59463,2,0,P|12:232|32:160,1,160
112,72,60213,1,2,0:0:0:0:
224,112,60463,1,0,0:0:0:0:
320,40,60713,6,0,P|360:40|400:60,1,80,2|0,0:0|0:0,0:0:0:0:
364,195,61213,2,0,P|348:160|348:120,1,80,2|0,0:0|0:0,0:0:0:0:
400,272,61713,2,0,P|352:280|320:268,2,80,2|0|2,0:0|0:0|0:0,0:0:0:0:
456,164,62463,6,0,P|368:136|304:148,1,160,0|0,0:0|0:0,0:0:0:0:
208,72,63213,2,0,P|168:72|124:92,1,80,2|0,0:0|0:0,0:0:0:0:
80,192,63713,1,0,0:0:0:0:
80,192,63838,1,2,0:0:0:0:
80,192,63963,1,0,0:0:0:0:
12,152,64213,2,0,P|0:192|16:232,1,80,0|2,0:0|0:0,0:0:0:0:
36,260,64588,1,0,0:0:0:0:
72,276,64713,6,0,P|152:276|216:232,1,160,2|2,0:0|0:0,0:0:0:0:
256,76,65713,1,2,0:0:0:0:
96,68,66213,1,2,0:0:0:0:
96,68,66463,2,0,L|236:156,1,160
304,184,67213,1,2,0:0:0:0:
304,264,67463,2,0,P|372:216|372:144,1,160
304,184,68213,1,2,0:0:0:0:
236,224,68463,1,0,0:0:0:0:
232,304,68713,6,0,P|264:332|304:344,1,80,0|0,0:0|0:0,0:0:0:0:
236,224,69213,2,0,P|236:180|216:140,1,80,2|0,0:0|0:0,0:0:0:0:
160,252,69713,2,0,P|116:252|80:268,1,80,0|0,0:0|0:0,0:0:0:0:
32,204,70213,1,2,0:0:0:0:
32,204,70463,6,0,P|32:124|76:60,1,160
192,32,71213,1,2,0:0:0:0:
304,72,71463,1,0,0:0:0:0:
256,192,71713,2,0,L|256:236,2,40,0|2|0,0:0|0:0|0:0,0:0:0:0:
136,192,72213,1,2,0:0:0:0:
84,84,72463,1,2,0:0:0:0:
84,84,72588,1,2,0:0:0:0:
84,84,72713,6,0,P|24:144|16:216,1,160,6|8,0:0|0:0,0:0:0:0:
180,216,73713,1,2,0:0:0:0:
180,216,73963,2,0,L|252:252,2,80,0|8|0,0:0|0:0|0:0,0:0:0:0:
228,152,74713,6,0,P|284:96|284:16,2,160,2|8|2,0:0|0:0|0:0,0:0:0:0:
152,176,75963,1,0,0:0:0:0:
152,176,76088,1,0,0:0:0:0:
152,176,76213,2,0,P|152:216|176:256,1,80,8|0,0:0|0:0,0:0:0:0:
268,320,76713,6,0,P|348:296|424:312,1,160,2|8,0:0|0:0,0:0:0:0:
496,336,77463,1,0,0:0:0:0:
496,336,77713,2,0,P|516:256|492:180,1,160,2|8,0:0|0:0,0:0:0:0:
420,44,78713,6,0,P|384:64|344:64,1,80,2|0,0:0|0:0,0:0:0:0:
276,28,79213,2,0,P|236:28|200:48,1,80,8|0,0:0|0:0,0:0:0:0:
164,116,79713,2,0,L|164:160,2,40,0|8|0,0:0|0:0|0:0,0:0:0:0:
256,192,80213,1,8,0:0:0:0:
348,116,80463,1,8,0:0:0:0:
348,116,80588,1,8,0:0:0:0:
348,116,80713,6,0,P|428:116|492:160,1,160,6|8,0:0|0:0,0:0:0:0:
376,272,81713,1,2,0:0:0:0:
376,272,81963,2,0,P|376:312|404:348,2,80,0|8|0,0:0|0:0|0:0,0:0:0:0:
456,276,82713,2,0,P|388:324|312:324,1,160,2|8,0:0|0:0,0:0:0:0:
164,272,83713,2,0,L|120:272,2,40,2|8|0,0:0|0:0|0:0,0:0:0:0:
256,192,84213,1,8,0:0:0:0:
204,84,84463,1,8,0:0:0:0:
84,64,84713,6,0,P|24:120|8:200,1,160,2|8,0:0|0:0,0:0:0:0:
92,328,85713,1,2,0:0:0:0:
172,328,85963,2,0,L|252:328,2,80,0|8|0,0:0|0:0|0:0,0:0:0:0:
172,208,86713,5,2,0:0:0:0:
172,208,86963,2,0,P|216:208|244:188,1,80,8|0,0:0|0:0,0:0:0:0:
260,152,87338,2,0,P|300:136|344:136,1,80,8|0,0:0|0:0,0:0:0:0:
376,144,87713,2,0,P|448:144|492:112,2,120,8|8|8,0:0|0:0|0:0,0:0:0:0:
262,30,88713,5,4,0:0:0:0:
148,143,89088,1,4,0:0:0:0:
261,256,89463,1,4,0:0:0:0:
192,300,89713,6,0,P|256:336|328:300,1,160,4|8,0:0|0:0,0:0:0:0:
328,180,90463,1,0,0:0:0:0:
412,96,90713,6,0,B|468:132|448:196|448:196|476:236,2,160,4|8|2,0:0|0:0|0:0,0:0:0:0:
372,168,91963,1,0,0:0:0:0:
252,172,92213,1,8,0:0:0:0:
168,88,92463,1,0,0:0:0:0:
284,64,92713,6,0,P|324:128|320:224,1,160,2|8,0:0|0:0,0:0:0:0:
256,252,93463,1,0,0:0:0:0:
176,248,93713,1,2,0:0:0:0:
176,248,93838,1,0,0:0:0:0:
176,248,93963,2,0,P|136:248|104:224,1,80,0|8,0:0|0:0,0:0:0:0:
72,108,94463,1,0,0:0:0:0:
72,108,94713,6,0,P|32:132|0:196,1,120,2|0,0:0|0:0,0:0:0:0:
0,236,95213,2,0,P|12:276|36:304,1,80,8|0,0:0|0:0,0:0:0:0:
148,352,95713,1,2,0:0:0:0:
232,267,95963,1,0,0:0:0:0:
147,182,96213,1,8,0:0:0:0:
231,97,96463,1,0,0:0:0:0:
315,181,96713,6,0,P|352:224|352:288,1,120,2|0,0:0|0:0,0:0:0:0:
352,324,97213,2,0,P|392:344|428:344,1,80,8|0,0:0|0:0,0:0:0:0:
476,236,97713,2,0,L|520:236,2,40,0|8|0,0:0|0:0|0:0,0:0:0:0:
428,128,98213,1,8,0:0:0:0:
320,176,98463,1,8,0:0:0:0:
320,176,98588,1,8,0:0:0:0:
320,176,98713,6,0,P|240:176|180:120,2,160,2|8|2,0:0|0:0|0:0,0:0:0:0:
404,91,99963,1,0,0:0:0:0:
488,175,100213,1,8,0:0:0:0:
403,259,100463,1,0,0:0:0:0:
403,259,100713,6,0,P|336:252|288:276,1,120,2|0,0:0|0:0,0:0:0:0:
268,308,101213,2,0,P|228:308|184:288,1,80,8|0,0:0|0:0,0:0:0:0:
96,220,101713,2,0,L|56:220,2,40,2|0|0,0:0|0:0|0:0,0:0:0:0:
216,220,102213,1,8,0:0:0:0:
284,120,102463,1,0,0:0:0:0:
208,24,102713,6,0,P|176:56|160:96,1,80,2|0,0:0|0:0,0:0:0:0:
216,220,103213,2,0,P|248:188|264:148,1,80,8|0,0:0|0:0,0:0:0:0:
132,252,103713,2,0,P|156:288|188:308,2,80,2|0|8,0:0|0:0|0:0,0:0:0:0:
68,152,104463,1,0,0:0:0:0:
152,64,104713,6,0,P|192:80|228:80,1,80,8|8,0:0|0:0,0:0:0:0:
340,40,105213,2,0,L|384:40,2,40,8|8|8,0:0|0:0|0:0,0:0:0:0:
316,156,105713,1,8,0:0:0:0:
316,156,105838,1,8,0:0:0:0:
316,156,105963,1,8,0:0:0:0:
200,176,106213,1,8,0:0:0:0:
172,292,106463,1,8,0:0:0:0:
260,372,106713,6,0,P|340:372|408:328,1,160,6|8,0:0|0:0,0:0:0:0:
456,268,107463,1,0,0:0:0:0:
464,188,107713,2,0,P|464:148|444:112,1,80,2|0,0:0|0:0,0:0:0:0:
297,65,108213,2,0,P|332:84|372:84,1,80,8|0,0:0|0:0,0:0:0:0:
224,24,108713,6,0,P|224:104|284:152,1,160,2|8,0:0|0:0,0:0:0:0:
380,224,109463,1,0,0:0:0:0:
284,296,109713,2,0,L|284:336,2,40,2|0|0,0:0|0:0|0:0,0:0:0:0:
188,228,110213,1,8,0:0:0:0:
80,168,110463,1,0,0:0:0:0:
80,168,110713,6,0,P|64:224|88:284,1,120,2|0,0:0|0:0,0:0:0:0:
116,304,111213,2,0,P|160:304|196:312,1,80,8|0,0:0|0:0,0:0:0:0:
308,356,111713,1,2,0:0:0:0:
420,320,111963,1,0,0:0:0:0:
476,216,112213,2,0,P|476:176|456:140,1,80,8|0,0:0|0:0,0:0:0:0:
356,204,112713,6,0,P|296:208|244:176,1,120,2|0,0:0|0:0,0:0:0:0:
224,144,113213,2,0,P|184:144|136:164,1,80,8|0,0:0|0:0,0:0:0:0:
44,220,113713,2,0,L|44:264,2,40,2|8|0,0:0|0:0|0:0,0:0:0:0:
44,100,114213,1,8,0:0:0:0:
144,32,114463,1,0,0:0:0:0:
256,72,114713,6,0,P|336:72|396:24,2,160,2|8|2,0:0|0:0|0:0,0:0:0:0:
144,32,115963,1,0,0:0:0:0:
44,100,116213,2,0,P|44:144|60:180,1,80,8|0,0:0|0:0,0:0:0:0:
160,240,116713,6,0,P|224:244|272:216,1,120,2|0,0:0|0:0,0:0:0:0:
300,188,117213,2,0,P|340:188|380:200,1,80,8|0,0:0|0:0,0:0:0:0:
476,272,117713,2,0,L|476:316,2,40,2|0|0,0:0|0:0|0:0,0:0:0:0:
372,328,118213,2,0,P|332:328|296:308,1,80,8|0,0:0|0:0,0:0:0:0:
256,196,118713,5,2,0:0:0:0:
332,100,118963,1,0,0:0:0:0:
432,168,119213,2,0,P|472:168|512:152,1,80,8|0,0:0|0:0,0:0:0:0:
444,52,119713,1,2,0:0:0:0:
444,52,119838,1,8,0:0:0:0:
444,52,119963,1,0,0:0:0:0:
332,100,120213,1,8,0:0:0:0:
220,56,120463,1,0,0:0:0:0:
148,152,120713,5,0,0:0:0:0:
256,192,120838,12,0,124213,0:0:0:0:
