osu file format v12

[General]
AudioFilename: endless memoryrefrain as Da Capo.mp3
AudioLeadIn: 0
PreviewTime: 90213
Countdown: 0
SampleSet: Normal
StackLeniency: 0.7
Mode: 1
LetterboxInBreaks: 0

[Editor]
Bookmarks: 40713,56713,72713
DistanceSpacing: 1
BeatDivisor: 4
GridSize: 4

[Metadata]
Title:endless memory ~refrain as Da Capo~
TitleUnicode:endless memory ~refrain as Da Capo~
Artist:fripSide
ArtistUnicode:fripSide
Creator:Xinely
Version:HinsFutsuu
Source:D.C.III R ~Da Capo R III~
Tags:circus opening eroge visual novel X-rated Gloria Guard -_t_e_n_n_y_a_- tennya Hinsvar Setsurei
BeatmapID:249008
BeatmapSetID:89276

[Difficulty]
HPDrainRate:4
CircleSize:3
OverallDifficulty:4
ApproachRate:5
SliderMultiplier:1.4
SliderTickRate:1

[Events]
//Background and Video events
0,0,"ero-ws.jpg",0,0
//Break Periods
//Storyboard Layer 0 (Background)
//Storyboard Layer 1 (Fail)
//Storyboard Layer 2 (Pass)
//Storyboard Layer 3 (Foreground)
Sprite,Foreground,Centre,"ero-ws.jpg",320,240 S,0,0,128731,0.627
//Storyboard Sound Samples
//Background Colour Transformations
3,100,163,162,255

[TimingPoints]
4720,535.714285714286,4,1,0,40,1,0
17557,550.45871559633,4,1,0,30,1,0
19758,588.235294117647,4,1,0,30,1,0
24713,500,4,1,0,70,1,0
90713,-83.3333333333333,4,1,0,70,0,1
106713,-71.4285714285714,4,1,0,70,0,1
120713,-100,4,1,0,70,0,0

[Colours]
Combo1 : 244,117,241
Combo2 : 255,255,136

[HitObjects]
128,192,4719,1,8,0:0:0:0:
384,192,5791,1,8,0:0:0:0:
128,192,6862,1,0,0:0:0:0:
384,192,7934,1,8,0:0:0:0:
128,192,9005,1,0,0:0:0:0:
384,192,10077,1,8,0:0:0:0:
128,192,11148,1,0,0:0:0:0:
384,192,12220,1,8,0:0:0:0:
128,192,13291,1,0,0:0:0:0:
128,192,14362,1,0,0:0:0:0:
384,192,14898,1,8,0:0:0:0:
128,192,15434,1,0,0:0:0:0:
128,192,16237,1,0,0:0:0:0:
384,192,16505,1,8,0:0:0:0:
128,192,17041,1,0,0:0:0:0:
384,192,17557,1,8,0:0:0:0:
128,192,18657,1,0,0:0:0:0:
384,192,19758,1,8,0:0:0:0:
384,192,20640,1,8,0:0:0:0:
128,192,20934,1,0,0:0:0:0:
256,192,21228,12,0,24463,0:0:0:0:
384,192,24713,5,12,0:0:0:0:
128,192,25213,1,0,0:0:0:0:
384,192,25713,1,8,0:0:0:0:
128,192,26213,1,0,0:0:0:0:
128,192,26463,1,0,0:0:0:0:
384,192,26713,1,8,0:0:0:0:
128,192,27213,1,0,0:0:0:0:
384,192,27713,1,8,0:0:0:0:
128,192,28213,1,0,0:0:0:0:
128,192,28463,1,0,0:0:0:0:
384,192,28713,1,8,0:0:0:0:
128,192,29463,1,0,0:0:0:0:
384,192,29713,1,8,0:0:0:0:
128,192,30463,1,8,0:0:0:0:
128,192,30713,1,0,0:0:0:0:
128,192,31463,1,0,0:0:0:0:
384,192,31713,1,8,0:0:0:0:
128,192,32213,1,0,0:0:0:0:
128,192,32463,1,0,0:0:0:0:
384,192,32713,1,8,0:0:0:0:
128,192,33213,1,0,0:0:0:0:
384,192,33713,1,8,0:0:0:0:
128,192,34213,1,0,0:0:0:0:
128,192,34463,1,0,0:0:0:0:
384,192,34713,1,8,0:0:0:0:
384,192,35213,1,8,0:0:0:0:
128,192,35713,1,0,0:0:0:0:
384,192,36213,1,8,0:0:0:0:
384,192,36463,1,8,0:0:0:0:
128,192,36713,1,0,0:0:0:0:
384,192,37213,1,8,0:0:0:0:
384,192,37713,1,8,0:0:0:0:
384,192,38213,1,8,0:0:0:0:
128,192,38713,1,0,0:0:0:0:
384,192,38963,1,8,0:0:0:0:
128,192,39463,1,0,0:0:0:0:
384,192,39713,1,8,0:0:0:0:
384,192,40213,1,8,0:0:0:0:
128,192,40463,1,0,0:0:0:0:
128,192,40713,1,4,0:0:0:0:
384,192,41213,1,8,0:0:0:0:
128,192,41713,1,0,0:0:0:0:
384,192,42213,1,8,0:0:0:0:
128,192,42713,1,0,0:0:0:0:
128,192,43713,1,0,0:0:0:0:
128,192,44713,1,0,0:0:0:0:
384,192,45213,1,8,0:0:0:0:
384,192,45713,1,8,0:0:0:0:
128,192,46213,1,0,0:0:0:0:
128,192,46713,1,0,0:0:0:0:
128,192,47713,1,0,0:0:0:0:
384,192,48213,1,8,0:0:0:0:
384,192,48463,1,8,0:0:0:0:
128,192,48713,1,0,0:0:0:0:
384,192,49213,1,8,0:0:0:0:
128,192,49713,1,0,0:0:0:0:
384,192,50213,1,8,0:0:0:0:
128,192,50713,1,0,0:0:0:0:
128,192,51713,1,0,0:0:0:0:
384,192,52213,1,8,0:0:0:0:
128,192,52463,1,0,0:0:0:0:
128,192,52713,1,0,0:0:0:0:
128,192,53713,1,0,0:0:0:0:
384,192,54213,1,8,0:0:0:0:
128,192,54713,1,0,0:0:0:0:
384,192,55213,1,8,0:0:0:0:
128,192,55713,1,0,0:0:0:0:
384,192,56213,1,8,0:0:0:0:
384,192,56463,1,8,0:0:0:0:
128,192,56713,1,4,0:0:0:0:
384,192,57213,1,8,0:0:0:0:
384,192,58213,1,8,0:0:0:0:
128,192,58713,1,0,0:0:0:0:
384,192,59213,1,8,0:0:0:0:
384,192,59713,1,8,0:0:0:0:
384,192,60213,1,8,0:0:0:0:
128,192,60713,1,0,0:0:0:0:
128,192,61713,1,0,0:0:0:0:
128,192,62713,1,0,0:0:0:0:
384,192,63213,1,8,0:0:0:0:
128,192,63713,1,0,0:0:0:0:
384,192,64213,1,8,0:0:0:0:
384,192,64463,1,8,0:0:0:0:
128,192,64713,1,0,0:0:0:0:
384,192,65213,1,8,0:0:0:0:
384,192,66213,1,8,0:0:0:0:
128,192,66463,1,0,0:0:0:0:
128,192,66713,1,0,0:0:0:0:
384,192,67213,1,8,0:0:0:0:
384,192,68213,1,8,0:0:0:0:
384,192,68463,1,8,0:0:0:0:
128,192,68713,1,0,0:0:0:0:
384,192,69213,1,8,0:0:0:0:
128,192,69713,1,0,0:0:0:0:
384,192,70213,1,8,0:0:0:0:
128,192,70713,1,0,0:0:0:0:
384,192,71213,1,8,0:0:0:0:
384,192,72213,1,8,0:0:0:0:
384,192,72463,1,8,0:0:0:0:
128,192,72713,1,4,0:0:0:0:
384,192,73213,1,8,0:0:0:0:
384,192,74213,1,8,0:0:0:0:
128,192,74713,1,0,0:0:0:0:
384,192,75213,1,8,0:0:0:0:
384,192,76213,1,8,0:0:0:0:
128,192,76463,1,0,0:0:0:0:
128,192,76713,1,0,0:0:0:0:
384,192,77213,1,8,0:0:0:0:
128,192,77713,1,0,0:0:0:0:
128,192,78713,1,0,0:0:0:0:
128,192,79713,1,0,0:0:0:0:
384,192,80213,1,8,0:0:0:0:
384,192,80463,1,8,0:0:0:0:
128,192,80713,1,4,0:0:0:0:
384,192,81213,1,8,0:0:0:0:
128,192,82213,1,0,0:0:0:0:
384,192,82463,1,8,0:0:0:0:
128,192,82713,1,0,0:0:0:0:
384,192,83213,1,8,0:0:0:0:
128,192,84213,1,0,0:0:0:0:
384,192,84463,1,8,0:0:0:0:
128,192,84713,1,0,0:0:0:0:
384,192,85213,1,8,0:0:0:0:
384,192,86213,1,8,0:0:0:0:
128,192,86713,1,0,0:0:0:0:
384,192,87713,1,8,0:0:0:0:
128,192,88713,1,0,0:0:0:0:
384,192,89713,1,12,0:0:0:0:
384,192,90213,1,8,0:0:0:0:
128,192,90713,1,4,0:0:0:0:
128,192,91713,1,0,0:0:0:0:
384,192,92213,1,8,0:0:0:0:
128,192,92463,1,0,0:0:0:0:
384,192,92713,1,8,0:0:0:0:
128,192,93463,1,0,0:0:0:0:
384,192,93713,1,8,0:0:0:0:
384,192,94213,1,8,0:0:0:0:
128,192,94463,1,0,0:0:0:0:
384,192,94713,1,8,0:0:0:0:
128,192,95713,1,0,0:0:0:0:
384,192,96213,1,8,0:0:0:0:
128,192,96463,1,0,0:0:0:0:
128,192,96713,1,0,0:0:0:0:
384,192,97213,1,8,0:0:0:0:
128,192,97713,1,0,0:0:0:0:
128,192,98213,1,0,0:0:0:0:
384,192,98463,1,8,0:0:0:0:
128,192,98713,1,0,0:0:0:0:
384,192,99213,1,8,0:0:0:0:
384,192,100213,1,8,0:0:0:0:
128,192,100463,1,0,0:0:0:0:
384,192,100713,1,8,0:0:0:0:
384,192,101213,1,8,0:0:0:0:
128,192,102213,1,0,0:0:0:0:
384,192,102463,1,8,0:0:0:0:
128,192,102713,1,0,0:0:0:0:
384,192,103213,1,8,0:0:0:0:
128,192,103713,1,0,0:0:0:0:
384,192,104213,1,8,0:0:0:0:
128,192,104713,1,0,0:0:0:0:
384,192,105213,1,8,0:0:0:0:
128,192,105713,1,0,0:0:0:0:
384,192,106213,1,8,0:0:0:0:
384,192,106463,1,8,0:0:0:0:
128,192,106713,1,4,0:0:0:0:
384,192,107213,1,8,0:0:0:0:
384,192,108213,1,8,0:0:0:0:
384,192,108463,1,8,0:0:0:0:
128,192,108713,1,0,0:0:0:0:
384,192,109213,1,8,0:0:0:0:
384,192,110213,1,8,0:0:0:0:
128,192,110463,1,0,0:0:0:0:
128,192,110713,1,0,0:0:0:0:
384,192,111213,1,8,0:0:0:0:
384,192,112213,1,8,0:0:0:0:
128,192,112463,1,0,0:0:0:0:
128,192,112713,1,0,0:0:0:0:
384,192,113213,1,8,0:0:0:0:
128,192,113713,1,0,0:0:0:0:
128,192,114213,1,0,0:0:0:0:
384,192,114463,1,8,0:0:0:0:
128,192,114713,1,0,0:0:0:0:
384,192,115213,1,8,0:0:0:0:
384,192,116213,1,8,0:0:0:0:
128,192,116463,1,0,0:0:0:0:
384,192,116713,1,8,0:0:0:0:
384,192,117213,1,8,0:0:0:0:
384,192,118213,1,8,0:0:0:0:
128,192,118463,1,0,0:0:0:0:
128,192,118713,1,0,0:0:0:0:
384,192,119213,1,8,0:0:0:0:
128,192,119713,1,0,0:0:0:0:
128,192,119963,1,0,0:0:0:0:
384,192,120213,1,8,0:0:0:0:
128,192,120463,1,0,0:0:0:0:
384,192,120713,1,8,0:0:0:0:
384,192,121463,1,8,0:0:0:0:
128,192,121713,1,0,0:0:0:0:
