osu file format v12

[General]
AudioFilename: endless memoryrefrain as Da Capo.mp3
AudioLeadIn: 0
PreviewTime: 90213
Countdown: 0
SampleSet: Soft
StackLeniency: 0.7
Mode: 0
LetterboxInBreaks: 0
EpilepsyWarning: 1

[Editor]
Bookmarks: 40713,56713
DistanceSpacing: 1
BeatDivisor: 4
GridSize: 4

[Metadata]
Title:endless memory ~refrain as Da Capo~
TitleUnicode:endless memory ~refrain as Da Capo~
Artist:fripSide
ArtistUnicode:fripSide
Creator:Xinely
Version:Easy
Source:D.C.III R ~Da Capo R III~
Tags:circus opening eroge visual novel X-rated Gloria Guard -_t_e_n_n_y_a_- tennya Hinsvar Setsurei
BeatmapID:242782
BeatmapSetID:89276

[Difficulty]
HPDrainRate:2
CircleSize:3
OverallDifficulty:2
ApproachRate:3
SliderMultiplier:0.9
SliderTickRate:2

[Events]
//Background and Video events
0,0,"ero.jpg",0,0
//Break Periods
//Storyboard Layer 0 (Background)
//Storyboard Layer 1 (Fail)
//Storyboard Layer 2 (Pass)
//Storyboard Layer 3 (Foreground)
//Storyboard Sound Samples
//Background Colour Transformations
3,100,163,162,255

[TimingPoints]
4720,535.714285714286,4,2,1,40,1,0
17557,550.45871559633,4,2,1,30,1,0
19758,588.235294117647,4,2,1,30,1,0
24713,500,4,2,1,70,1,0
25213,-100,4,2,2,60,0,0
25338,-100,4,2,1,60,0,0
31213,-100,4,2,2,60,0,0
31338,-100,4,2,1,60,0,0
37213,-100,4,2,2,60,0,0
37338,-100,4,2,1,60,0,0
39213,-100,4,2,2,60,0,0
39338,-100,4,2,1,60,0,0
40713,-100,4,2,1,50,0,0
61213,-100,4,2,2,50,0,0
61338,-100,4,2,1,50,0,0
63213,-100,4,2,2,50,0,0
63338,-100,4,2,1,50,0,0
73213,-100,4,2,2,50,0,0
73338,-100,4,2,1,50,0,0
75213,-100,4,2,2,50,0,0
75338,-100,4,2,1,50,0,0
81213,-100,4,2,2,50,0,0
81338,-100,4,2,1,50,0,0
83213,-100,4,2,2,50,0,0
83338,-100,4,2,1,50,0,0
85213,-100,4,2,2,50,0,0
85338,-100,4,2,1,50,0,0
87213,-100,4,2,2,50,0,0
87338,-100,4,2,1,50,0,0
88213,-100,4,2,2,50,0,0
88338,-100,4,2,1,50,0,0
90713,-100,4,2,1,65,0,1
94213,-100,4,2,2,65,0,1
94338,-100,4,2,1,65,0,1
97213,-100,4,2,2,65,0,1
97338,-100,4,2,1,65,0,1
99213,-100,4,2,2,65,0,1
99338,-100,4,2,1,65,0,1
101213,-100,4,2,2,65,0,1
101338,-100,4,2,1,65,0,1
104713,-100,4,2,1,55,0,0
106213,-100,4,2,1,45,0,0
106713,-100,4,2,1,65,0,1
109213,-100,4,2,2,65,0,1
109338,-100,4,2,1,65,0,1
115213,-100,4,2,2,65,0,1
115338,-100,4,2,1,65,0,1
120713,-100,4,2,1,65,0,0
124213,-100,4,2,1,5,0,0

[Colours]
Combo1 : 244,117,241
Combo2 : 255,255,136

[HitObjects]
96,288,4719,2,0,B|148:312|208:264|288:296,1,180,2|2,0:0|0:0,0:0:0:0:
308,208,6327,1,0,0:0:0:0:
272,124,6862,2,0,B|220:100|160:148|80:116,1,180,2|2,0:0|0:0,0:0:0:0:
244,220,9005,6,0,P|332:248|424:212,1,180,2|2,0:0|0:0,0:0:0:0:
464,148,10612,1,0,0:0:0:0:
412,76,11148,2,0,P|324:48|232:84,1,180,2|2,0:0|0:0,0:0:0:0:
64,68,13291,6,0,B|80:124|40:160|40:160|61:236,1,180,2|2,0:0|0:0,0:0:0:0:
144,276,14898,1,0,0:0:0:0:
224,236,15434,2,0,B|245:160|245:160|205:124|221:68,1,180,2|2,0:0|0:0,0:0:0:0:
80,164,17557,6,0,B|94:204|140:228|140:228|138:276|184:308,2,180,2|2|2,0:0|0:0|0:0,0:0:0:0:
256,192,20052,12,0,24169,0:0:0:0:
253,195,24713,6,0,P|296:271|389:319,1,180,4|2,0:0|0:0,0:0:0:0:
432,248,26213,1,8,0:0:0:0:
436,160,26713,2,0,P|468:116|476:64,2,90,2|8|2,0:0|0:0|0:0,0:0:0:0:
356,116,28213,1,8,0:0:0:0:
268,104,28713,6,0,P|224:92|180:88,1,90,2|8,0:0|0:0,0:0:0:0:
168,176,29713,2,0,P|212:188|256:192,1,90,2|8,0:0|0:0,0:0:0:0:
304,268,30713,2,0,P|340:184|300:104,1,180,2|2,0:0|0:0,0:0:0:0:
232,164,32213,1,8,0:0:0:0:
140,164,32713,6,0,P|136:212|92:252,2,90,4|8|2,0:0|0:0|0:0,0:0:0:0:
192,92,34213,1,8,0:0:0:0:
280,112,34713,2,0,P|324:124|364:164,1,90,2|8,0:0|0:0,0:0:0:0:
312,232,35713,2,0,P|268:220|228:180,1,90,2|8,0:0|0:0,0:0:0:0:
280,112,36713,6,0,P|360:88|436:148,1,180,2|2,0:0|0:0,0:0:0:0:
348,168,38213,1,8,0:0:0:0:
416,228,38713,2,0,P|336:252|260:192,1,180,2|2,0:0|0:0,0:0:0:0:
348,168,40213,1,8,0:0:0:0:
432,136,40713,6,0,P|359:82|279:106,1,180,4|2,0:0|0:0,0:0:0:0:
188,108,42213,1,0,0:0:0:0:
108,148,42713,2,0,P|68:176|44:228,1,90,2|0,0:0|0:0,0:0:0:0:
136,228,43713,2,0,P|127:276|147:329,1,90,2|0,0:0|0:0,0:0:0:0:
220,276,44713,6,0,P|247:316|300:340,1,90,2|0,0:0|0:0,0:0:0:0:
340,268,45713,1,2,0:0:0:0:
396,196,46213,1,0,0:0:0:0:
412,108,46713,2,0,B|336:64|336:64|296:84|232:68,2,180,2|2|2,0:0|0:0|0:0,0:0:0:0:
468,176,49213,6,0,L|396:248,1,90,0|2,0:0|0:0,0:0:0:0:
332,184,50213,2,0,L|260:256,1,90,0|2,0:0|0:0,0:0:0:0:
296,332,51213,2,0,P|204:304|180:220,1,180
100,188,52713,5,2,0:0:0:0:
204,36,53713,1,2,0:0:0:0:
276,88,54213,1,0,0:0:0:0:
348,140,54713,2,0,P|376:172|440:192,1,90,2|0,0:0|0:0,0:0:0:0:
496,148,55713,2,0,B|528:204|476:256|476:256|476:336,1,180,2|4,0:0|0:0,0:0:0:0:
384,316,57213,6,0,P|320:320|280:308,1,90,8|2,0:0|0:0,0:0:0:0:
340,236,58213,2,0,P|291:193|272:156,1,90,8|2,0:0|0:0,0:0:0:0:
212,112,59213,1,8,0:0:0:0:
148,48,59713,1,2,0:0:0:0:
40,192,60713,6,0,P|80:252|188:248,1,180,2|2,0:0|0:0,0:0:0:0:
248,196,62213,1,8,0:0:0:0:
232,108,62713,2,0,P|192:48|84:52,1,180,2|2,0:0|0:0,0:0:0:0:
144,120,64213,2,0,P|100:140|72:176,1,90,8|2,0:0|0:0,0:0:0:0:
156,204,65213,6,0,B|172:276|172:276|228:296|240:364,1,180,8|8,0:0|0:0,0:0:0:0:
321,320,66713,1,2,0:0:0:0:
397,272,67213,2,0,B|381:200|381:200|325:180|313:112,1,180,8|8,0:0|0:0,0:0:0:0:
236,88,68713,6,0,P|184:80|132:96,1,90,2|8,0:0|0:0,0:0:0:0:
148,180,69713,2,0,P|200:188|252:172,1,90,2|8,0:0|0:0,0:0:0:0:
236,268,70713,2,0,P|200:276|148:268,1,90,2|8,0:0|0:0,0:0:0:0:
72,224,71713,1,2,0:0:0:0:
120,148,72213,1,8,0:0:0:0:
176,76,72713,6,0,P|256:48|348:80,1,180,4|2,0:0|0:0,0:0:0:0:
396,148,74213,1,8,0:0:0:0:
344,224,74713,2,0,P|264:252|172:220,1,180,2|2,0:0|0:0,0:0:0:0:
104,172,76213,1,8,0:0:0:0:
148,92,76713,6,0,P|192:80|252:96,1,90,2|8,0:0|0:0,0:0:0:0:
256,192,77713,12,0,79713,0:0:0:0:
240,44,80713,6,0,L|392:140,1,180,4|2,0:0|0:0,0:0:0:0:
404,228,82213,1,8,0:0:0:0:
332,280,82713,6,0,L|180:184,1,180,2|2,0:0|0:0,0:0:0:0:
116,120,84213,1,8,0:0:0:0:
192,72,84713,2,0,P|276:100|364:68,1,180,2|2,0:0|0:0,0:0:0:0:
404,148,86213,1,8,0:0:0:0:
364,228,86713,6,0,P|280:200|192:232,2,180,2|2|2,0:0|0:0|0:0,0:0:0:0:
428,292,89213,2,0,P|452:248|448:204,1,90,0|2,0:0|0:0,0:0:0:0:
488,128,90213,1,8,0:0:0:0:
400,128,90713,6,0,P|385:79|351:51,1,90,4|8,0:0|0:0,0:0:0:0:
272,88,91713,1,2,0:0:0:0:
192,124,92213,2,0,P|166:152|117:167,2,90,8|2|8,0:0|0:0|0:0,0:0:0:0:
264,180,93713,2,0,P|328:232|428:232,1,180,2|2,0:0|0:0,0:0:0:0:
464,156,95213,5,8,0:0:0:0:
384,112,95713,2,0,P|344:88|292:88,1,90,2|8,0:0|0:0,0:0:0:0:
212,76,96713,2,0,B|172:116|128:116|128:116|72:180,1,180,2|2,0:0|0:0,0:0:0:0:
128,248,98213,1,8,0:0:0:0:
196,308,98713,6,0,P|296:336|372:304,1,180,4|2,0:0|0:0,0:0:0:0:
396,224,100213,1,8,0:0:0:0:
364,140,100713,2,0,P|264:112|188:144,1,180,2|2,0:0|0:0,0:0:0:0:
108,156,102213,6,0,L|88:244,1,90,8|2,0:0|0:0,0:0:0:0:
172,264,103213,2,0,L|152:352,1,90,8|2,0:0|0:0,0:0:0:0:
72,312,104213,1,8,0:0:0:0:
48,224,104713,2,2,B|88:192|84:152|84:152|132:148|172:96,1,180,2|2,0:0|0:0,0:0:0:0:
252,80,106213,2,0,P|288:84|337:63,1,90,8|4,0:0|0:0,0:0:0:0:
420,28,107213,5,8,0:0:0:0:
468,104,107713,2,0,L|430:185,1,90,2|8,0:0|0:0,0:0:0:0:
480,260,108713,2,0,P|388:264|344:188,1,180,2|2,0:0|0:0,0:0:0:0:
316,112,110213,1,8,0:0:0:0:
224,112,110713,6,0,P|180:136|124:140,2,90,2|8|2,0:0|0:0|0:0,0:0:0:0:
276,184,112213,1,8,0:0:0:0:
324,108,112713,2,0,P|359:119|391:159,1,90,2|8,0:0|0:0,0:0:0:0:
344,236,113713,2,0,P|376:276|411:287,1,90,2|8,0:0|0:0,0:0:0:0:
364,364,114713,6,0,P|448:364|504:288,1,180,4|2,0:0|0:0,0:0:0:0:
464,212,116213,1,8,0:0:0:0:
388,164,116713,1,2,0:0:0:0:
304,136,117213,2,0,P|256:128|208:136,1,90,8|2,0:0|0:0,0:0:0:0:
156,204,118213,6,0,P|115:209|67:201,2,90,8|2|8,0:0|0:0|0:0,0:0:0:0:
224,264,119713,1,2,0:0:0:0:
296,212,120213,1,8,0:0:0:0:
256,192,120713,12,0,124213,0:0:0:0:
