osu file format v12

[General]
AudioFilename: endless memoryrefrain as Da Capo.mp3
AudioLeadIn: 0
PreviewTime: 90213
Countdown: 0
SampleSet: Soft
StackLeniency: 0.7
Mode: 0
LetterboxInBreaks: 0

[Editor]
DistanceSpacing: 1
BeatDivisor: 4
GridSize: 4

[Metadata]
Title:endless memory ~refrain as Da Capo~
TitleUnicode:endless memory ~refrain as Da Capo~
Artist:fripSide
ArtistUnicode:fripSide
Creator:Gloria Guard
Version:Hard
Source:D.C.III R ~Da Capo III R~
Tags:circus opening eroge visual novel X-rated
BeatmapID:236783
BeatmapSetID:86457

[Difficulty]
HPDrainRate:5
CircleSize:4
OverallDifficulty:6
ApproachRate:7
SliderMultiplier:1.6
SliderTickRate:1

[Events]
//Background and Video events
0,0,"BG.jpg",0,0
Video,0,"endless memory.avi"
//Break Periods
//Storyboard Layer 0 (Background)
//Storyboard Layer 1 (Fail)
//Storyboard Layer 2 (Pass)
//Storyboard Layer 3 (Foreground)
//Storyboard Sound Samples
//Background Colour Transformations
3,100,163,162,255

[TimingPoints]
4720,535.714285714286,4,2,2,30,1,0
17557,550.45871559633,4,2,2,30,1,0
19758,588.235294117647,4,2,2,30,1,0
24713,500,4,2,2,70,1,0
27713,-100,4,2,1,70,0,0
28213,-100,4,2,2,70,0,0
31713,-100,4,2,1,70,0,0
32213,-100,4,2,2,70,0,0
32463,-100,4,2,1,70,0,0
32713,-100,4,2,2,70,0,0
39713,-100,4,2,1,70,0,0
40213,-100,4,2,2,70,0,0
40463,-100,4,2,1,70,0,0
40713,-100,4,2,2,70,0,0
40963,-100,4,2,1,70,0,0
56713,-100,4,2,2,70,0,0
56963,-100,4,2,1,70,0,0
72713,-100,4,2,2,70,0,0
90213,-100,4,2,1,70,0,0
90713,-100,4,2,2,70,0,1
97713,-100,4,2,1,70,0,1
98213,-100,4,2,2,70,0,1
104713,-100,4,2,1,70,0,1
106713,-100,4,2,2,70,0,1
109713,-100,4,2,1,70,0,1
110213,-100,4,2,2,70,0,1
113713,-100,4,2,1,70,0,1
114213,-100,4,2,2,70,0,1
119713,-100,4,2,1,70,0,1
120213,-100,4,2,2,70,0,1
120713,-100,4,2,2,20,0,0
124213,-100,4,2,1,15,0,0

[Colours]
Combo1 : 234,234,234
Combo2 : 255,147,255
Combo3 : 170,170,255

[HitObjects]
412,136,4719,2,0,P|372:136|336:116,1,80,2|0,0:0|0:0,0:0:0:0:
276,68,5255,2,0,P|196:68|136:116,1,160,0|2,0:0|0:0,0:0:0:0:
140,196,6059,1,0,0:0:0:0:
96,264,6327,1,2,0:0:0:0:
16,256,6595,1,0,0:0:0:0:
60,192,6862,6,0,L|136:344,1,160,2|0,0:0|0:0,0:0:0:0:
208,360,7666,1,0,0:0:0:0:
288,360,7934,2,0,P|364:336|408:272,1,160,2|0,0:0|0:0,0:0:0:0:
396,192,8737,1,0,0:0:0:0:
316,192,9005,6,0,L|196:192,2,120,2|0|0,0:0|0:0|0:0,0:0:0:0:
396,192,10077,1,2,0:0:0:0:
440,124,10345,1,0,0:0:0:0:
408,52,10612,1,2,0:0:0:0:
328,40,10880,1,0,0:0:0:0:
260,84,11148,6,0,P|200:84|148:56,2,120,2|0|0,0:0|0:0|0:0,0:0:0:0:
332,120,12220,2,0,P|332:200|284:260,1,160,2|2,0:0|0:0,0:0:0:0:
204,264,13023,1,0,0:0:0:0:
144,212,13291,6,0,P|72:212|4:264,2,160,2|0|2,0:0|0:0|0:0,0:0:0:0:
204,264,14630,1,0,0:0:0:0:
284,264,14898,2,0,P|324:256|360:228,1,80,2|0,0:0|0:0,0:0:0:0:
384,160,15434,6,0,P|388:216|436:252,2,120,2|0|0,0:0|0:0|0:0,0:0:0:0:
460,180,16505,2,0,P|440:108|364:84,1,160,2|2,0:0|0:0,0:0:0:0:
284,84,17309,1,0,0:0:0:0:
256,160,17557,6,0,P|256:204|240:236,1,80,2|0,0:0|0:0,0:0:0:0:
176,180,18107,2,0,P|140:200|100:200,1,80,2|0,0:0|0:0,0:0:0:0:
116,120,18657,2,0,P|80:104|56:68,2,80,2|0|2,0:0|0:0|0:0,0:0:0:0:
192,100,19483,1,0,0:0:0:0:
256,140,19758,1,0,0:0:0:0:
256,192,19905,12,0,24169,0:0:0:0:
328,228,24713,6,0,P|328:272|308:304,1,80,6|0,0:0|0:0,0:0:0:0:
240,344,25213,1,8,0:0:0:0:
160,344,25463,2,0,P|120:328|96:300,1,80,0|2,0:0|0:0,0:0:0:0:
96,300,25838,1,0,0:0:0:0:
96,300,25963,1,0,0:0:0:0:
148,192,26213,1,8,0:0:0:0:
268,192,26463,2,0,L|316:192,2,40,0|0|2,0:0|0:0|0:0,0:0:0:0:
148,192,26963,5,0,0:0:0:0:
60,112,27213,1,8,0:0:0:0:
156,36,27463,2,0,P|196:36|232:56,1,80,0|2,0:0|0:0,0:0:0:0:
230,54,27838,1,2,0:0:0:0:
230,54,27963,1,0,0:0:0:0:
256,172,28213,2,0,L|256:256,1,80,8|0,0:0|0:0,0:0:0:0:
352,324,28713,6,0,P|392:324|432:308,1,80,2|0,0:0|0:0,0:0:0:0:
380,248,29213,1,8,0:0:0:0:
380,248,29463,2,0,P|444:200|464:124,1,160
416,60,30213,1,8,0:0:0:0:
340,40,30463,2,0,P|276:88|256:164,1,160
256,284,31213,5,8,0:0:0:0:
152,344,31463,2,0,P|112:344|76:324,1,80,0|2,0:0|0:0,0:0:0:0:
56,292,31838,1,2,0:0:0:0:
60,252,31963,1,0,0:0:0:0:
64,132,32213,1,8,0:0:0:0:
164,192,32463,1,2,0:0:0:0:
204,192,32588,1,2,0:0:0:0:
240,176,32713,6,0,P|272:144|280:104,1,80,6|0,0:0|0:0,0:0:0:0:
244,40,33213,1,8,0:0:0:0:
244,40,33463,2,0,P|316:80|400:64,1,160
480,148,34213,1,8,0:0:0:0:
436,260,34463,1,0,0:0:0:0:
320,292,34713,6,0,P|280:284|248:260,2,80,2|0|8,0:0|0:0|0:0,0:0:0:0:
308,212,35463,2,0,P|360:156|440:172,1,160
388,232,36213,2,0,L|420:308,1,80,8|0,0:0|0:0,0:0:0:0:
304,344,36713,6,0,P|264:344|228:320,1,80,2|0,0:0|0:0,0:0:0:0:
184,260,37213,1,8,0:0:0:0:
180,180,37463,2,0,P|228:116|304:100,1,160
292,220,38213,1,8,0:0:0:0:
184,260,38463,2,0,P|112:228|104:152,1,160
192,76,39213,2,0,L|192:32,2,40,8|0|0,0:0|0:0|0:0,0:0:0:0:
308,112,39713,5,2,0:0:0:0:
308,112,39838,1,2,0:0:0:0:
308,112,39963,2,0,P|348:112|384:96,1,80,0|8,0:0|0:0,0:0:0:0:
236,32,40463,1,2,0:0:0:0:
236,32,40588,1,2,0:0:0:0:
236,32,40713,6,0,P|208:60|200:100,1,80,6|0,0:0|0:0,0:0:0:0:
256,204,41213,2,0,P|256:284|196:332,2,160,2|0|2,0:0|0:0|0:0,0:0:0:0:
180,228,42463,6,0,P|244:284|316:292,1,160
388,256,43213,1,2,0:0:0:0:
384,176,43463,2,0,P|356:144|320:132,1,80,0|2,0:0|0:0,0:0:0:0:
280,132,43838,1,2,0:0:0:0:
248,156,43963,1,0,0:0:0:0:
152,228,44213,1,2,0:0:0:0:
44,172,44463,1,0,0:0:0:0:
40,52,44713,6,0,L|100:112,1,80,0|0,0:0|0:0,0:0:0:0:
152,52,45213,2,0,L|212:112,1,80,2|0,0:0|0:0,0:0:0:0:
296,188,45713,1,0,0:0:0:0:
416,188,45963,1,0,0:0:0:0:
468,80,46213,1,2,0:0:0:0:
348,76,46463,6,0,P|348:160|388:224,1,160
468,312,47213,2,0,P|440:344|404:356,1,80,2|0,0:0|0:0,0:0:0:0:
296,308,47713,2,0,L|248:308,2,40,2|2|0,0:0|0:0|0:0,0:0:0:0:
280,188,48213,1,2,0:0:0:0:
168,144,48463,1,2,0:0:0:0:
68,212,48713,6,0,P|68:292|120:356,1,160,2|2,0:0|0:0,0:0:0:0:
212,224,49713,2,0,P|212:144|160:80,1,160,2|2,0:0|0:0,0:0:0:0:
228,32,50463,2,0,P|304:56|392:48,1,160
460,32,51213,5,2,0:0:0:0:
500,100,51463,2,0,P|500:180|456:244,1,160
336,244,52213,1,2,0:0:0:0:
256,152,52463,1,2,0:0:0:0:
136,152,52713,6,0,P|104:184|96:220,2,80,2|0|2,0:0|0:0|0:0,0:0:0:0:
176,220,53463,2,0,P|240:268|320:268,1,160
408,192,54213,2,0,P|448:192|488:216,1,80,2|0,0:0|0:0,0:0:0:0:
428,268,54713,6,0,P|420:304|392:344,1,80,2|0,0:0|0:0,0:0:0:0:
348,276,55213,1,2,0:0:0:0:
348,276,55463,2,0,P|292:220|292:144,1,160
352,40,56213,1,2,0:0:0:0:
232,32,56463,1,2,0:0:0:0:
232,32,56588,1,2,0:0:0:0:
232,32,56713,6,0,P|192:32|156:52,1,80,4|0,0:0|0:0,0:0:0:0:
120,164,57213,2,0,P|52:128|28:52,2,160,2|0|2,0:0|0:0|0:0,0:0:0:0:
200,164,58463,6,0,P|200:244|144:316,1,160
80,328,59213,5,2,0:0:0:0:
80,328,59463,2,0,P|160:320|228:364,1,160
304,360,60213,1,2,0:0:0:0:
376,328,60463,2,0,P|376:284|356:244,1,80,0|2,0:0|0:0,0:0:0:0:
284,147,60963,5,0,0:0:0:0:
408,187,61213,1,2,0:0:0:0:
284,227,61463,1,0,0:0:0:0:
361,123,61713,2,0,P|400:108|444:116,2,80,2|0|2,0:0|0:0|0:0,0:0:0:0:
284,147,62463,6,0,P|200:148|136:112,1,160
72,64,63213,2,0,P|24:132|24:208,1,160,2|0,0:0|0:0,0:0:0:0:
23,206,63838,1,2,0:0:0:0:
23,206,63963,1,2,0:0:0:0:
68,316,64213,1,2,0:0:0:0:
188,332,64463,1,2,0:0:0:0:
188,332,64588,1,2,0:0:0:0:
188,332,64713,6,0,P|228:328|268:312,1,80,2|0,0:0|0:0,0:0:0:0:
340,220,65213,2,0,P|260:220|208:164,2,160,2|0|2,0:0|0:0|0:0,0:0:0:0:
364,144,66463,2,0,P|416:200|392:276,1,160
332,324,67213,1,2,0:0:0:0:
256,296,67463,2,0,P|204:240|228:164,1,160
344,164,68213,1,2,0:0:0:0:
424,76,68463,1,2,0:0:0:0:
316,28,68713,6,0,L|260:84,1,80,2|0,0:0|0:0,0:0:0:0:
192,40,69213,2,0,L|136:96,1,80,2|0,0:0|0:0,0:0:0:0:
48,180,69713,1,2,0:0:0:0:
120,276,69963,1,0,0:0:0:0:
232,232,70213,1,2,0:0:0:0:
160,136,70463,6,0,P|160:216|212:280,1,160
324,308,71213,2,0,P|364:308|404:292,1,80,2|0,0:0|0:0,0:0:0:0:
468,192,71713,2,0,L|508:192,2,40,0|2|2,0:0|0:0|0:0,0:0:0:0:
348,192,72213,1,2,0:0:0:0:
256,112,72463,1,2,0:0:0:0:
256,112,72588,1,2,0:0:0:0:
256,112,72713,6,0,P|244:192|260:272,1,160,4|8,0:0|0:0,0:0:0:0:
288,344,73463,1,0,0:0:0:0:
212,368,73713,2,0,P|168:368|132:352,1,80,2|0,0:0|0:0,0:0:0:0:
40,280,74213,2,0,P|68:252|84:212,1,80,8|0,0:0|0:0,0:0:0:0:
44,100,74713,6,0,P|124:88|180:140,2,160,2|8|2,0:0|0:0|0:0,0:0:0:0:
84,212,75963,1,0,0:0:0:0:
84,212,76088,1,0,0:0:0:0:
84,212,76213,2,0,P|84:252|68:288,1,80,8|0,0:0|0:0,0:0:0:0:
128,344,76713,6,0,P|204:320|280:340,1,160,2|8,0:0|0:0,0:0:0:0:
360,356,77463,1,0,0:0:0:0:
432,320,77713,2,0,P|448:284|448:244,1,80,2|0,0:0|0:0,0:0:0:0:
384,192,78213,2,0,P|384:112|440:52,1,160,8|2,0:0|0:0,0:0:0:0:
434,54,78838,1,0,0:0:0:0:
434,54,78963,1,0,0:0:0:0:
500,156,79213,5,8,0:0:0:0:
384,192,79463,1,0,0:0:0:0:
344,304,79713,2,0,L|344:352,2,40,2|0|0,0:0|0:0|0:0,0:0:0:0:
224,304,80213,2,0,P|184:304|148:284,1,80,8|2,0:0|0:0,0:0:0:0:
116,264,80588,1,0,0:0:0:0:
92,232,80713,6,0,P|92:152|148:100,2,160,4|8|2,0:0|0:0|0:0,0:0:0:0:
144,292,81963,1,0,0:0:0:0:
96,356,82213,2,0,P|56:356|20:340,1,80,8|0,0:0|0:0,0:0:0:0:
144,292,82713,6,0,P|224:292|288:336,1,160,2|8,0:0|0:0,0:0:0:0:
364,364,83463,1,0,0:0:0:0:
416,300,83713,2,0,L|456:300,2,40,2|0|0,0:0|0:0|0:0,0:0:0:0:
360,192,84213,1,8,0:0:0:0:
152,192,84463,1,0,0:0:0:0:
256,252,84713,6,0,B|232:204|292:144|256:96,2,160,2|8|2,0:0|0:0|0:0,0:0:0:0:
216,320,85963,2,0,P|256:328|300:320,2,80,0|8|0,0:0|0:0|0:0,0:0:0:0:
108,264,86713,5,2,0:0:0:0:
108,264,86963,2,0,P|108:224|92:188,1,80,8|0,0:0|0:0,0:0:0:0:
72,152,87338,2,0,P|72:112|92:76,1,80,8|0,0:0|0:0,0:0:0:0:
128,60,87713,2,0,P|184:44|248:56,2,120,8|8|8,0:0|0:0|0:0,0:0:0:0:
196,160,88713,5,6,0:0:0:0:
309,273,89088,1,6,0:0:0:0:
422,159,89463,1,6,0:0:0:0:
372,96,89713,2,0,P|344:168|392:232,1,160,6|4,0:0|0:0,0:0:0:0:
464,256,90463,1,0,0:0:0:0:
448,336,90713,6,0,P|368:360|296:340,2,160,6|8|2,0:0|0:0|0:0,0:0:0:0:
464,256,91963,1,0,0:0:0:0:
412,196,92213,2,0,P|412:152|432:112,1,80,8|0,0:0|0:0,0:0:0:0:
340,36,92713,6,0,P|320:116|256:164,1,160,2|8,0:0|0:0,0:0:0:0:
140,164,93463,1,0,0:0:0:0:
56,76,93713,2,0,L|16:76,2,40,2|0|0,0:0|0:0|0:0,0:0:0:0:
140,164,94213,1,8,0:0:0:0:
60,252,94463,1,0,0:0:0:0:
132,348,94713,6,0,P|188:348|244:312,1,120,2|0,0:0|0:0,0:0:0:0:
268,284,95213,2,0,P|308:284|348:296,1,80,8|0,0:0|0:0,0:0:0:0:
424,320,95713,1,2,0:0:0:0:
424,190,95963,1,0,0:0:0:0:
347,215,96213,1,8,0:0:0:0:
471,255,96463,1,0,0:0:0:0:
347,295,96713,6,0,P|296:272|268:208,1,120,2|0,0:0|0:0,0:0:0:0:
272,176,97213,2,0,P|244:148|204:136,1,80,8|0,0:0|0:0,0:0:0:0:
100,192,97713,2,0,L|48:192,2,40,2|2|0,0:0|0:0|0:0,0:0:0:0:
196,268,98213,1,8,0:0:0:0:
272,176,98463,1,0,0:0:0:0:
272,176,98588,1,0,0:0:0:0:
272,176,98713,6,0,P|320:236|312:316,2,160,2|8|2,0:0|0:0|0:0,0:0:0:0:
186,261,99963,1,0,0:0:0:0:
101,176,100213,1,8,0:0:0:0:
185,91,100463,1,0,0:0:0:0:
272,176,100713,6,0,P|339:177|391:153,1,120,2|0,0:0|0:0,0:0:0:0:
411,125,101213,2,0,P|451:125|491:145,1,80,8|0,0:0|0:0,0:0:0:0:
488,260,101713,2,0,L|488:304,2,40,2|0|0,0:0|0:0|0:0,0:0:0:0:
368,260,102213,2,0,P|328:260|292:280,1,80,8|0,0:0|0:0,0:0:0:0:
192,344,102713,5,2,0:0:0:0:
112,344,102963,1,0,0:0:0:0:
56,288,103213,2,0,P|56:244|76:208,1,80,8|0,0:0|0:0,0:0:0:0:
172,148,103713,5,2,0:0:0:0:
252,148,103963,1,0,0:0:0:0:
320,108,104213,2,0,P|320:68|304:32,1,80,8|0,0:0|0:0,0:0:0:0:
252,148,104713,6,0,P|280:176|320:184,1,80,2|2,0:0|0:0,0:0:0:0:
424,128,105213,2,0,L|464:128,2,40,2|0|2,0:0|0:0|0:0,0:0:0:0:
348,36,105713,1,2,0:0:0:0:
348,36,105838,1,2,0:0:0:0:
348,36,105963,1,2,0:0:0:0:
256,112,106213,1,2,0:0:0:0:
164,36,106463,1,2,0:0:0:0:
88,128,106713,6,0,P|88:208|136:272,2,160,6|8|2,0:0|0:0|0:0,0:0:0:0:
196,76,107963,1,0,0:0:0:0:
300,136,108213,2,0,P|340:136|376:120,1,80,8|0,0:0|0:0,0:0:0:0:
432,60,108713,6,0,P|416:140|456:208,1,160,2|8,0:0|0:0,0:0:0:0:
508,260,109463,1,0,0:0:0:0:
460,324,109713,1,2,0:0:0:0:
460,324,109838,1,2,0:0:0:0:
460,324,109963,1,0,0:0:0:0:
344,360,110213,1,8,0:0:0:0:
256,280,110463,1,0,0:0:0:0:
296,168,110713,6,0,P|232:168|184:196,1,120,2|0,0:0|0:0,0:0:0:0:
156,224,111213,2,0,P|116:224|80:204,1,80,8|0,0:0|0:0,0:0:0:0:
36,96,111713,1,2,0:0:0:0:
144,40,111963,1,0,0:0:0:0:
256,84,112213,2,0,P|296:84|344:64,1,80,8|0,0:0|0:0,0:0:0:0:
448,32,112713,6,0,P|484:80|484:140,1,120,2|0,0:0|0:0,0:0:0:0:
468,172,113213,2,0,P|436:196|396:208,1,80,8|0,0:0|0:0,0:0:0:0:
296,144,113713,2,0,L|248:144,2,40,2|2|0,0:0|0:0|0:0,0:0:0:0:
300,264,114213,1,8,0:0:0:0:
204,336,114463,1,0,0:0:0:0:
84,328,114713,6,0,P|20:280|20:204,2,160,2|8|2,0:0|0:0|0:0,0:0:0:0:
204,336,115963,1,0,0:0:0:0:
300,264,116213,2,0,P|300:224|280:188,1,80,8|0,0:0|0:0,0:0:0:0:
208,156,116713,6,0,P|268:140|308:96,1,120,2|0,0:0|0:0,0:0:0:0:
328,64,117213,2,0,P|368:64|408:80,1,80,8|0,0:0|0:0,0:0:0:0:
480,172,117713,2,0,L|480:212,2,40,2|0|0,0:0|0:0|0:0,0:0:0:0:
356,172,118213,2,0,P|316:172|280:192,1,80,8|0,0:0|0:0,0:0:0:0:
180,256,118713,5,2,0:0:0:0:
80,192,118963,1,0,0:0:0:0:
152,96,119213,2,0,P|180:124|192:164,1,80,8|0,0:0|0:0,0:0:0:0:
80,192,119713,2,0,L|40:192,2,40,2|2|0,0:0|0:0|0:0,0:0:0:0:
180,256,120213,2,0,P|220:256|256:236,1,80,8|0,0:0|0:0,0:0:0:0:
340,152,120713,5,2,0:0:0:0:
256,192,120838,12,0,124213,0:0:0:0:
