osu file format v9

[General]
AudioFilename: closest love.mp3
AudioLeadIn: 2500
PreviewTime: 59365
Countdown: 0
SampleSet: Soft
StackLeniency: 0.4
Mode: 0
LetterboxInBreaks: 0

[Editor]
DistanceSpacing: 0.9
BeatDivisor: 4
GridSize: 8

[Metadata]
Title:closest love
Artist:fripSide
Creator:kanpakyin
Version:Easy
Source:Areas Koisuru Otome no 3H
Tags:Sora ni utsusu kimi tono sekai kanarin Nanjou Yoshino Hinacle Lapis Lazuli

[Difficulty]
HPDrainRate:3
CircleSize:4
OverallDifficulty:2
ApproachRate:3
SliderMultiplier:0.899999999999999
SliderTickRate:1

[Events]
//Background and Video events
Video,0,"video.avi"
0,0,"BG.jpg"
//Break Periods
2,88682,94102
//Storyboard Layer 0 (Background)
//Storyboard Layer 1 (Fail)
//Storyboard Layer 2 (Pass)
//Storyboard Layer 3 (Foreground)
Sprite,Foreground,Centre,"BLACK.png",320,240 F,0,78777,79659,0,1 F,0,79659,84512,1 F,0,84292,84512,1 F,0,84512,85395,1 S,0,85395,,1
Sprite,Foreground,Centre,"White Effect.png",320,240 F,0,84843,85395,1 S,0,84843,85395,0.1,2.39376 F,0,85395,86277,1,0 S,0,85395,86277,2.39376
Sprite,Foreground,Centre,"Ring5.png",320,240 M,0,84071,,316,315 F,0,84071,84292,0,1 S,0,84071,84292,0.1,0.55056 F,0,84292,84733,1 S,0,84292,84953,0.55056,0.7553601 F,0,84733,84953,1,0.3292801
Sprite,Foreground,Centre,"SAKURA.png",320,240 S,0,79549,,0.78496 F,0,79549,80100,0,1 M,0,79549,84071,564,-18,306,293 F,0,80100,84071,1 M,0,84071,84953,306,293,255,248 F,0,84071,84953,1,0
Sprite,Foreground,Centre,"SAKURA BIG.png",320,240 S,0,80431,,1.94208 F,0,80431,80762,0,1 R,0,80431,83189,0.6348804,0.90112 M,0,80431,83409,897,-167,247,313 F,0,80762,82747,1 F,0,82747,83189,1,0
Sprite,Foreground,Centre,"Ring.png",320,240 M,0,83078,,411,354 F,0,83078,83189,0.06303985,1 S,0,83078,83189,0.2115201,1.06144 F,0,83189,84071,1,0 S,0,83189,84071,1.06144,1.24576
Sprite,Foreground,Centre,"Ring.png",320,240 M,0,82196,,399,195 F,0,82196,82306,0,1 S,0,82196,82306,0.3548799,1.07168 F,0,82306,83189,1,0 S,0,82306,83189,1.07168,1.21504
Sprite,Foreground,Centre,"BLACK.png",320,240 F,0,71718,72600,0,1 M,0,71718,76130,320,240 F,0,72600,76130,1 M,0,76130,77012,320,240 F,0,76130,77012,1,0
Sprite,Foreground,Centre,"Ring.png",320,240 M,0,81314,,206,360 F,0,81314,81424,0,1 S,0,81314,81424,0.17056,1.14336 F,0,81424,82306,1,0 S,0,81424,82306,1.14336,1.27648
Sprite,Foreground,Centre,"Ring.png",320,240 M,0,76020,,409,195 F,0,76020,76130,0,1 S,0,76020,76130,0.2115199,1.03072 F,0,76130,77012,1,0 S,0,76130,77012,1.03072,1.29696
Sprite,Foreground,Centre,"Ring.png",320,240 M,0,75137,,213,192 F,0,75137,75247,0,1 S,0,75137,75247,0.25248,1.04096 F,0,75247,76130,1,0 S,0,75247,76130,1.04096,1.3072
Sprite,Foreground,Centre,"Ring.png",320,240 M,0,74255,,372,312 F,0,74255,74365,0,1 S,0,74255,74365,0.3548801,1.0512 F,0,74365,75247,1,0.03743988 S,0,74365,75247,1.0512,1.355979
Sprite,Foreground,Centre,"Mini Light.png",320,240 S,0,73372,,1.78848 F,0,73372,73924,0,0.6144 M,0,73372,76571,320,-280,315,330 F,0,73924,74806,0.6144,1 F,0,74806,76130,1 F,0,76130,76571,1,0
Sprite,Foreground,Centre,"White Effect.png",320,240 S,0,84953,,1
Sprite,Foreground,Centre,"BLACK.png",320,240 M,0,49218,50542,320,240 F,0,49218,50542,0,1 M,0,50542,,320,240 F,0,50542,50983,1 F,0,50983,,1 F,0,50983,51314,1 F,0,51314,53189,1 F,0,53189,54071,1,0
Sprite,Foreground,Centre,"Ring.png",320,240 M,0,52196,,201,251 F,0,52196,52306,0,1 S,0,52196,52306,0.2012798,0.9590399 F,0,52306,53189,1,0 S,0,52306,53189,0.9590399,1.23552
Sprite,Foreground,Centre,"Ring.png",320,240 M,0,51314,,440,134 F,0,51314,51424,0,1 S,0,51314,51424,0.1193604,1 F,0,51424,52306,1,0 S,0,51424,52306,1,1.2048
Sprite,Foreground,Centre,"Ring.png",320,240 M,0,53078,,395,328 F,0,53078,53189,0,1 S,0,53078,53189,0.2627197,1.08192 F,0,53189,54071,1,0 S,0,53189,54071,1.08192,1.36864
//Storyboard Sound Samples
//Background Colour Transformations
3,100,163,162,255

[TimingPoints]
248,441.176470588235,4,2,1,60,1,0
1681,-100,4,2,2,60,0,0
1902,-100,4,2,1,60,0,0
3667,-100,4,2,2,60,0,0
3887,-100,4,2,1,60,0,0
8740,-100,4,2,2,50,0,0
8961,-100,4,2,1,60,0,0
13372,-100,4,2,2,60,0,0
13593,-100,4,2,1,60,0,0
16020,-100,4,2,2,60,0,0
29696,-100,4,2,1,60,0,0
35431,-100,4,2,2,60,0,0
35652,-100,4,2,1,60,0,0
37196,-100,4,2,2,80,0,0
37417,-100,4,2,1,60,0,0
39843,-100,4,2,2,60,0,0
40064,-100,4,2,1,60,0,0
41608,-100,4,2,2,60,0,0
41828,-100,4,2,1,60,0,0
44255,-100,4,2,2,60,0,0
44475,-100,4,2,1,60,0,0
45137,-100,4,2,2,60,0,0
45358,-100,4,2,1,60,0,0
46020,-100,4,2,2,60,0,0
46240,-100,4,2,1,60,0,0
46902,-100,4,1,1,60,0,0
47122,-100,4,2,1,60,0,0
48225,-100,4,2,2,60,0,0
49328,-100,4,1,1,60,0,0
51645,-100,4,2,1,60,0,0
52196,-100,4,2,2,60,0,0
52417,-100,4,2,1,60,0,0
53078,-100,4,2,2,60,0,0
53299,-100,4,2,1,60,0,0
53961,-100,4,1,1,60,0,0
54181,-100,4,2,1,60,0,0
55725,-100,4,2,2,60,0,0
55946,-100,4,2,1,60,0,0
56608,-100,4,1,1,60,0,0
59255,-100,4,1,1,40,0,0
60247,-100,4,1,1,60,0,1
60358,-100,4,2,1,60,0,1
61902,-100,4,2,2,60,0,1
62122,-100,4,2,1,60,0,1
62674,-100,4,2,2,60,0,1
63115,-100,4,2,1,60,0,1
63667,-100,4,2,2,60,0,1
63997,-100,4,1,1,60,0,1
66093,-100,4,2,1,60,0,1
68961,-100,4,1,1,60,0,1
69181,-100,4,2,1,60,0,1
69733,-100,4,2,1,60,0,1
70064,-100,4,2,1,60,0,1
70725,-100,4,2,2,80,0,1
72711,-100,4,2,1,60,0,1
73372,-100,4,2,2,60,0,1
73593,-100,4,1,1,60,0,1
74586,-100,4,2,1,60,0,1
76902,-100,4,1,1,60,0,1
77122,-100,4,2,1,60,0,1
80431,-100,4,1,1,60,0,1
80762,-100,4,2,1,60,0,1
81203,-100,4,1,1,60,0,1
81645,-100,4,2,1,60,0,1
82086,-100,4,1,1,60,0,1
82527,-100,4,2,1,60,0,1
85725,-100,4,2,2,60,0,1
85946,-100,4,2,1,60,0,1
86608,-100,4,2,2,60,0,1
86828,-100,4,2,1,60,0,1
87380,-100,4,2,1,80,0,1
88483,-100,4,2,2,80,0,0
88593,-100,4,2,1,60,0,0
97196,-100,4,2,2,60,0,0
97637,-100,4,2,1,60,0,0
97968,-100,4,2,2,60,0,0
98299,-100,4,2,1,60,0,0
99843,-100,4,1,1,60,0,0
100946,-100,4,2,1,60,0,0
106902,-100,4,2,2,60,0,0
107122,-100,4,2,1,60,0,0
107784,-100,4,2,2,60,0,0
108005,-100,4,2,1,60,0,0
111314,-100,4,2,2,60,0,0
111534,-100,4,2,1,60,0,0
112196,-100,4,2,2,60,0,0
112417,-100,4,2,1,60,0,0
113961,-100,4,2,2,60,0,0
114181,-100,4,2,1,60,0,0
115725,-100,4,2,2,60,0,0
115946,-100,4,2,1,60,0,0
118262,-100,4,1,1,60,0,0

[Colours]
Combo1 : 17,130,255
Combo2 : 135,180,248

[HitObjects]
161,225,248,2,0,B|93:225,2,67.4999999999999,2|2|2
236,253,1350,2,0,B|227:299|280:342|323:337,1,135,2|4
395,307,2453,6,0,B|393:333|400:355,2,45,8|2|0
427,232,3336,2,0,B|445:179|445:179|433:141|399:99|353:87,1,180,8|8
309,150,4659,2,0,B|270:123|218:124,1,89.9999999999999,2|8
229,204,5542,2,0,B|168:202|97:240|77:298,2,180,4|2|4
293,252,7747,2,0,B|348:260,1,45,8|2
351,338,8409,2,0,B|420:361|449:351|449:351|484:359,1,135,2|4
443,261,9512,6,0,B|498:270,2,45,8|2|0
375,215,10395,1,8
352,137,10836,2,0,B|307:136|307:136|242:124|242:124|168:124,1,180,2|2
187,203,12159,2,0,B|83:201,2,89.9999999999999,8|4|8
238,265,13483,2,0,B|334:272|318:303|422:310,1,180,8|2
256,192,14806,12,4,16130
257,101,16571,6,0,B|260:156|260:156|282:216|282:216|281:293,1,180,2|0
208,240,17895,2,0,B|208:347,2,89.9999999999999,2|0|2
146,187,19218,1,0
88,130,19659,6,0,B|111:90|226:90|261:139,1,180,4|2
274,210,20983,1,8
305,284,21424,2,0,B|329:329|453:327|471:281,2,180,8|8|4
228,256,23630,5,2
151,283,24071,2,0,B|95:283,2,45,2|0|2
163,203,24953,2,0,B|221:134|179:106|236:29,2,180,4|2|2
240,226,27159,2,0,B|290:201,2,45,2|0|4
256,192,28042,12,12,29806
194,194,30247,6,0,B|129:219|70:192|70:192|6:215,2,180,4|2|4
336,115,32895,2,0,B|401:140|460:113|460:113|524:136,2,180,2|4|2
347,197,35100,1,8
324,275,35542,2,0,B|322:311|295:338|251:344,2,89.9999999999999,8|8|6
166,312,37306,6,0,B|111:312|111:312|49:294|49:294|-13:294,2,180,4|2|2
142,234,39512,2,0,B|243:234,1,89.9999999999999,8|8
227,152,40395,2,0,B|273:136|297:94,1,89.9999999999999,8|0
218,73,41277,2,0,B|400:74,1,180,8|8
256,192,42600,12,8,44365
257,196,44806,6,0,B|201:194|162:166|162:166|73:165,2,180,8|8|8
260,277,47012,2,0,B|300:274|328:254|337:217,1,89.9999999999999,8|8
407,260,47895,2,0,B|427:243|431:186|415:157,1,89.9999999999999,4|8
502,166,48777,2,0,B|509:139|488:95|458:83,1,89.9999999999999,2|8
389,110,49659,2,0,B|344:91|344:91|277:113|200:89,1,180,8|8
156,150,50983,6,0,B|133:133|129:104,2,45,8|0|4
228,185,51865,2,0,B|228:242|253:270|253:270|232:306|235:363,2,180,8|8|8
308,194,54071,2,0,B|321:248|385:261,1,89.9999999999999,8|8
391,179,54953,2,0,B|443:202|496:176,2,89.9999999999999,4|8|8
340,115,56277,1,8
299,45,56718,2,8,B|264:34|219:46,2,67.4999999999999
256,192,57600,12,8,59365
256,137,60247,6,0,B|213:158|158:148|158:148|133:184|84:190,1,180,4|2
128,261,61571,1,8
207,277,62012,6,0,B|209:320|169:355|93:361|65:316,2,180,4|8|8
274,231,64218,2,0,B|338:241|398:221|398:221|432:235|463:231,2,180,8|8|8
227,164,66424,6,0,B|261:163|297:136|291:90,2,89.9999999999999,2|8|4
180,230,67747,2,0,B|178:262|192:287|192:287|186:325,2,89.9999999999999,8|2|8
101,250,69071,2,0,B|99:187|42:136|-22:128,2,180,8|2|4
161,304,71277,5,2
240,318,71718,1,4
319,303,72159,2,0,B|348:294|368:252|364:212,1,89.9999999999999,2|4
286,207,73042,6,0,B|289:262|368:309|436:298,2,180,8|8|8
213,244,75247,2,0,B|192:204|198:150,1,89.9999999999999,2|8
118,177,76130,6,0,B|135:128|120:82|120:82|77:103|31:84,2,180,4|8|4
104,259,78336,1,8
93,339,78777,2,0,B|146:325|199:323,1,89.9999999999999,2|8
262,324,79659,2,0,B|271:367|281:381,2,45,4|2|8
276,244,80542,6,0,B|332:244|381:170|361:107,2,180,8|4|8
194,251,82747,1,8
117,224,83189,2,0,B|122:140|69:142|76:42,2,180,4|2|4
193,198,85395,6,0,B|188:282|241:280|234:380,2,180,8|10|8
273,208,87600,2,0,B|277:260|333:273,2,89.9999999999999,2|8|4
180,250,95542,6,0,B|92:250|103:302|1:302,2,180,4|2|8
170,330,97747,2,0,B|275:330,1,89.9999999999999,8|8
287,253,98630,2,0,B|340:253,2,45,8|2|4
257,177,99512,6,0,B|206:177|206:177|147:166|147:166|68:166,2,180,8|8|8
327,216,101718,2,0,B|392:197|392:127|392:127|456:127,2,180,2|4|2
344,295,103924,1,8
271,331,104365,6,0,B|228:352|172:341,1,89.9999999999999,4|8
198,263,105247,2,0,B|155:252|132:203,1,89.9999999999999,2|8
208,175,106130,2,0,B|175:140|187:80,3,89.9999999999999,4|8|8|8
263,113,107895,6,0,B|75:112,2,180,4|2|4
343,109,110100,2,0,B|377:91|384:69,2,45,8|2|8
310,183,110983,2,0,B|305:235|339:266|339:266|325:302|344:356,2,180,10|8|8
235,151,113189,5,4
232,231,113630,2,0,B|208:281|95:281|72:234,1,180,8|8
122,172,114953,1,2
179,115,115395,2,0,B|155:65|42:65|19:112,1,180,8|8
256,192,116718,12,0,118483
