osu file format v12

[General]
AudioFilename: fripside - black bullet.mp3
AudioLeadIn: 0
PreviewTime: 49523
Countdown: 0
SampleSet: None
StackLeniency: 0.7
Mode: 3
LetterboxInBreaks: 0
SpecialStyle: 0
WidescreenStoryboard: 1

[Editor]
DistanceSpacing: 0.9
BeatDivisor: 4
GridSize: 8
TimelineZoom: 1

[Metadata]
Title:black bullet (TV Size)
TitleUnicode:black bullet (TV Size)
Artist:fripSide
ArtistUnicode:fripSide
Creator:vocaloid1anime2
Version:5K MX
Source:ブラック・ブレット
Tags:OP Anime Shinnzan [Shana_Lesus] NaxelCL Kuo_Kyoka
BeatmapID:429273
BeatmapSetID:173360

[Difficulty]
HPDrainRate:8
CircleSize:5
OverallDifficulty:9
ApproachRate:5
SliderMultiplier:1.4
SliderTickRate:1

[Events]
//Background and Video events
0,0,"45464564_5622658.jpg",0,0
//Break Periods
//Storyboard Layer 0 (Background)
//Storyboard Layer 1 (Fail)
//Storyboard Layer 2 (Pass)
//Storyboard Layer 3 (Foreground)
//Storyboard Sound Samples
Sample,2878,0,"hithat02.ogg",10
Sample,3071,0,"hithat02.ogg",10
Sample,3265,0,"hithat02.ogg",10
Sample,11974,0,"hithat02.ogg",10
Sample,12168,0,"hithat02.ogg",10
Sample,12361,0,"hithat02.ogg",10
Sample,12555,0,"hithat02.ogg",10
Sample,18168,0,"hithat02.ogg",10
Sample,18361,0,"hithat02.ogg",10
Sample,18555,0,"hithat02.ogg",10
Sample,18749,0,"hithat02.ogg",10
Sample,18772,0,"hithat02.ogg",10
Sample,18845,0,"hithat02.ogg",10
Sample,30749,0,"hithat02.ogg",10
Sample,30813,0,"hithat02.ogg",10
Sample,30942,0,"hithat02.ogg",10
Sample,31136,0,"hithat02.ogg",10
Sample,31329,0,"hithat02.ogg",10
Sample,39845,0,"hithat02.ogg",10
Sample,39910,0,"hithat02.ogg",10
Sample,39974,0,"hithat02.ogg",10
Sample,40039,0,"hithat02.ogg",10
Sample,40232,0,"hithat02.ogg",10
Sample,40426,0,"hithat02.ogg",10
Sample,49136,0,"Bass.wav",70
Sample,49232,0,"Bass.wav",70
Sample,49329,0,"Bass.wav",70
Sample,49426,0,"Bass.wav",70
Sample,49523,0,"Bass.wav",70
Sample,49910,0,"001.ogg",70
Sample,53007,0,"cymbol.wav",70
Sample,59200,0,"cymbol.wav",70
Sample,65394,0,"cymbol.wav",70
Sample,71587,0,"cymbol.wav",70
Sample,74103,0,"Bass.wav",70
Sample,74200,0,"Bass.wav",70
Sample,80103,0,"hithat02.ogg",10
Sample,80297,0,"hithat02.ogg",10
Sample,80491,0,"hithat02.ogg",10
Sample,80684,0,"hithat02.ogg",10
Sample,83200,0,"hithat02.ogg",10
Sample,83394,0,"hithat02.ogg",10
Sample,83587,0,"hithat02.ogg",10
Sample,83781,0,"hithat02.ogg",10
//Background Colour Transformations
3,100,163,162,255

[TimingPoints]
362,387.096774193548,4,1,0,100,1,0
4813,-50,4,1,0,100,0,0
4910,-333.333333333333,4,1,0,100,0,0
5200,-50,4,1,0,100,0,0
5297,-333.333333333333,4,1,0,100,0,0
5587,-100,4,1,0,100,0,0
48361,-50,4,1,0,100,0,0
48458,-250,4,1,0,100,0,0
48555,-400,4,1,0,100,0,0
48652,-50,4,1,0,100,0,0
48749,-250,4,1,0,100,0,0
48845,-400,4,1,0,100,0,0
48942,-200,4,1,0,100,0,0
49136,-50,4,1,0,100,0,0
49329,-1000,4,1,0,100,0,0
49426,-250,4,1,0,100,0,0
49523,-200,4,1,0,100,0,0
49620,-166.666666666667,4,1,0,100,0,0
49716,-142.857142857143,4,1,0,100,0,0
49813,-125,4,1,0,100,0,0
49910,-100,4,1,0,100,0,1
77781,-100,4,1,0,100,0,0
83974,-50,4,1,0,100,0,0
83999,-153.846153846153,4,1,0,100,0,0
84071,-50,4,1,0,100,0,0
84095,-153.846153846153,4,1,0,100,0,0
84144,-1000,4,1,0,100,0,0
84168,-50,4,1,0,100,0,0
84192,-153.846153846153,4,1,0,100,0,0
84241,-1000,4,1,0,100,0,0
84265,-50,4,1,0,100,0,0
84289,-153.846153846153,4,1,0,100,0,0
84337,-1000,4,1,0,100,0,0
84361,-100,4,1,0,100,0,0

[HitObjects]
256,192,362,5,0,0:0:0:70:piano01.ogg
448,192,362,1,0,0:0:0:70:cymbol.wav
64,192,362,1,0,0:0:0:70:Bass.wav
358,192,555,1,0,0:0:0:70:hithat.ogg
192,192,556,1,0,0:0:0:70:piano02.ogg
51,192,749,1,0,0:0:0:70:piano03.ogg
448,192,749,1,0,0:0:0:70:Bass.wav
358,192,942,1,0,0:0:0:70:hithat.ogg
256,192,942,128,0,1329:0:0:0:70:piano04.ogg
153,192,942,1,0,0:0:0:10:piano04.ogg
64,192,1136,1,0,0:0:0:70:Bass.wav
448,192,1329,1,0,0:0:0:70:hithat.ogg
320,192,1330,1,0,0:0:0:70:piano05.ogg
448,192,1523,1,0,0:0:0:70:Bass.wav
64,192,1524,1,0,0:0:0:70:piano06.ogg
320,192,1717,128,0,2104:0:0:0:70:piano07.ogg
192,192,1717,1,0,0:0:0:70:hithat.ogg
448,192,1910,1,0,0:0:0:70:Bass.wav
256,192,2103,1,0,0:0:0:70:hithat.ogg
64,192,2104,1,0,0:0:0:70:piano08.ogg
192,192,2297,1,0,0:0:0:70:Bass.wav
448,192,2298,1,0,0:0:0:70:piano09.ogg
320,192,2491,1,0,0:0:0:70:hithat.ogg
153,192,2491,128,0,2878:0:0:0:70:piano10.ogg
448,192,2684,1,0,0:0:0:70:Bass.wav
358,192,2684,1,0,0:0:0:10:hithat02.ogg
256,192,2749,1,0,0:0:0:10:hithat02.ogg
51,192,2813,1,0,0:0:0:10:hithat02.ogg
358,192,2878,1,0,0:0:0:70:piano11.ogg
460,192,2878,1,0,0:0:0:70:hithat.ogg
51,192,2942,1,0,0:0:0:10:hithat02.ogg
320,192,3007,1,0,0:0:0:10:hithat02.ogg
256,192,3071,1,0,0:0:0:70:piano12.ogg
448,192,3071,1,0,0:0:0:70:Bass.wav
192,192,3136,1,0,0:0:0:10:hithat02.ogg
256,192,3200,1,0,0:0:0:10:hithat02.ogg
358,192,3265,1,0,0:0:0:70:hithat.ogg
448,192,3265,128,0,3652:0:0:0:70:piano13.ogg
51,192,3265,1,0,0:0:0:70:cymbol.wav
256,192,3458,1,0,0:0:0:70:Bass.wav
153,192,3652,1,0,0:0:0:70:piano14.ogg
320,192,3652,1,0,0:0:0:70:hithat.ogg
51,192,3845,1,0,0:0:0:70:piano15.ogg
448,192,3845,1,0,0:0:0:70:Bass.wav
256,192,4039,128,0,4426:0:0:0:70:piano16.ogg
153,192,4039,1,0,0:0:0:70:hithat.ogg
460,192,4232,1,0,0:0:0:70:Bass.wav
358,192,4329,1,0,0:0:0:70:Bass.wav
448,192,4426,128,0,4813:0:0:0:70:piano17.ogg
64,192,4426,1,0,0:0:0:70:hithat.ogg
192,192,4426,1,0,0:0:0:70:Bass.wav
320,192,4620,1,0,0:0:0:70:Bass.wav
192,192,4813,1,0,0:0:0:55:piano18.ogg
64,192,4813,1,0,0:0:0:10:piano18.ogg
256,192,4813,1,0,0:0:0:10:hihat.wav
256,192,5200,1,0,0:0:0:10:piano18.ogg
320,192,5200,1,0,0:0:0:55:piano18.ogg
460,192,5200,1,0,0:0:0:10:hihat.wav
320,192,5587,1,0,0:0:0:10:hihat.wav
256,192,5587,1,0,0:0:0:55:piano20.ogg
153,192,5587,1,0,0:0:0:70:cymbol.wav
320,192,5974,1,0,0:0:0:70:piano21.ogg
153,192,5974,1,0,0:0:0:10:hihat.wav
51,192,6168,1,0,0:0:0:70:piano22.ogg
460,192,6168,1,0,0:0:0:10:hihat.wav
192,192,6555,1,0,0:0:0:70:002.ogg
448,192,6555,1,0,0:0:0:70:001.ogg
320,192,6555,1,0,0:0:0:70:Bass.wav
51,192,6555,1,0,0:0:0:10:hihat.wav
64,192,6749,1,0,0:0:0:70:hithat.ogg
256,192,6942,1,0,0:0:0:70:Bass.wav
460,192,6942,1,0,0:0:0:10:hihat.wav
192,192,7136,1,0,0:0:0:70:hithat.ogg
448,192,7329,1,0,0:0:0:70:Bass.wav
51,192,7329,1,0,0:0:0:10:hihat.wav
256,192,7523,1,0,0:0:0:70:hithat.ogg
320,192,7716,1,0,0:0:0:70:Bass.wav
153,192,7716,1,0,0:0:0:10:hihat.wav
51,192,7910,1,0,0:0:0:70:hithat.ogg
256,192,8103,1,0,0:0:0:70:Bass.wav
460,192,8103,1,0,0:0:0:10:hihat.wav
192,192,8297,1,0,0:0:0:70:hithat.ogg
256,192,8491,1,0,0:0:0:70:Bass.wav
51,192,8491,1,0,0:0:0:10:hihat.wav
320,192,8684,1,0,0:0:0:70:hithat.ogg
192,192,8878,1,0,0:0:0:70:Bass.wav
320,192,8878,1,0,0:0:0:10:hithat02.ogg
256,192,8942,1,0,0:0:0:10:hithat02.ogg
460,192,9007,1,0,0:0:0:10:hithat02.ogg
358,192,9071,1,0,0:0:0:10:hithat02.ogg
153,192,9071,1,0,0:0:0:70:hithat.ogg
256,192,9136,1,0,0:0:0:10:hithat02.ogg
51,192,9200,1,0,0:0:0:10:hithat02.ogg
448,192,9265,1,0,0:0:0:70:Bass.wav
153,192,9265,1,0,0:0:0:10:hithat02.ogg
256,192,9329,1,0,0:0:0:10:hithat02.ogg
358,192,9394,1,0,0:0:0:10:hithat02.ogg
460,192,9458,1,0,0:0:0:70:hithat.ogg
51,192,9458,1,0,0:0:0:10:hithat02.ogg
448,192,9652,1,0,0:0:0:70:Bass.wav
256,192,9652,1,0,0:0:0:70:cymbol.wav
51,192,9652,1,0,0:0:0:70:hihat.wav
192,192,9845,1,0,0:0:0:70:hithat.ogg
256,192,10039,1,0,0:0:0:70:Bass.wav
358,192,10039,1,0,0:0:0:10:hihat.wav
460,192,10232,1,0,0:0:0:70:hithat.ogg
51,192,10426,1,0,0:0:0:70:Bass.wav
153,192,10426,1,0,0:0:0:10:hihat.wav
320,192,10620,1,0,0:0:0:70:hithat.ogg
256,192,10813,1,0,0:0:0:70:Bass.wav
153,192,10813,1,0,0:0:0:10:hihat.wav
51,192,11007,1,0,0:0:0:70:hithat.ogg
460,192,11200,1,0,0:0:0:70:Bass.wav
358,192,11200,1,0,0:0:0:10:hihat.wav
153,192,11394,1,0,0:0:0:70:hithat.ogg
358,192,11587,1,0,0:0:0:70:Bass.wav
256,192,11587,1,0,0:0:0:10:hihat.wav
460,192,11781,1,0,0:0:0:70:hithat.ogg
460,192,11974,1,0,0:0:0:70:Bass.wav
64,192,11974,128,0,12749:0:0:0:100:fade-in.wav
358,192,12039,1,0,0:0:0:10:hithat02.ogg
256,192,12103,1,0,0:0:0:10:hithat02.ogg
153,192,12168,1,0,0:0:0:70:hithat.ogg
460,192,12232,1,0,0:0:0:10:hithat02.ogg
256,192,12297,1,0,0:0:0:10:hithat02.ogg
358,192,12361,1,0,0:0:0:70:Bass.wav
153,192,12426,1,0,0:0:0:10:hithat02.ogg
460,192,12491,1,0,0:0:0:10:hithat02.ogg
256,192,12555,1,0,0:0:0:70:hithat.ogg
320,192,12749,1,0,0:0:0:70:Bass.wav
448,192,12749,1,0,0:0:0:70:001.ogg
153,192,12749,1,0,0:0:0:10:hihat.wav
256,192,12942,1,0,0:0:0:70:hithat.ogg
192,192,13136,1,0,0:0:0:70:Bass.wav
51,192,13329,1,0,0:0:0:70:hithat.ogg
358,192,13329,1,0,0:0:0:70:piano23.ogg
153,192,13523,1,0,0:0:0:70:Bass.wav
448,192,13523,1,0,0:0:0:70:piano24.ogg
256,192,13716,1,0,0:0:0:70:hithat.ogg
320,192,13813,1,0,0:0:0:70:piano25.ogg
448,192,13910,1,0,0:0:0:70:Bass.wav
64,192,14103,1,0,0:0:0:70:hithat.ogg
153,192,14103,1,0,0:0:0:70:piano26.ogg
320,192,14297,1,0,0:0:0:70:Bass.wav
460,192,14297,1,0,0:0:0:70:piano26.ogg
256,192,14491,1,0,0:0:0:70:hithat.ogg
153,192,14684,1,0,0:0:0:70:Bass.wav
51,192,14878,1,0,0:0:0:70:piano23.ogg
448,192,14878,1,0,0:0:0:70:hithat.ogg
320,192,15071,1,0,0:0:0:70:Bass.wav
153,192,15071,1,0,0:0:0:70:piano27.ogg
460,192,15265,1,0,0:0:0:70:hithat.ogg
256,192,15361,1,0,0:0:0:70:piano28.ogg
64,192,15458,1,0,0:0:0:70:Bass.wav
192,192,15652,1,0,0:0:0:70:piano29.ogg
448,192,15652,1,0,0:0:0:70:hithat.ogg
64,192,15845,1,0,0:0:0:70:piano28.ogg
320,192,15845,1,0,0:0:0:70:Bass.wav
192,192,16039,1,0,0:0:0:70:hithat.ogg
358,192,16232,1,0,0:0:0:70:Bass.wav
192,192,16426,1,0,0:0:0:70:hithat.ogg
256,192,16426,1,0,0:0:0:70:piano23.ogg
460,192,16620,1,0,0:0:0:70:Bass.wav
64,192,16620,1,0,0:0:0:70:piano23.ogg
192,192,16813,1,0,0:0:0:70:hithat.ogg
256,192,16910,1,0,0:0:0:70:piano30.ogg
358,192,17007,1,0,0:0:0:70:Bass.wav
51,192,17200,1,0,0:0:0:70:hithat.ogg
460,192,17200,1,0,0:0:0:70:piano31.ogg
358,192,17394,1,0,0:0:0:70:Bass.wav
192,192,17394,1,0,0:0:0:70:piano32.ogg
256,192,17587,1,0,0:0:0:70:hithat.ogg
460,192,17781,1,0,0:0:0:70:Bass.wav
51,192,17974,1,0,0:0:0:70:hithat.ogg
256,192,17974,1,0,0:0:0:70:piano23.ogg
64,192,18168,1,0,0:0:0:70:Bass.wav
460,192,18168,1,0,0:0:0:70:piano32.ogg
320,192,18232,1,0,0:0:0:10:hithat02.ogg
256,192,18297,1,0,0:0:0:10:hithat02.ogg
153,192,18361,1,0,0:0:0:70:hithat.ogg
64,192,18458,1,0,0:0:0:10:hithat02.ogg
448,192,18458,1,0,0:0:0:70:piano33.ogg
153,192,18555,1,0,0:0:0:70:Bass.wav
256,192,18652,1,0,0:0:0:10:hithat02.ogg
320,192,18749,1,0,0:0:0:70:piano29.ogg
192,192,18749,1,0,0:0:0:70:Bass.wav
256,192,18942,1,0,0:0:0:70:Bass.wav
448,192,18942,1,0,0:0:0:70:cymbol.wav
64,192,18942,1,0,0:0:0:70:piano28.ogg
153,192,19136,1,0,0:0:0:70:hithat.ogg
256,192,19329,1,0,0:0:0:70:Bass.wav
448,192,19523,1,0,0:0:0:70:hithat.ogg
64,192,19523,1,0,0:0:0:70:piano23.ogg
320,192,19716,1,0,0:0:0:70:Bass.wav
192,192,19716,1,0,0:0:0:70:piano28.ogg
64,192,19910,1,0,0:0:0:70:hithat.ogg
256,192,20007,1,0,0:0:0:70:piano33.ogg
460,192,20103,1,0,0:0:0:70:Bass.wav
358,192,20297,1,0,0:0:0:70:hithat.ogg
192,192,20297,1,0,0:0:0:70:piano28.ogg
64,192,20491,1,0,0:0:0:70:Bass.wav
460,192,20491,1,0,0:0:0:70:piano28.ogg
192,192,20684,1,0,0:0:0:70:hithat.ogg
448,192,20878,1,0,0:0:0:70:Bass.wav
51,192,21071,1,0,0:0:0:70:hithat.ogg
192,192,21071,1,0,0:0:0:70:piano23.ogg
358,192,21265,1,0,0:0:0:70:Bass.wav
448,192,21265,1,0,0:0:0:70:piano26.ogg
256,192,21458,1,0,0:0:0:70:hithat.ogg
320,192,21555,1,0,0:0:0:70:piano27.ogg
448,192,21652,1,0,0:0:0:70:Bass.wav
320,192,21845,1,0,0:0:0:70:hithat.ogg
153,192,21845,1,0,0:0:0:70:piano23.ogg
192,192,22039,1,0,0:0:0:70:Bass.wav
448,192,22039,1,0,0:0:0:70:piano34.ogg
256,192,22232,1,0,0:0:0:70:hithat.ogg
153,192,22329,1,0,0:0:0:70:piano23.ogg
51,192,22426,1,0,0:0:0:70:Bass.wav
64,192,22620,1,0,0:0:0:70:hithat.ogg
320,192,22620,1,0,0:0:0:70:piano34.ogg
192,192,22813,1,0,0:0:0:70:Bass.wav
320,192,22813,1,0,0:0:0:70:piano34.ogg
256,192,23007,1,0,0:0:0:70:hithat.ogg
358,192,23103,1,0,0:0:0:70:piano33.ogg
460,192,23200,1,0,0:0:0:70:Bass.wav
448,192,23394,1,0,0:0:0:70:hithat.ogg
153,192,23394,1,0,0:0:0:70:piano28.ogg
320,192,23587,1,0,0:0:0:70:Bass.wav
64,192,23587,1,0,0:0:0:70:piano28.ogg
192,192,23781,1,0,0:0:0:70:hithat.ogg
358,192,23878,1,0,0:0:0:70:piano24.ogg
256,192,23974,1,0,0:0:0:70:clap.ogg
460,192,23974,1,0,0:0:0:10:hihat.wav
64,192,24168,1,0,0:0:0:70:hithat.ogg
192,192,24168,1,0,0:0:0:70:piano25.ogg
320,192,24361,1,0,0:0:0:70:Bass.wav
256,192,24361,128,0,25136:0:0:0:100:fade-in.wav
64,192,24361,1,0,0:0:0:70:piano35.ogg
192,192,24458,1,0,0:0:0:70:clap.ogg
460,192,24555,1,0,0:0:0:70:hithat.ogg
51,192,24652,1,0,0:0:0:70:bass.ogg
460,192,24749,1,0,0:0:0:70:clap.ogg
320,192,24749,1,0,0:0:0:70:bass.ogg
64,192,24942,1,0,0:0:0:70:hithat.ogg
192,192,24942,1,0,0:0:0:70:bass.ogg
51,192,25136,1,0,0:0:0:70:Bass.wav
460,192,25136,1,0,0:0:0:70:001.ogg
153,192,25329,1,0,0:0:0:70:hithat.ogg
320,192,25523,1,0,0:0:0:70:Bass.wav
64,192,25716,1,0,0:0:0:70:hithat.ogg
256,192,25716,1,0,0:0:0:70:piano23.ogg
192,192,25910,1,0,0:0:0:70:Bass.wav
320,192,25910,1,0,0:0:0:70:piano24.ogg
256,192,26103,1,0,0:0:0:70:hithat.ogg
192,192,26200,1,0,0:0:0:70:piano25.ogg
320,192,26297,1,0,0:0:0:70:Bass.wav
64,192,26297,1,0,0:0:0:70:clap.ogg
256,192,26491,1,0,0:0:0:70:hithat.ogg
448,192,26491,1,0,0:0:0:70:piano26.ogg
64,192,26684,1,0,0:0:0:70:Bass.wav
448,192,26684,1,0,0:0:0:70:piano26.ogg
320,192,26878,1,0,0:0:0:70:hithat.ogg
448,192,27071,1,0,0:0:0:70:Bass.wav
192,192,27265,1,0,0:0:0:70:hithat.ogg
256,192,27265,1,0,0:0:0:70:piano23.ogg
64,192,27458,1,0,0:0:0:70:Bass.wav
358,192,27458,1,0,0:0:0:70:piano27.ogg
320,192,27652,1,0,0:0:0:70:hithat.ogg
256,192,27749,1,0,0:0:0:70:piano28.ogg
448,192,27845,1,0,0:0:0:70:Bass.wav
153,192,27845,1,0,0:0:0:70:clap.ogg
192,192,28039,1,0,0:0:0:70:hithat.ogg
64,192,28039,1,0,0:0:0:70:piano29.ogg
320,192,28232,1,0,0:0:0:70:Bass.wav
448,192,28232,1,0,0:0:0:70:piano24.ogg
153,192,28426,1,0,0:0:0:70:hithat.ogg
64,192,28620,1,0,0:0:0:70:Bass.wav
192,192,28813,1,0,0:0:0:70:hithat.ogg
358,192,28813,1,0,0:0:0:70:piano23.ogg
460,192,29007,1,0,0:0:0:70:Bass.wav
64,192,29007,1,0,0:0:0:70:piano23.ogg
192,192,29200,1,0,0:0:0:70:hithat.ogg
256,192,29297,1,0,0:0:0:70:piano30.ogg
64,192,29394,1,0,0:0:0:70:Bass.wav
358,192,29394,1,0,0:0:0:70:clap.ogg
460,192,29587,1,0,0:0:0:70:hithat.ogg
192,192,29587,1,0,0:0:0:70:piano31.ogg
320,192,29781,1,0,0:0:0:70:piano32.ogg
51,192,29781,1,0,0:0:0:70:Bass.wav
256,192,29974,1,0,0:0:0:70:hithat.ogg
192,192,30168,1,0,0:0:0:70:Bass.wav
64,192,30361,1,0,0:0:0:70:piano23.ogg
320,192,30361,1,0,0:0:0:70:hithat.ogg
256,192,30555,1,0,0:0:0:70:Bass.wav
448,192,30555,1,0,0:0:0:70:piano32.ogg
64,192,30652,1,0,0:0:0:70:clap.ogg
192,192,30749,1,0,0:0:0:70:hithat.ogg
256,192,30845,1,0,0:0:0:70:piano33.ogg
64,192,30845,1,0,0:0:0:10:hithat02.ogg
448,192,30942,1,0,0:0:0:70:Bass.wav
192,192,30942,1,0,0:0:0:70:clap.ogg
320,192,31039,1,0,0:0:0:10:hithat02.ogg
448,192,31136,1,0,0:0:0:70:Bass.wav
64,192,31136,1,0,0:0:0:70:hithat.ogg
256,192,31136,1,0,0:0:0:70:piano29.ogg
192,192,31232,1,0,0:0:0:10:hithat02.ogg
448,192,31329,1,0,0:0:0:70:Bass.wav
256,192,31329,1,0,0:0:0:70:cymbol.wav
64,192,31329,1,0,0:0:0:70:piano28.ogg
192,192,31523,1,0,0:0:0:70:hithat.ogg
256,192,31716,1,0,0:0:0:70:Bass.wav
320,192,31910,1,0,0:0:0:70:hithat.ogg
192,192,31910,1,0,0:0:0:70:piano23.ogg
64,192,32103,1,0,0:0:0:70:Bass.wav
448,192,32103,1,0,0:0:0:70:piano24.ogg
256,192,32297,1,0,0:0:0:70:hithat.ogg
358,192,32394,1,0,0:0:0:70:piano33.ogg
448,192,32491,1,0,0:0:0:70:Bass.wav
64,192,32491,1,0,0:0:0:70:clap.ogg
320,192,32684,1,0,0:0:0:70:hithat.ogg
192,192,32684,1,0,0:0:0:70:piano24.ogg
64,192,32878,1,0,0:0:0:70:Bass.wav
460,192,32878,1,0,0:0:0:70:piano24.ogg
256,192,33071,1,0,0:0:0:70:hithat.ogg
358,192,33265,1,0,0:0:0:70:Bass.wav
64,192,33458,1,0,0:0:0:70:hithat.ogg
448,192,33458,1,0,0:0:0:70:piano23.ogg
320,192,33652,1,0,0:0:0:70:Bass.wav
460,192,33652,1,0,0:0:0:70:piano26.ogg
256,192,33845,1,0,0:0:0:70:hithat.ogg
192,192,33942,1,0,0:0:0:70:piano27.ogg
51,192,34039,1,0,0:0:0:70:clap.ogg
256,192,34232,1,0,0:0:0:70:Bass.wav
64,192,34232,1,0,0:0:0:70:hithat.ogg
460,192,34232,1,0,0:0:0:70:piano23.ogg
153,192,34426,1,0,0:0:0:70:Bass.wav
448,192,34426,1,0,0:0:0:70:cymbol.wav
64,192,34426,1,0,0:0:0:70:piano34.ogg
256,192,34620,1,0,0:0:0:70:hithat.ogg
320,192,34716,1,0,0:0:0:70:piano27.ogg
64,192,34813,1,0,0:0:0:70:clap.ogg
448,192,34813,1,0,0:0:0:70:Bass.wav
320,192,35007,1,0,0:0:0:70:hithat.ogg
192,192,35007,1,0,0:0:0:70:piano28.ogg
256,192,35200,1,0,0:0:0:70:Bass.wav
64,192,35200,1,0,0:0:0:70:piano27.ogg
448,192,35200,1,0,0:0:0:70:cymbol.wav
256,192,35394,1,0,0:0:0:70:hithat.ogg
192,192,35491,1,0,0:0:0:70:piano23.ogg
448,192,35587,1,0,0:0:0:70:Bass.wav
64,192,35587,1,0,0:0:0:70:clap.ogg
153,192,35781,1,0,0:0:0:70:hithat.ogg
256,192,35781,1,0,0:0:0:70:piano24.ogg
51,192,35974,1,0,0:0:0:70:Bass.wav
320,192,35974,1,0,0:0:0:70:cymbol.wav
448,192,35974,1,0,0:0:0:70:piano29.ogg
256,192,36168,1,0,0:0:0:70:hithat.ogg
192,192,36265,1,0,0:0:0:70:piano29.ogg
64,192,36361,1,0,0:0:0:70:Bass.wav
320,192,36361,1,0,0:0:0:70:clap.ogg
448,192,36555,1,0,0:0:0:70:hithat.ogg
192,192,36555,1,0,0:0:0:70:piano24.ogg
256,192,36652,1,0,0:0:0:70:bass.ogg
448,192,36749,1,0,0:0:0:70:Bass.wav
64,192,36749,1,0,0:0:0:70:piano24.ogg
320,192,36749,128,0,37523:0:0:0:100:fade-in.wav
192,192,36845,1,0,0:0:0:70:clap.ogg
256,192,36942,1,0,0:0:0:70:hithat.ogg
192,192,37136,1,0,0:0:0:70:clap.ogg
64,192,37136,1,0,0:0:0:70:Bass.wav
256,192,37329,1,0,0:0:0:70:hithat.ogg
448,192,37523,1,0,0:0:0:70:001.ogg
256,192,37523,1,0,0:0:0:70:Bass.wav
64,192,37523,1,0,0:0:0:70:piano26.ogg
64,192,37716,1,0,0:0:0:70:hithat.ogg
192,192,37910,1,0,0:0:0:70:Bass.wav
448,192,37910,1,0,0:0:0:70:piano27.ogg
256,192,38103,1,0,0:0:0:70:hithat.ogg
358,192,38297,1,0,0:0:0:70:Bass.wav
192,192,38297,1,0,0:0:0:70:piano31.ogg
64,192,38491,1,0,0:0:0:70:hithat.ogg
192,192,38587,1,0,0:0:0:70:piano26.ogg
256,192,38684,1,0,0:0:0:70:Bass.wav
448,192,38684,1,0,0:0:0:70:clap.ogg
320,192,38878,1,0,0:0:0:70:hithat.ogg
51,192,38878,1,0,0:0:0:70:piano29.ogg
448,192,39071,1,0,0:0:0:70:Bass.wav
192,192,39071,1,0,0:0:0:70:piano29.ogg
460,192,39265,1,0,0:0:0:70:hithat.ogg
358,192,39361,1,0,0:0:0:70:piano28.ogg
256,192,39458,1,0,0:0:0:70:Bass.wav
192,192,39652,1,0,0:0:0:70:hithat.ogg
448,192,39652,1,0,0:0:0:70:piano33.ogg
64,192,39845,1,0,0:0:0:70:Bass.wav
320,192,39845,1,0,0:0:0:70:piano24.ogg
256,192,39942,1,0,0:0:0:70:clap.ogg
448,192,40039,1,0,0:0:0:70:hithat.ogg
358,192,40103,1,0,0:0:0:10:hithat02.ogg
256,192,40168,1,0,0:0:0:10:hithat02.ogg
153,192,40232,1,0,0:0:0:70:Bass.wav
358,192,40232,1,0,0:0:0:70:clap.ogg
51,192,40329,1,0,0:0:0:10:hithat02.ogg
192,192,40426,1,0,0:0:0:70:hithat.ogg
320,192,40523,1,0,0:0:0:10:hithat02.ogg
64,192,40620,1,0,0:0:0:70:Bass.wav
256,192,40620,1,0,0:0:0:70:cymbol.wav
448,192,40620,1,0,0:0:0:70:piano25.ogg
192,192,40813,1,0,0:0:0:70:hithat.ogg
64,192,41007,1,0,0:0:0:70:Bass.wav
320,192,41007,1,0,0:0:0:70:piano23.ogg
256,192,41200,1,0,0:0:0:70:hithat.ogg
460,192,41394,1,0,0:0:0:70:Bass.wav
192,192,41394,1,0,0:0:0:70:piano24.ogg
64,192,41587,1,0,0:0:0:70:hithat.ogg
192,192,41684,1,0,0:0:0:70:piano25.ogg
256,192,41781,1,0,0:0:0:70:Bass.wav
448,192,41781,1,0,0:0:0:70:clap.ogg
320,192,41974,1,0,0:0:0:70:hithat.ogg
153,192,41974,1,0,0:0:0:70:piano30.ogg
448,192,42168,1,0,0:0:0:70:Bass.wav
358,192,42168,1,0,0:0:0:70:cymbol.wav
64,192,42168,1,0,0:0:0:70:piano31.ogg
320,192,42361,1,0,0:0:0:70:hithat.ogg
192,192,42458,1,0,0:0:0:70:piano32.ogg
64,192,42555,1,0,0:0:0:70:Bass.wav
256,192,42749,1,0,0:0:0:70:hithat.ogg
320,192,42749,1,0,0:0:0:70:piano29.ogg
192,192,42942,1,0,0:0:0:70:Bass.wav
358,192,42942,1,0,0:0:0:70:piano32.ogg
51,192,42942,128,0,43716:0:0:0:100:fade-in.wav
256,192,43039,1,0,0:0:0:70:clap.ogg
358,192,43136,1,0,0:0:0:70:hithat.ogg
460,192,43329,1,0,0:0:0:70:Bass.wav
153,192,43329,1,0,0:0:0:70:clap.ogg
256,192,43523,1,0,0:0:0:70:hithat.ogg
358,192,43716,1,0,0:0:0:70:Bass.wav
460,192,43716,1,0,0:0:0:70:001.ogg
192,192,43716,1,0,0:0:0:70:piano32.ogg
256,192,43910,1,0,0:0:0:70:hithat.ogg
320,192,44103,1,0,0:0:0:70:Bass.wav
448,192,44103,1,0,0:0:0:70:piano27.ogg
256,192,44297,1,0,0:0:0:70:hithat.ogg
192,192,44491,1,0,0:0:0:70:Bass.wav
51,192,44491,1,0,0:0:0:70:piano31.ogg
256,192,44684,1,0,0:0:0:70:hithat.ogg
358,192,44781,1,0,0:0:0:70:piano32.ogg
51,192,44878,1,0,0:0:0:60:clap.ogg
460,192,44878,1,0,0:0:0:70:Bass.wav
153,192,45071,1,0,0:0:0:70:hithat.ogg
320,192,45071,1,0,0:0:0:70:piano25.ogg
448,192,45265,1,0,0:0:0:70:Bass.wav
256,192,45265,1,0,0:0:0:70:cymbol.wav
64,192,45265,1,0,0:0:0:70:piano24.ogg
256,192,45458,1,0,0:0:0:70:hithat.ogg
192,192,45555,1,0,0:0:0:70:piano29.ogg
64,192,45652,1,0,0:0:0:70:clap.ogg
448,192,45652,1,0,0:0:0:70:Bass.wav
192,192,45845,1,0,0:0:0:70:hithat.ogg
358,192,45845,1,0,0:0:0:70:piano26.ogg
256,192,46039,1,0,0:0:0:70:cymbol.wav
448,192,46039,1,0,0:0:0:70:piano29.ogg
64,192,46039,1,0,0:0:0:70:Bass.wav
192,192,46136,1,0,0:0:0:70:clap.ogg
320,192,46232,1,0,0:0:0:70:hithat.ogg
256,192,46329,1,0,0:0:0:70:bass.ogg
448,192,46426,1,0,0:0:0:70:clap.ogg
192,192,46426,1,0,0:0:0:70:piano31.ogg
64,192,46426,1,0,0:0:0:70:Bass.wav
320,192,46620,1,0,0:0:0:70:hithat.ogg
256,192,46620,1,0,0:0:0:70:Bass.wav
153,192,46620,1,0,0:0:0:70:piano30.ogg
64,192,46813,1,0,0:0:0:70:piano36.ogg
358,192,46813,1,0,0:0:0:70:Bass.wav
460,192,46813,1,0,0:0:0:70:cymbol.wav
448,192,47007,1,0,0:0:0:70:hithat.ogg
320,192,47103,1,0,0:0:0:70:piano31.ogg
256,192,47200,1,0,0:0:0:70:Bass.wav
64,192,47200,1,0,0:0:0:70:clap.ogg
192,192,47394,1,0,0:0:0:70:hithat.ogg
320,192,47394,1,0,0:0:0:70:piano30.ogg
256,192,47587,1,0,0:0:0:70:Bass.wav
448,192,47587,1,0,0:0:0:70:piano36.ogg
51,192,47684,1,0,0:0:0:10:hihat.wav
153,192,47781,1,0,0:0:0:70:hithat.ogg
256,192,47878,1,0,0:0:0:70:piano37.ogg
358,192,47974,1,0,0:0:0:70:Bass.wav
460,192,48071,1,0,0:0:0:10:hihat.wav
320,192,48168,1,0,0:0:0:70:hithat.ogg
153,192,48168,1,0,0:0:0:70:piano38.ogg
256,192,48265,1,0,0:0:0:10:hihat.wav
64,192,48361,1,0,0:0:0:70:G01.ogg
448,192,48361,1,0,0:0:0:70:piano38.ogg
153,192,48361,1,0,0:0:0:40:cymbol.wav
358,192,48361,1,0,0:0:0:10:hihat.wav
460,192,48652,1,0,0:0:0:70:G01.ogg
256,192,48652,1,0,0:0:0:70:piano38.ogg
64,192,48652,1,0,0:0:0:40:cymbol.wav
358,192,48942,1,0,0:0:0:40:cymbol.wav
192,192,48942,1,0,0:0:0:70:G01.ogg
51,192,48942,1,0,0:0:0:70:piano37.ogg
460,192,48942,1,0,0:0:0:10:hihat.wav
256,192,49136,128,0,49910:0:0:0:100:fade-in.wav
358,192,49136,1,0,0:0:0:10:hihat.wav
153,192,49136,1,0,0:0:0:10:hihat.wav
320,192,49910,1,0,0:0:0:70:Bass.wav
192,192,49910,1,0,0:0:0:70:002.ogg
448,192,49910,128,0,51458:0:0:0:40:G05.ogg
51,192,50103,1,0,0:0:0:70:hithat.ogg
153,192,50200,1,0,0:0:0:8:hihat.wav
256,192,50297,1,0,0:0:0:70:Bass.wav
64,192,50297,1,0,0:0:0:70:clap.ogg
320,192,50394,1,0,0:0:0:8:hihat.wav
256,192,50491,1,0,0:0:0:70:hithat.ogg
153,192,50587,1,0,0:0:0:8:hihat.wav
51,192,50684,1,0,0:0:0:70:Bass.wav
153,192,50781,1,0,0:0:0:8:hihat.wav
256,192,50878,1,0,0:0:0:70:hithat.ogg
192,192,50974,1,0,0:0:0:8:hihat.wav
320,192,51071,1,0,0:0:0:70:Bass.wav
64,192,51071,1,0,0:0:0:70:clap.ogg
192,192,51168,1,0,0:0:0:8:hihat.wav
256,192,51265,1,0,0:0:0:70:hithat.ogg
192,192,51361,1,0,0:0:0:8:hihat.wav
320,192,51458,1,0,0:0:0:70:Bass.wav
64,192,51458,128,0,53007:0:0:0:40:G06.ogg
256,192,51458,1,0,0:0:0:70:hihat.wav
153,192,51555,1,0,0:0:0:8:hihat.wav
256,192,51652,1,0,0:0:0:70:hithat.ogg
358,192,51749,1,0,0:0:0:8:hihat.wav
256,192,51845,1,0,0:0:0:70:Bass.wav
448,192,51845,1,0,0:0:0:70:clap.ogg
192,192,51942,1,0,0:0:0:8:hihat.wav
320,192,52039,1,0,0:0:0:70:hithat.ogg
256,192,52136,1,0,0:0:0:8:hihat.wav
153,192,52232,1,0,0:0:0:70:Bass.wav
256,192,52329,1,0,0:0:0:8:hihat.wav
460,192,52426,1,0,0:0:0:70:hithat.ogg
320,192,52523,1,0,0:0:0:8:hihat.wav
256,192,52620,1,0,0:0:0:70:Bass.wav
192,192,52620,1,0,0:0:0:70:clap.ogg
320,192,52716,1,0,0:0:0:8:hihat.wav
460,192,52813,1,0,0:0:0:70:hithat.ogg
320,192,52910,1,0,0:0:0:8:hihat.wav
448,192,53007,1,0,0:0:0:70:Bass.wav
192,192,53007,128,0,54555:0:0:0:40:G07.ogg
256,192,53007,1,0,0:0:0:70:hihat.wav
358,192,53103,1,0,0:0:0:8:hihat.wav
256,192,53200,1,0,0:0:0:70:hithat.ogg
51,192,53297,1,0,0:0:0:8:hihat.wav
256,192,53394,1,0,0:0:0:70:Bass.wav
448,192,53394,1,0,0:0:0:70:clap.ogg
320,192,53491,1,0,0:0:0:8:hihat.wav
256,192,53587,1,0,0:0:0:70:hithat.ogg
358,192,53684,1,0,0:0:0:8:hihat.wav
460,192,53781,1,0,0:0:0:70:Bass.wav
64,192,53878,1,0,0:0:0:8:hihat.wav
256,192,53974,1,0,0:0:0:70:hithat.ogg
64,192,54071,1,0,0:0:0:8:hihat.wav
256,192,54168,1,0,0:0:0:70:Bass.wav
448,192,54168,1,0,0:0:0:70:clap.ogg
64,192,54265,1,0,0:0:0:8:hihat.wav
448,192,54361,1,0,0:0:0:70:hithat.ogg
320,192,54458,1,0,0:0:0:8:hihat.wav
64,192,54555,1,0,0:0:0:70:Bass.wav
256,192,54555,128,0,55329:0:0:0:40:G08.ogg
320,192,54652,1,0,0:0:0:8:hihat.wav
64,192,54749,1,0,0:0:0:70:hithat.ogg
192,192,54845,1,0,0:0:0:8:hihat.wav
192,192,54942,1,0,0:0:0:70:Bass.wav
320,192,54942,1,0,0:0:0:70:clap.ogg
64,192,54942,1,0,0:0:0:70:cymbol.wav
460,192,55039,1,0,0:0:0:8:hihat.wav
64,192,55136,1,0,0:0:0:70:hithat.ogg
192,192,55232,1,0,0:0:0:8:hihat.wav
320,192,55329,1,0,0:0:0:70:Bass.wav
64,192,55329,128,0,56103:0:0:0:40:G09.ogg
448,192,55426,1,0,0:0:0:8:hihat.wav
192,192,55523,1,0,0:0:0:70:hithat.ogg
448,192,55620,1,0,0:0:0:70:Bass.wav
320,192,55620,1,0,0:0:0:8:hihat.wav
448,192,55716,1,0,0:0:0:70:Bass.wav
192,192,55716,1,0,0:0:0:70:clap.ogg
256,192,55716,1,0,0:0:0:70:cymbol.wav
320,192,55813,1,0,0:0:0:8:hihat.wav
256,192,55910,1,0,0:0:0:70:hithat.ogg
320,192,56007,1,0,0:0:0:8:hihat.wav
192,192,56103,1,0,0:0:0:70:Bass.wav
256,192,56103,128,0,57652:0:0:0:40:G10.ogg
460,192,56200,1,0,0:0:0:8:hihat.wav
320,192,56297,1,0,0:0:0:70:hithat.ogg
192,192,56394,1,0,0:0:0:8:hihat.wav
64,192,56491,1,0,0:0:0:70:Bass.wav
320,192,56491,1,0,0:0:0:70:clap.ogg
192,192,56587,1,0,0:0:0:8:hihat.wav
320,192,56684,1,0,0:0:0:70:hithat.ogg
460,192,56781,1,0,0:0:0:8:hihat.wav
192,192,56878,1,0,0:0:0:70:Bass.wav
320,192,56974,1,0,0:0:0:8:hihat.wav
64,192,57071,1,0,0:0:0:70:hithat.ogg
192,192,57168,1,0,0:0:0:8:hihat.wav
460,192,57265,1,0,0:0:0:70:Bass.wav
320,192,57265,1,0,0:0:0:70:clap.ogg
192,192,57361,1,0,0:0:0:8:hihat.wav
320,192,57458,1,0,0:0:0:70:hithat.ogg
51,192,57555,1,0,0:0:0:8:hihat.wav
320,192,57652,1,0,0:0:0:70:Bass.wav
460,192,57652,128,0,59200:0:0:0:40:G14.ogg
192,192,57652,1,0,0:0:0:70:hihat.wav
51,192,57749,1,0,0:0:0:8:hihat.wav
153,192,57845,1,0,0:0:0:70:hithat.ogg
256,192,57942,1,0,0:0:0:8:hihat.wav
51,192,58039,1,0,0:0:0:70:Bass.wav
320,192,58039,1,0,0:0:0:70:clap.ogg
192,192,58136,1,0,0:0:0:8:hihat.wav
256,192,58232,1,0,0:0:0:70:hithat.ogg
358,192,58329,1,0,0:0:0:8:hihat.wav
256,192,58426,1,0,0:0:0:70:Bass.wav
192,192,58523,1,0,0:0:0:8:hihat.wav
51,192,58620,1,0,0:0:0:70:hithat.ogg
320,192,58716,1,0,0:0:0:8:hihat.wav
256,192,58813,1,0,0:0:0:70:Bass.wav
192,192,58813,1,0,0:0:0:70:clap.ogg
358,192,58910,1,0,0:0:0:8:hihat.wav
192,192,59007,1,0,0:0:0:70:hithat.ogg
51,192,59007,1,0,0:0:0:70:Bass.wav
256,192,59103,1,0,0:0:0:8:hihat.wav
51,192,59200,1,0,0:0:0:70:Bass.wav
192,192,59200,128,0,60749:0:0:0:40:G07.ogg
320,192,59200,1,0,0:0:0:70:hihat.wav
256,192,59297,1,0,0:0:0:8:hihat.wav
64,192,59394,1,0,0:0:0:70:hithat.ogg
256,192,59491,1,0,0:0:0:8:hihat.wav
51,192,59587,1,0,0:0:0:70:Bass.wav
448,192,59587,1,0,0:0:0:70:clap.ogg
256,192,59684,1,0,0:0:0:8:hihat.wav
358,192,59781,1,0,0:0:0:70:hithat.ogg
256,192,59878,1,0,0:0:0:8:hihat.wav
358,192,59974,1,0,0:0:0:70:Bass.wav
64,192,60071,1,0,0:0:0:8:hihat.wav
460,192,60168,1,0,0:0:0:70:hithat.ogg
320,192,60265,1,0,0:0:0:8:hihat.wav
460,192,60361,1,0,0:0:0:70:Bass.wav
64,192,60361,1,0,0:0:0:70:clap.ogg
320,192,60458,1,0,0:0:0:8:hihat.wav
256,192,60555,1,0,0:0:0:70:hithat.ogg
64,192,60652,1,0,0:0:0:8:hihat.wav
448,192,60749,1,0,0:0:0:70:Bass.wav
320,192,60749,128,0,61523:0:0:0:40:G02.ogg
256,192,60845,1,0,0:0:0:8:hihat.wav
460,192,60942,1,0,0:0:0:70:hithat.ogg
153,192,61039,1,0,0:0:0:8:hihat.wav
256,192,61136,1,0,0:0:0:70:cymbol.wav
64,192,61136,1,0,0:0:0:70:Bass.wav
448,192,61136,1,0,0:0:0:70:clap.ogg
192,192,61232,1,0,0:0:0:8:hihat.wav
256,192,61329,1,0,0:0:0:70:hithat.ogg
460,192,61426,1,0,0:0:0:8:hihat.wav
192,192,61523,128,0,62297:0:0:0:40:G03.ogg
256,192,61523,128,0,62297:0:0:0:100:fade-in.wav
64,192,61523,1,0,0:0:0:70:bass.ogg
460,192,61620,1,0,0:0:0:8:hihat.wav
64,192,61716,1,0,0:0:0:70:hithat.ogg
320,192,61813,1,0,0:0:0:70:hihat.wav
64,192,61910,1,0,0:0:0:70:clap.ogg
460,192,61910,1,0,0:0:0:70:Bass.wav
358,192,62007,1,0,0:0:0:70:Bass.wav
64,192,62103,1,0,0:0:0:70:hithat.ogg
460,192,62103,1,0,0:0:0:70:Bass.wav
320,192,62200,1,0,0:0:0:70:Bass.wav
460,192,62297,1,0,0:0:0:70:Bass.wav
64,192,62297,128,0,63845:0:0:0:40:G10.ogg
358,192,62297,1,0,0:0:0:10:hihat.wav
320,192,62491,1,0,0:0:0:70:hithat.ogg
256,192,62587,1,0,0:0:0:8:hihat.wav
320,192,62684,1,0,0:0:0:70:Bass.wav
153,192,62684,1,0,0:0:0:70:clap.ogg
256,192,62781,1,0,0:0:0:8:hihat.wav
320,192,62878,1,0,0:0:0:70:hithat.ogg
448,192,62974,1,0,0:0:0:8:hihat.wav
320,192,63071,1,0,0:0:0:70:Bass.wav
256,192,63168,1,0,0:0:0:8:hihat.wav
192,192,63265,1,0,0:0:0:70:hithat.ogg
256,192,63361,1,0,0:0:0:8:hihat.wav
358,192,63458,1,0,0:0:0:70:clap.ogg
460,192,63458,1,0,0:0:0:70:Bass.wav
256,192,63555,1,0,0:0:0:8:hihat.wav
192,192,63652,1,0,0:0:0:70:hithat.ogg
256,192,63749,1,0,0:0:0:8:hihat.wav
460,192,63845,1,0,0:0:0:70:Bass.wav
153,192,63845,128,0,65394:0:0:0:40:G06.ogg
320,192,63845,1,0,0:0:0:70:hihat.wav
256,192,63942,1,0,0:0:0:8:hihat.wav
64,192,64039,1,0,0:0:0:70:hithat.ogg
320,192,64136,1,0,0:0:0:8:hihat.wav
460,192,64232,1,0,0:0:0:70:clap.ogg
64,192,64232,1,0,0:0:0:70:Bass.wav
320,192,64329,1,0,0:0:0:8:hihat.wav
51,192,64426,1,0,0:0:0:70:hithat.ogg
320,192,64523,1,0,0:0:0:8:hihat.wav
460,192,64620,1,0,0:0:0:70:Bass.wav
256,192,64716,1,0,0:0:0:8:hihat.wav
460,192,64813,1,0,0:0:0:70:hithat.ogg
320,192,64910,1,0,0:0:0:8:hihat.wav
64,192,65007,1,0,0:0:0:70:Bass.wav
256,192,65007,1,0,0:0:0:70:clap.ogg
320,192,65103,1,0,0:0:0:8:hihat.wav
460,192,65200,1,0,0:0:0:70:hithat.ogg
256,192,65297,1,0,0:0:0:8:hihat.wav
51,192,65394,1,0,0:0:0:70:Bass.wav
358,192,65394,128,0,66942:0:0:0:40:G07.ogg
460,192,65394,1,0,0:0:0:70:hihat.wav
256,192,65491,1,0,0:0:0:8:hihat.wav
448,192,65587,1,0,0:0:0:70:hithat.ogg
192,192,65684,1,0,0:0:0:8:hihat.wav
51,192,65781,1,0,0:0:0:70:Bass.wav
448,192,65781,1,0,0:0:0:70:clap.ogg
153,192,65878,1,0,0:0:0:8:hihat.wav
256,192,65974,1,0,0:0:0:70:hithat.ogg
448,192,66071,1,0,0:0:0:8:hihat.wav
256,192,66168,1,0,0:0:0:70:Bass.wav
153,192,66265,1,0,0:0:0:8:hihat.wav
51,192,66361,1,0,0:0:0:70:hithat.ogg
153,192,66458,1,0,0:0:0:8:hihat.wav
256,192,66555,1,0,0:0:0:70:clap.ogg
448,192,66555,1,0,0:0:0:70:Bass.wav
51,192,66652,1,0,0:0:0:8:hihat.wav
448,192,66749,1,0,0:0:0:70:hithat.ogg
192,192,66845,1,0,0:0:0:8:hihat.wav
448,192,66942,1,0,0:0:0:70:Bass.wav
256,192,66942,128,0,67716:0:0:0:40:G08.ogg
51,192,67039,1,0,0:0:0:8:hihat.wav
153,192,67136,1,0,0:0:0:70:hithat.ogg
358,192,67232,1,0,0:0:0:8:hihat.wav
192,192,67329,1,0,0:0:0:70:cymbol.wav
64,192,67329,1,0,0:0:0:70:clap.ogg
448,192,67329,1,0,0:0:0:70:Bass.wav
358,192,67426,1,0,0:0:0:8:hihat.wav
460,192,67523,1,0,0:0:0:70:hithat.ogg
51,192,67620,1,0,0:0:0:8:hihat.wav
448,192,67716,1,0,0:0:0:70:Bass.wav
192,192,67716,128,0,68491:0:0:0:40:G09.ogg
320,192,67813,1,0,0:0:0:8:hihat.wav
256,192,67910,1,0,0:0:0:70:hithat.ogg
51,192,68007,1,0,0:0:0:8:hihat.wav
460,192,68007,1,0,0:0:0:70:Bass.wav
256,192,68103,1,0,0:0:0:70:clap.ogg
460,192,68103,1,0,0:0:0:70:Bass.wav
64,192,68103,1,0,0:0:0:70:cymbol.wav
358,192,68200,1,0,0:0:0:8:hihat.wav
256,192,68297,1,0,0:0:0:70:hithat.ogg
448,192,68394,1,0,0:0:0:8:hihat.wav
320,192,68491,1,0,0:0:0:70:Bass.wav
64,192,68491,128,0,70039:0:0:0:40:G10.ogg
256,192,68587,1,0,0:0:0:8:hihat.wav
153,192,68684,1,0,0:0:0:70:hithat.ogg
256,192,68781,1,0,0:0:0:8:hihat.wav
153,192,68878,1,0,0:0:0:70:clap.ogg
320,192,68878,1,0,0:0:0:70:Bass.wav
256,192,68974,1,0,0:0:0:8:hihat.wav
320,192,69071,1,0,0:0:0:70:hithat.ogg
448,192,69168,1,0,0:0:0:8:hihat.wav
153,192,69265,1,0,0:0:0:70:Bass.wav
256,192,69361,1,0,0:0:0:8:hihat.wav
358,192,69458,1,0,0:0:0:70:hithat.ogg
460,192,69555,1,0,0:0:0:8:hihat.wav
192,192,69652,1,0,0:0:0:70:Bass.wav
358,192,69652,1,0,0:0:0:70:clap.ogg
256,192,69749,1,0,0:0:0:8:hihat.wav
192,192,69845,1,0,0:0:0:70:hithat.ogg
320,192,69942,1,0,0:0:0:8:hihat.wav
192,192,70039,1,0,0:0:0:70:Bass.wav
448,192,70039,128,0,71587:0:0:0:40:G14.ogg
256,192,70039,1,0,0:0:0:70:hihat.wav
64,192,70136,1,0,0:0:0:8:hihat.wav
256,192,70232,1,0,0:0:0:70:hithat.ogg
320,192,70329,1,0,0:0:0:8:hihat.wav
192,192,70426,1,0,0:0:0:70:clap.ogg
64,192,70426,1,0,0:0:0:70:Bass.wav
320,192,70523,1,0,0:0:0:8:hihat.wav
192,192,70620,1,0,0:0:0:70:hithat.ogg
256,192,70716,1,0,0:0:0:8:hihat.wav
192,192,70813,1,0,0:0:0:70:Bass.wav
320,192,70910,1,0,0:0:0:8:hihat.wav
64,192,71007,1,0,0:0:0:70:hithat.ogg
192,192,71103,1,0,0:0:0:8:hihat.wav
320,192,71200,1,0,0:0:0:70:Bass.wav
256,192,71200,1,0,0:0:0:70:clap.ogg
192,192,71297,1,0,0:0:0:8:hihat.wav
64,192,71394,1,0,0:0:0:70:hithat.ogg
358,192,71491,1,0,0:0:0:8:hihat.wav
64,192,71587,1,0,0:0:0:70:Bass.wav
256,192,71587,128,0,73136:0:0:0:40:G07.ogg
192,192,71587,1,0,0:0:0:70:hihat.wav
358,192,71684,1,0,0:0:0:8:hihat.wav
192,192,71781,1,0,0:0:0:70:hithat.ogg
64,192,71878,1,0,0:0:0:8:hihat.wav
192,192,71974,1,0,0:0:0:70:Bass.wav
358,192,71974,1,0,0:0:0:70:clap.ogg
64,192,72071,1,0,0:0:0:8:hihat.wav
460,192,72168,1,0,0:0:0:70:hithat.ogg
358,192,72265,1,0,0:0:0:8:hihat.wav
192,192,72361,1,0,0:0:0:70:Bass.wav
51,192,72458,1,0,0:0:0:8:hihat.wav
153,192,72555,1,0,0:0:0:70:hithat.ogg
358,192,72652,1,0,0:0:0:8:hihat.wav
64,192,72749,1,0,0:0:0:70:clap.ogg
448,192,72749,1,0,0:0:0:70:Bass.wav
192,192,72845,1,0,0:0:0:8:hihat.wav
358,192,72942,1,0,0:0:0:70:hithat.ogg
460,192,73039,1,0,0:0:0:8:hihat.wav
192,192,73136,1,0,0:0:0:70:Bass.wav
64,192,73136,128,0,73910:0:0:0:40:G02.ogg
448,192,73232,1,0,0:0:0:8:hihat.wav
320,192,73329,1,0,0:0:0:70:hithat.ogg
256,192,73426,1,0,0:0:0:8:hihat.wav
192,192,73523,1,0,0:0:0:70:clap.ogg
320,192,73523,1,0,0:0:0:70:Bass.wav
448,192,73523,1,0,0:0:0:70:cymbol.wav
256,192,73620,1,0,0:0:0:8:hihat.wav
192,192,73716,1,0,0:0:0:70:hithat.ogg
358,192,73813,1,0,0:0:0:8:hihat.wav
448,192,73910,128,0,74684:0:0:0:100:fade-in.wav
192,192,73910,128,0,74684:0:0:0:40:G03.ogg
256,192,73910,1,0,0:0:0:70:Bass.wav
358,192,74007,1,0,0:0:0:8:hihat.wav
256,192,74103,1,0,0:0:0:70:hithat.ogg
358,192,74200,1,0,0:0:0:8:hihat.wav
51,192,74297,1,0,0:0:0:70:clap.ogg
256,192,74297,1,0,0:0:0:70:Bass.wav
358,192,74394,1,0,0:0:0:8:hihat.wav
256,192,74491,1,0,0:0:0:70:hithat.ogg
64,192,74587,1,0,0:0:0:8:hihat.wav
256,192,74684,1,0,0:0:0:70:Bass.wav
320,192,74684,128,0,75458:0:0:0:40:G11.ogg
448,192,74878,1,0,0:0:0:70:hithat.ogg
256,192,74974,1,0,0:0:0:8:hihat.wav
448,192,75071,1,0,0:0:0:70:clap.ogg
192,192,75071,1,0,0:0:0:70:Bass.wav
64,192,75168,1,0,0:0:0:8:hihat.wav
192,192,75265,1,0,0:0:0:70:hithat.ogg
64,192,75361,1,0,0:0:0:8:hihat.wav
256,192,75458,1,0,0:0:0:70:Bass.wav
192,192,75458,128,0,76232:0:0:0:40:G12.ogg
51,192,75555,1,0,0:0:0:8:hihat.wav
448,192,75652,1,0,0:0:0:70:hithat.ogg
320,192,75749,1,0,0:0:0:8:hihat.wav
64,192,75845,1,0,0:0:0:70:Bass.wav
256,192,75845,1,0,0:0:0:70:clap.ogg
460,192,75942,1,0,0:0:0:8:hihat.wav
358,192,76039,1,0,0:0:0:70:hithat.ogg
256,192,76136,1,0,0:0:0:8:hihat.wav
358,192,76232,1,0,0:0:0:70:Bass.wav
64,192,76232,128,0,77781:0:0:0:40:G13.ogg
460,192,76232,128,0,77781:0:0:0:10:hihat.wav
256,192,76329,1,0,0:0:0:8:hihat.wav
320,192,76426,1,0,0:0:0:70:hithat.ogg
192,192,76523,1,0,0:0:0:8:hihat.wav
256,192,76620,1,0,0:0:0:70:clap.ogg
358,192,76620,1,0,0:0:0:70:Bass.wav
192,192,76716,1,0,0:0:0:8:hihat.wav
256,192,76813,1,0,0:0:0:70:hithat.ogg
358,192,76910,1,0,0:0:0:8:hihat.wav
256,192,77007,1,0,0:0:0:70:cymbol.wav
192,192,77007,1,0,0:0:0:70:Bass.wav
320,192,77103,1,0,0:0:0:8:hihat.wav
256,192,77200,1,0,0:0:0:70:hithat.ogg
153,192,77200,1,0,0:0:0:70:bass.ogg
320,192,77297,1,0,0:0:0:8:hihat.wav
256,192,77297,1,0,0:0:0:70:bass.ogg
256,192,77394,1,0,0:0:0:70:Bass.wav
192,192,77394,1,0,0:0:0:70:clap.ogg
320,192,77394,1,0,0:0:0:70:cymbol.wav
153,192,77491,1,0,0:0:0:8:hihat.wav
358,192,77587,1,0,0:0:0:70:hithat.ogg
256,192,77684,1,0,0:0:0:8:hihat.wav
256,192,77781,1,0,0:0:0:70:001.ogg
192,192,77781,1,0,0:0:0:70:002.ogg
358,192,77781,1,0,0:0:0:70:Bass.wav
64,192,77974,1,0,0:0:0:70:hithat.ogg
256,192,78168,1,0,0:0:0:70:Bass.wav
460,192,78168,1,0,0:0:0:10:hihat.wav
192,192,78361,1,0,0:0:0:70:hithat.ogg
320,192,78555,1,0,0:0:0:70:Bass.wav
51,192,78555,1,0,0:0:0:10:hihat.wav
256,192,78749,1,0,0:0:0:70:hithat.ogg
448,192,78942,1,0,0:0:0:70:Bass.wav
358,192,78942,1,0,0:0:0:10:hihat.wav
153,192,79136,1,0,0:0:0:70:hithat.ogg
320,192,79329,1,0,0:0:0:70:Bass.wav
51,192,79329,1,0,0:0:0:10:hihat.wav
192,192,79523,1,0,0:0:0:70:hithat.ogg
256,192,79716,1,0,0:0:0:70:Bass.wav
460,192,79716,1,0,0:0:0:10:hihat.wav
358,192,79910,1,0,0:0:0:70:hithat.ogg
192,192,80103,1,0,0:0:0:70:Bass.wav
256,192,80168,1,0,0:0:0:10:hithat02.ogg
358,192,80232,1,0,0:0:0:10:hithat02.ogg
64,192,80297,1,0,0:0:0:70:hithat.ogg
192,192,80361,1,0,0:0:0:10:hithat02.ogg
256,192,80426,1,0,0:0:0:10:hithat02.ogg
358,192,80491,1,0,0:0:0:70:Bass.wav
460,192,80555,1,0,0:0:0:10:hithat02.ogg
320,192,80620,1,0,0:0:0:10:hithat02.ogg
192,192,80684,1,0,0:0:0:70:hithat.ogg
64,192,80878,1,0,0:0:0:70:Bass.wav
448,192,80878,1,0,0:0:0:70:cymbol.wav
320,192,80878,1,0,0:0:0:70:hihat.wav
256,192,81071,1,0,0:0:0:70:hithat.ogg
64,192,81265,1,0,0:0:0:70:Bass.wav
153,192,81265,1,0,0:0:0:10:hihat.wav
256,192,81458,1,0,0:0:0:70:hithat.ogg
448,192,81652,1,0,0:0:0:70:Bass.wav
358,192,81652,1,0,0:0:0:10:hihat.wav
192,192,81845,1,0,0:0:0:70:hithat.ogg
64,192,82039,1,0,0:0:0:70:Bass.wav
460,192,82039,1,0,0:0:0:10:hihat.wav
256,192,82232,1,0,0:0:0:70:hithat.ogg
448,192,82426,1,0,0:0:0:70:Bass.wav
153,192,82426,1,0,0:0:0:10:hihat.wav
64,192,82620,1,0,0:0:0:70:hithat.ogg
358,192,82813,1,0,0:0:0:70:Bass.wav
256,192,82813,1,0,0:0:0:10:hihat.wav
153,192,83007,1,0,0:0:0:70:hithat.ogg
256,192,83200,1,0,0:0:0:70:Bass.wav
192,192,83265,1,0,0:0:0:10:hithat02.ogg
256,192,83329,1,0,0:0:0:10:hithat02.ogg
358,192,83394,1,0,0:0:0:70:hithat.ogg
256,192,83458,1,0,0:0:0:10:hithat02.ogg
153,192,83523,1,0,0:0:0:10:hithat02.ogg
256,192,83587,1,0,0:0:0:70:Bass.wav
320,192,83652,1,0,0:0:0:10:hithat02.ogg
256,192,83716,1,0,0:0:0:10:hithat02.ogg
448,192,83781,1,0,0:0:0:70:hithat.ogg
64,192,83974,1,0,0:0:0:70:hihat.wav
448,192,83974,1,0,0:0:0:70:Bass.wav
192,192,84071,1,0,0:0:0:70:hihat.wav
320,192,84168,1,0,0:0:0:70:hihat.wav
256,192,84265,1,0,0:0:0:70:hihat.wav
320,192,84361,1,0,0:0:0:70:cymbol.wav
192,192,84361,1,0,0:0:0:70:001.ogg
64,192,84361,128,0,89394:0:0:0:40:G04.ogg
448,192,84361,128,0,87071:0:0:0:20:003.ogg
256,192,84361,1,0,0:0:0:10:hihat.wav
