osu file format v12

[General]
AudioFilename: fripside - black bullet.mp3
AudioLeadIn: 0
PreviewTime: 49523
Countdown: 0
SampleSet: None
StackLeniency: 0.7
Mode: 3
LetterboxInBreaks: 0
SpecialStyle: 0
WidescreenStoryboard: 1

[Editor]
DistanceSpacing: 0.9
BeatDivisor: 4
GridSize: 8
TimelineZoom: 1

[Metadata]
Title:black bullet (TV Size)
TitleUnicode:black bullet (TV Size)
Artist:fripSide
ArtistUnicode:fripSide
Creator:vocaloid1anime2
Version:4K NM
Source:ブラック・ブレット
Tags:OP Anime Shinnzan [Shana_Lesus] NaxelCL Kuo_Kyoka
BeatmapID:429271
BeatmapSetID:173360

[Difficulty]
HPDrainRate:7
CircleSize:4
OverallDifficulty:8
ApproachRate:5
SliderMultiplier:1.4
SliderTickRate:1

[Events]
//Background and Video events
0,0,"45464564_5622658.jpg",0,0
//Break Periods
//Storyboard Layer 0 (Background)
//Storyboard Layer 1 (Fail)
//Storyboard Layer 2 (Pass)
//Storyboard Layer 3 (Foreground)
//Storyboard Sound Samples
Sample,362,0,"Bass.wav",70
Sample,555,0,"hithat.ogg",70
Sample,749,0,"Bass.wav",70
Sample,942,0,"hithat.ogg",70
Sample,1136,0,"Bass.wav",70
Sample,1329,0,"hithat.ogg",70
Sample,1523,0,"Bass.wav",70
Sample,1716,0,"hithat.ogg",70
Sample,1910,0,"Bass.wav",70
Sample,2103,0,"hithat.ogg",70
Sample,2297,0,"Bass.wav",70
Sample,2491,0,"hithat.ogg",70
Sample,2684,0,"Bass.wav",70
Sample,2684,0,"hithat02.ogg",10
Sample,2749,0,"hithat02.ogg",10
Sample,2813,0,"hithat02.ogg",10
Sample,2878,0,"hithat.ogg",70
Sample,2878,0,"hithat02.ogg",10
Sample,2942,0,"hithat02.ogg",10
Sample,3007,0,"hithat02.ogg",10
Sample,3071,0,"hithat02.ogg",10
Sample,3071,0,"Bass.wav",70
Sample,3265,0,"hithat.ogg",70
Sample,3458,0,"Bass.wav",70
Sample,3652,0,"hithat.ogg",70
Sample,3845,0,"Bass.wav",70
Sample,4039,0,"hithat.ogg",70
Sample,4426,0,"hithat.ogg",70
Sample,4620,0,"Bass.wav",70
Sample,6555,0,"002.ogg",70
Sample,8878,0,"hithat02.ogg",10
Sample,8942,0,"hithat02.ogg",10
Sample,9007,0,"hithat02.ogg",10
Sample,9071,0,"hithat02.ogg",10
Sample,9136,0,"hithat02.ogg",10
Sample,9200,0,"hithat02.ogg",10
Sample,9265,0,"hithat02.ogg",10
Sample,9329,0,"hithat02.ogg",10
Sample,9394,0,"hithat02.ogg",10
Sample,9458,0,"hithat02.ogg",10
Sample,9523,0,"hithat02.ogg",10
Sample,9587,0,"hithat02.ogg",10
Sample,9652,0,"hithat02.ogg",10
Sample,11974,0,"hithat02.ogg",10
Sample,12039,0,"hithat02.ogg",10
Sample,12103,0,"hithat02.ogg",10
Sample,12168,0,"hithat02.ogg",10
Sample,12232,0,"hithat02.ogg",10
Sample,12297,0,"hithat02.ogg",10
Sample,12361,0,"hithat02.ogg",10
Sample,12426,0,"hithat02.ogg",10
Sample,12491,0,"hithat02.ogg",10
Sample,12555,0,"hithat02.ogg",10
Sample,12942,0,"hithat.ogg",70
Sample,13136,0,"Bass.wav",70
Sample,13329,0,"hithat.ogg",70
Sample,13523,0,"Bass.wav",70
Sample,13716,0,"hithat.ogg",70
Sample,13910,0,"Bass.wav",70
Sample,14103,0,"hithat.ogg",70
Sample,14297,0,"Bass.wav",70
Sample,14491,0,"hithat.ogg",70
Sample,14684,0,"Bass.wav",70
Sample,14878,0,"hithat.ogg",70
Sample,15071,0,"Bass.wav",70
Sample,15265,0,"hithat.ogg",70
Sample,15458,0,"Bass.wav",70
Sample,15652,0,"hithat.ogg",70
Sample,15845,0,"Bass.wav",70
Sample,16039,0,"hithat.ogg",70
Sample,16232,0,"Bass.wav",70
Sample,16426,0,"hithat.ogg",70
Sample,16620,0,"Bass.wav",70
Sample,16813,0,"hithat.ogg",70
Sample,17007,0,"Bass.wav",70
Sample,17200,0,"hithat.ogg",70
Sample,17394,0,"Bass.wav",70
Sample,17587,0,"hithat.ogg",70
Sample,17781,0,"Bass.wav",70
Sample,17974,0,"hithat.ogg",70
Sample,18168,0,"Bass.wav",70
Sample,18168,0,"hithat02.ogg",10
Sample,18232,0,"hithat02.ogg",10
Sample,18297,0,"hithat02.ogg",10
Sample,18361,0,"hithat02.ogg",10
Sample,18361,0,"hithat.ogg",70
Sample,18458,0,"hithat02.ogg",10
Sample,18555,0,"hithat02.ogg",10
Sample,18555,0,"bass.ogg",70
Sample,18652,0,"hithat02.ogg",10
Sample,18749,0,"Bass.wav",70
Sample,18749,0,"hithat.ogg",70
Sample,18749,0,"hithat02.ogg",10
Sample,18845,0,"hithat02.ogg",10
Sample,18942,0,"Bass.wav",70
Sample,18942,0,"hithat02.ogg",10
Sample,19136,0,"hithat.ogg",70
Sample,19329,0,"Bass.wav",70
Sample,19523,0,"hithat.ogg",70
Sample,19716,0,"Bass.wav",70
Sample,19910,0,"hithat.ogg",70
Sample,20103,0,"Bass.wav",70
Sample,20297,0,"hithat.ogg",70
Sample,20491,0,"Bass.wav",70
Sample,20684,0,"hithat.ogg",70
Sample,20878,0,"Bass.wav",70
Sample,21071,0,"hithat.ogg",70
Sample,21265,0,"Bass.wav",70
Sample,21458,0,"hithat.ogg",70
Sample,21652,0,"Bass.wav",70
Sample,21845,0,"hithat.ogg",70
Sample,22039,0,"Bass.wav",70
Sample,22232,0,"hithat.ogg",70
Sample,22426,0,"Bass.wav",70
Sample,22620,0,"hithat.ogg",70
Sample,22813,0,"Bass.wav",70
Sample,23007,0,"hithat.ogg",70
Sample,23200,0,"Bass.wav",70
Sample,23394,0,"hithat.ogg",70
Sample,23587,0,"Bass.wav",70
Sample,23781,0,"hithat.ogg",70
Sample,23974,0,"clap.ogg",70
Sample,23974,0,"Bass.wav",70
Sample,24168,0,"hithat.ogg",70
Sample,24361,0,"Bass.wav",70
Sample,24458,0,"clap.ogg",70
Sample,24555,0,"hithat.ogg",70
Sample,24652,0,"bass.ogg",70
Sample,24749,0,"Bass.wav",70
Sample,24749,0,"clap.ogg",70
Sample,24942,0,"bass.ogg",70
Sample,24942,0,"hithat.ogg",70
Sample,25136,0,"Bass.wav",70
Sample,25329,0,"hithat.ogg",70
Sample,25523,0,"Bass.wav",70
Sample,25716,0,"hithat.ogg",70
Sample,25910,0,"Bass.wav",70
Sample,26103,0,"hithat.ogg",70
Sample,26297,0,"clap.ogg",70
Sample,26297,0,"Bass.wav",70
Sample,26491,0,"hithat.ogg",70
Sample,26684,0,"Bass.wav",70
Sample,26878,0,"hithat.ogg",70
Sample,27071,0,"Bass.wav",70
Sample,27265,0,"hithat.ogg",70
Sample,27458,0,"Bass.wav",70
Sample,27652,0,"hithat.ogg",70
Sample,27845,0,"Bass.wav",70
Sample,27845,0,"clap.ogg",70
Sample,28039,0,"hithat.ogg",70
Sample,28232,0,"Bass.wav",70
Sample,28426,0,"hithat.ogg",70
Sample,28620,0,"Bass.wav",70
Sample,28813,0,"hithat.ogg",70
Sample,29007,0,"Bass.wav",70
Sample,29200,0,"hithat.ogg",70
Sample,29394,0,"clap.ogg",70
Sample,29394,0,"Bass.wav",70
Sample,29587,0,"hithat.ogg",70
Sample,29781,0,"Bass.wav",70
Sample,29974,0,"hithat.ogg",70
Sample,30168,0,"Bass.wav",70
Sample,30361,0,"hithat.ogg",70
Sample,30555,0,"hithat02.ogg",10
Sample,30555,0,"hithat02.ogg",10
Sample,30555,0,"Bass.wav",70
Sample,30620,0,"hithat02.ogg",10
Sample,30620,0,"hithat02.ogg",10
Sample,30652,0,"clap.ogg",70
Sample,30684,0,"hithat02.ogg",10
Sample,30684,0,"hithat02.ogg",10
Sample,30749,0,"hithat02.ogg",10
Sample,30749,0,"hithat02.ogg",10
Sample,30749,0,"hithat.ogg",70
Sample,30845,0,"hithat02.ogg",10
Sample,30845,0,"hithat02.ogg",10
Sample,30942,0,"clap.ogg",70
Sample,30942,0,"hithat02.ogg",10
Sample,30942,0,"hithat02.ogg",10
Sample,30942,0,"Bass.wav",70
Sample,31039,0,"hithat02.ogg",10
Sample,31039,0,"hithat02.ogg",10
Sample,31136,0,"Bass.wav",70
Sample,31136,0,"hithat.ogg",70
Sample,31136,0,"hithat02.ogg",10
Sample,31136,0,"hithat02.ogg",10
Sample,31232,0,"hithat02.ogg",10
Sample,31232,0,"hithat02.ogg",10
Sample,31329,0,"Bass.wav",70
Sample,31329,0,"hithat02.ogg",10
Sample,31329,0,"hithat02.ogg",10
Sample,31523,0,"hithat.ogg",70
Sample,31716,0,"Bass.wav",70
Sample,31910,0,"hithat.ogg",70
Sample,32103,0,"Bass.wav",70
Sample,32297,0,"hithat.ogg",70
Sample,32491,0,"clap.ogg",70
Sample,32491,0,"Bass.wav",70
Sample,32684,0,"hithat.ogg",70
Sample,32878,0,"Bass.wav",70
Sample,33071,0,"hithat.ogg",70
Sample,33265,0,"Bass.wav",70
Sample,33458,0,"hithat.ogg",70
Sample,33652,0,"Bass.wav",70
Sample,33845,0,"hithat.ogg",70
Sample,34039,0,"clap.ogg",70
Sample,34039,0,"Bass.wav",70
Sample,34232,0,"hithat.ogg",70
Sample,34426,0,"Bass.wav",70
Sample,34620,0,"hithat.ogg",70
Sample,34813,0,"clap.ogg",70
Sample,34813,0,"Bass.wav",70
Sample,35007,0,"hithat.ogg",70
Sample,35200,0,"Bass.wav",70
Sample,35394,0,"hithat.ogg",70
Sample,35587,0,"clap.ogg",70
Sample,35587,0,"Bass.wav",70
Sample,35781,0,"hithat.ogg",70
Sample,35974,0,"Bass.wav",70
Sample,36168,0,"hithat.ogg",70
Sample,36361,0,"Bass.wav",70
Sample,36555,0,"hithat.ogg",70
Sample,36652,0,"bass.ogg",70
Sample,36749,0,"Bass.wav",70
Sample,36845,0,"clap.ogg",70
Sample,36942,0,"hithat.ogg",70
Sample,37136,0,"clap.ogg",70
Sample,37136,0,"Bass.wav",70
Sample,37329,0,"hithat.ogg",70
Sample,37523,0,"Bass.wav",70
Sample,37716,0,"hithat.ogg",70
Sample,37910,0,"Bass.wav",70
Sample,38103,0,"hithat.ogg",70
Sample,38297,0,"Bass.wav",70
Sample,38491,0,"hithat.ogg",70
Sample,38684,0,"Bass.wav",70
Sample,38684,0,"clap.ogg",70
Sample,38878,0,"hithat.ogg",70
Sample,39071,0,"Bass.wav",70
Sample,39265,0,"hithat.ogg",70
Sample,39458,0,"Bass.wav",70
Sample,39652,0,"hithat.ogg",70
Sample,39845,0,"Bass.wav",70
Sample,39942,0,"clap.ogg",70
Sample,40039,0,"hithat.ogg",70
Sample,40232,0,"Bass.wav",70
Sample,40232,0,"cymbol.wav",70
Sample,40232,0,"clap.ogg",70
Sample,40426,0,"hithat.ogg",70
Sample,40426,0,"Bass.wav",70
Sample,40620,0,"Bass.wav",70
Sample,40813,0,"hithat.ogg",70
Sample,41007,0,"Bass.wav",70
Sample,41200,0,"hithat.ogg",70
Sample,41394,0,"Bass.wav",70
Sample,41587,0,"hithat.ogg",70
Sample,41781,0,"Bass.wav",70
Sample,41781,0,"clap.ogg",70
Sample,41974,0,"hithat.ogg",70
Sample,42168,0,"Bass.wav",70
Sample,42361,0,"hithat.ogg",70
Sample,42555,0,"Bass.wav",70
Sample,42749,0,"hithat.ogg",70
Sample,42942,0,"Bass.wav",70
Sample,43039,0,"clap.ogg",70
Sample,43136,0,"hithat.ogg",70
Sample,43329,0,"Bass.wav",70
Sample,43329,0,"clap.ogg",70
Sample,43523,0,"hithat.ogg",70
Sample,43716,0,"Bass.wav",70
Sample,43910,0,"hithat.ogg",70
Sample,44103,0,"Bass.wav",70
Sample,44297,0,"hithat.ogg",70
Sample,44491,0,"Bass.wav",70
Sample,44684,0,"hithat.ogg",70
Sample,44878,0,"Bass.wav",70
Sample,44878,0,"clap.ogg",70
Sample,45071,0,"hithat.ogg",70
Sample,45265,0,"Bass.wav",70
Sample,45458,0,"hithat.ogg",70
Sample,45652,0,"cymbol.wav",70
Sample,45652,0,"clap.ogg",70
Sample,45652,0,"Bass.wav",70
Sample,45845,0,"hithat.ogg",70
Sample,46039,0,"Bass.wav",70
Sample,46136,0,"clap.ogg",70
Sample,46232,0,"hithat.ogg",70
Sample,46329,0,"bass.ogg",70
Sample,46426,0,"Bass.wav",70
Sample,46426,0,"clap.ogg",70
Sample,46620,0,"hithat.ogg",70
Sample,46813,0,"Bass.wav",70
Sample,47007,0,"hithat.ogg",70
Sample,47200,0,"clap.ogg",70
Sample,47200,0,"Bass.wav",70
Sample,47394,0,"hithat.ogg",70
Sample,47587,0,"Bass.wav",70
Sample,47781,0,"hithat.ogg",70
Sample,47974,0,"Bass.wav",70
Sample,48168,0,"hithat.ogg",70
Sample,48361,0,"cymbol.wav",70
Sample,48652,0,"cymbol.wav",70
Sample,48942,0,"cymbol.wav",70
Sample,49136,0,"bass.ogg",70
Sample,49232,0,"bass.ogg",70
Sample,49329,0,"bass.ogg",70
Sample,49426,0,"bass.ogg",70
Sample,49523,0,"bass.ogg",70
Sample,49910,0,"Bass.wav",70
Sample,49910,0,"002.ogg",70
Sample,50103,0,"hithat.ogg",70
Sample,50491,0,"hithat.ogg",70
Sample,50878,0,"hithat.ogg",70
Sample,51265,0,"hithat.ogg",70
Sample,51652,0,"hithat.ogg",70
Sample,52039,0,"hithat.ogg",70
Sample,52426,0,"hithat.ogg",70
Sample,52813,0,"hithat.ogg",70
Sample,53007,0,"cymbol.wav",70
Sample,53200,0,"hithat.ogg",70
Sample,53587,0,"hithat.ogg",70
Sample,53974,0,"hithat.ogg",70
Sample,54361,0,"hithat.ogg",70
Sample,54749,0,"hithat.ogg",70
Sample,54942,0,"cymbol.wav",70
Sample,55136,0,"hithat.ogg",70
Sample,55523,0,"hithat.ogg",70
Sample,55716,0,"cymbol.wav",70
Sample,55910,0,"hithat.ogg",70
Sample,56297,0,"hithat.ogg",70
Sample,56684,0,"hithat.ogg",70
Sample,57071,0,"hithat.ogg",70
Sample,57458,0,"hithat.ogg",70
Sample,57845,0,"hithat.ogg",70
Sample,58232,0,"hithat.ogg",70
Sample,58620,0,"hithat.ogg",70
Sample,59007,0,"hithat.ogg",70
Sample,59200,0,"cymbol.wav",70
Sample,59394,0,"hithat.ogg",70
Sample,59781,0,"hithat.ogg",70
Sample,60168,0,"hithat.ogg",70
Sample,60555,0,"hithat.ogg",70
Sample,60749,0,"Bass.wav",70
Sample,60942,0,"hithat.ogg",70
Sample,61136,0,"clap.ogg",70
Sample,61136,0,"cymbol.wav",70
Sample,61136,0,"Bass.wav",70
Sample,61329,0,"hithat.ogg",70
Sample,61523,0,"Bass.wav",70
Sample,61523,0,"fade-in.wav",100
Sample,61716,0,"hithat.ogg",70
Sample,61910,0,"Bass.wav",70
Sample,61910,0,"clap.ogg",70
Sample,62007,0,"Bass.wav",70
Sample,62103,0,"Bass.wav",70
Sample,62103,0,"hithat.ogg",70
Sample,62200,0,"Bass.wav",70
Sample,62491,0,"hithat.ogg",70
Sample,62878,0,"hithat.ogg",70
Sample,63265,0,"hithat.ogg",70
Sample,63652,0,"hithat.ogg",70
Sample,64039,0,"hithat.ogg",70
Sample,64426,0,"hithat.ogg",70
Sample,64813,0,"hithat.ogg",70
Sample,65200,0,"hithat.ogg",70
Sample,65394,0,"cymbol.wav",70
Sample,65587,0,"hithat.ogg",70
Sample,65974,0,"hithat.ogg",70
Sample,66361,0,"hithat.ogg",70
Sample,66749,0,"hithat.ogg",70
Sample,67136,0,"hithat.ogg",70
Sample,67329,0,"cymbol.wav",70
Sample,67523,0,"hithat.ogg",70
Sample,67910,0,"hithat.ogg",70
Sample,68103,0,"cymbol.wav",70
Sample,68297,0,"hithat.ogg",70
Sample,68684,0,"hithat.ogg",70
Sample,69071,0,"hithat.ogg",70
Sample,69458,0,"hithat.ogg",70
Sample,69845,0,"hithat.ogg",70
Sample,70232,0,"hithat.ogg",70
Sample,70620,0,"hithat.ogg",70
Sample,71007,0,"hithat.ogg",70
Sample,71394,0,"hithat.ogg",70
Sample,71587,0,"cymbol.wav",70
Sample,71781,0,"hithat.ogg",70
Sample,72168,0,"hithat.ogg",70
Sample,72555,0,"hithat.ogg",70
Sample,72942,0,"hithat.ogg",70
Sample,73329,0,"hithat.ogg",70
Sample,73523,0,"clap.ogg",70
Sample,73523,0,"Bass.wav",70
Sample,73523,0,"cymbol.wav",70
Sample,73716,0,"hithat.ogg",70
Sample,73910,0,"fade-in.wav",100
Sample,73910,0,"Bass.wav",70
Sample,74103,0,"Bass.wav",70
Sample,74103,0,"hithat.ogg",70
Sample,74200,0,"Bass.wav",70
Sample,74297,0,"Bass.wav",70
Sample,74297,0,"clap.ogg",70
Sample,74491,0,"hithat.ogg",70
Sample,74878,0,"hithat.ogg",70
Sample,75265,0,"hithat.ogg",70
Sample,75652,0,"hithat.ogg",70
Sample,76039,0,"hithat.ogg",70
Sample,76426,0,"hithat.ogg",70
Sample,76620,0,"clap.ogg",70
Sample,76620,0,"bass.ogg",70
Sample,76813,0,"hithat.ogg",70
Sample,77007,0,"cymbol.wav",70
Sample,77007,0,"bass.ogg",70
Sample,77200,0,"bass.ogg",70
Sample,77200,0,"hithat.ogg",70
Sample,77297,0,"bass.ogg",70
Sample,77394,0,"bass.ogg",70
Sample,77394,0,"cymbol.wav",70
Sample,77587,0,"hithat.ogg",70
Sample,77781,0,"Bass.wav",70
Sample,77781,0,"cymbol.wav",70
Sample,80103,0,"hithat02.ogg",10
Sample,80168,0,"hithat02.ogg",10
Sample,80232,0,"hithat02.ogg",10
Sample,80297,0,"hithat02.ogg",10
Sample,80361,0,"hithat02.ogg",10
Sample,80426,0,"hithat02.ogg",10
Sample,80491,0,"hithat02.ogg",10
Sample,80555,0,"hithat02.ogg",10
Sample,80620,0,"hithat02.ogg",10
Sample,80684,0,"hithat02.ogg",10
Sample,83200,0,"hithat02.ogg",10
Sample,83265,0,"hithat02.ogg",10
Sample,83329,0,"hithat02.ogg",10
Sample,83394,0,"hithat02.ogg",10
Sample,83458,0,"hithat02.ogg",10
Sample,83523,0,"hithat02.ogg",10
Sample,83587,0,"hithat02.ogg",10
Sample,83652,0,"hithat02.ogg",10
Sample,83716,0,"hithat02.ogg",10
Sample,83781,0,"hithat02.ogg",10
Sample,84361,0,"cymbol.wav",70
Sample,84361,0,"001.ogg",70
//Background Colour Transformations
3,100,163,162,255

[TimingPoints]
362,387.096774193548,4,1,0,100,1,0
49910,-100,4,1,0,100,0,1
77781,-100,4,1,0,100,0,0

[HitObjects]
192,192,362,5,0,0:0:0:70:piano01.ogg
320,192,362,1,0,0:0:0:70:cymbol.wav
64,192,555,1,0,0:0:0:70:piano02.ogg
448,192,749,1,0,0:0:0:70:piano03.ogg
320,192,942,1,0,0:0:0:70:piano04.ogg
64,192,1329,1,0,0:0:0:70:piano05.ogg
192,192,1523,1,0,0:0:0:70:piano06.ogg
448,192,1716,1,0,0:0:0:70:piano07.ogg
320,192,2103,1,0,0:0:0:70:piano08.ogg
192,192,2297,1,0,0:0:0:70:piano09.ogg
64,192,2491,1,0,0:0:0:70:piano10.ogg
192,192,2878,1,0,0:0:0:70:piano11.ogg
320,192,3071,1,0,0:0:0:70:piano12.ogg
448,192,3265,1,0,0:0:0:70:piano13.ogg
64,192,3265,1,0,0:0:0:70:cymbol.wav
320,192,3652,1,0,0:0:0:70:piano14.ogg
192,192,3845,1,0,0:0:0:70:piano15.ogg
64,192,4039,1,0,0:0:0:70:piano16.ogg
192,192,4232,1,0,0:0:0:70:Bass.wav
320,192,4329,1,0,0:0:0:70:Bass.wav
448,192,4426,1,0,0:0:0:70:Bass.wav
64,192,4426,1,0,0:0:0:70:piano17.ogg
320,192,4813,1,0,0:0:0:70:piano18.ogg
320,192,5200,1,0,0:0:0:70:piano18.ogg
192,192,5587,1,0,0:0:0:70:piano20.ogg
448,192,5587,1,0,0:0:0:70:cymbol.wav
64,192,5974,1,0,0:0:0:70:piano21.ogg
448,192,6168,1,0,0:0:0:70:piano22.ogg
64,192,6555,1,0,0:0:0:70:Bass.wav
448,192,6555,1,0,0:0:0:70:001.ogg
192,192,6749,1,0,0:0:0:70:hithat.ogg
320,192,6942,1,0,0:0:0:70:Bass.wav
192,192,7136,1,0,0:0:0:70:hithat.ogg
320,192,7329,1,0,0:0:0:70:Bass.wav
192,192,7523,1,0,0:0:0:70:hithat.ogg
320,192,7716,1,0,0:0:0:70:Bass.wav
192,192,7910,1,0,0:0:0:70:hithat.ogg
320,192,8103,1,0,0:0:0:70:Bass.wav
64,192,8297,1,0,0:0:0:70:hithat.ogg
448,192,8491,1,0,0:0:0:70:Bass.wav
64,192,8684,1,0,0:0:0:70:hithat.ogg
448,192,8878,1,0,0:0:0:70:Bass.wav
64,192,9071,1,0,0:0:0:70:hithat.ogg
448,192,9265,1,0,0:0:0:70:Bass.wav
64,192,9458,1,0,0:0:0:70:hithat.ogg
448,192,9652,1,0,0:0:0:70:Bass.wav
192,192,9652,1,0,0:0:0:70:cymbol.wav
320,192,9845,1,0,0:0:0:70:hithat.ogg
64,192,10039,1,0,0:0:0:70:Bass.wav
320,192,10232,1,0,0:0:0:70:hithat.ogg
64,192,10426,1,0,0:0:0:70:Bass.wav
320,192,10620,1,0,0:0:0:70:hithat.ogg
64,192,10813,1,0,0:0:0:70:Bass.wav
320,192,11007,1,0,0:0:0:70:hithat.ogg
64,192,11200,1,0,0:0:0:70:Bass.wav
192,192,11394,1,0,0:0:0:70:hithat.ogg
448,192,11587,1,0,0:0:0:70:Bass.wav
192,192,11781,1,0,0:0:0:70:hithat.ogg
448,192,11974,1,0,0:0:0:70:Bass.wav
64,192,11974,128,0,12749:0:0:0:100:fade-in.wav
320,192,12168,1,0,0:0:0:70:hithat.ogg
448,192,12361,1,0,0:0:0:70:Bass.wav
320,192,12555,1,0,0:0:0:70:hithat.ogg
448,192,12749,1,0,0:0:0:70:Bass.wav
192,192,12749,1,0,0:0:0:70:001.ogg
64,192,13329,1,0,0:0:0:70:piano23.ogg
192,192,13523,1,0,0:0:0:70:piano24.ogg
320,192,13813,1,0,0:0:0:70:piano25.ogg
448,192,14103,1,0,0:0:0:70:piano26.ogg
448,192,14297,1,0,0:0:0:70:piano26.ogg
448,192,14878,1,0,0:0:0:70:piano23.ogg
320,192,15071,1,0,0:0:0:70:piano27.ogg
192,192,15361,1,0,0:0:0:70:piano28.ogg
64,192,15652,1,0,0:0:0:70:piano29.ogg
192,192,15845,1,0,0:0:0:70:piano28.ogg
64,192,16426,1,0,0:0:0:70:piano23.ogg
64,192,16620,1,0,0:0:0:70:piano23.ogg
448,192,16910,1,0,0:0:0:70:piano30.ogg
192,192,17200,1,0,0:0:0:70:piano31.ogg
320,192,17394,1,0,0:0:0:70:piano32.ogg
448,192,17974,1,0,0:0:0:70:piano23.ogg
64,192,18168,1,0,0:0:0:70:piano32.ogg
320,192,18458,1,0,0:0:0:70:piano33.ogg
192,192,18749,1,0,0:0:0:70:piano29.ogg
64,192,18942,1,0,0:0:0:70:cymbol.wav
320,192,18942,1,0,0:0:0:70:piano24.ogg
64,192,19523,1,0,0:0:0:70:piano23.ogg
320,192,19716,1,0,0:0:0:70:piano24.ogg
192,192,20007,1,0,0:0:0:70:piano27.ogg
320,192,20297,1,0,0:0:0:70:piano24.ogg
320,192,20491,1,0,0:0:0:70:piano24.ogg
448,192,21071,1,0,0:0:0:70:piano23.ogg
64,192,21265,1,0,0:0:0:70:piano26.ogg
320,192,21555,1,0,0:0:0:70:piano27.ogg
192,192,21845,1,0,0:0:0:70:piano23.ogg
448,192,22039,1,0,0:0:0:70:piano34.ogg
192,192,22329,1,0,0:0:0:70:piano23.ogg
64,192,22620,1,0,0:0:0:70:piano34.ogg
64,192,22813,1,0,0:0:0:70:piano34.ogg
320,192,23103,1,0,0:0:0:70:piano33.ogg
448,192,23394,1,0,0:0:0:70:piano28.ogg
448,192,23587,1,0,0:0:0:70:piano28.ogg
448,192,23878,1,0,0:0:0:70:piano28.ogg
64,192,24168,1,0,0:0:0:70:piano29.ogg
192,192,24361,1,0,0:0:0:70:piano33.ogg
448,192,24361,128,0,25136:0:0:0:100:fade-in.wav
64,192,25136,1,0,0:0:0:70:cymbol.wav
320,192,25136,1,0,0:0:0:70:001.ogg
320,192,25716,1,0,0:0:0:70:piano23.ogg
192,192,25910,1,0,0:0:0:70:piano24.ogg
64,192,26200,1,0,0:0:0:70:piano25.ogg
192,192,26491,1,0,0:0:0:70:piano26.ogg
192,192,26684,1,0,0:0:0:70:piano26.ogg
448,192,27265,1,0,0:0:0:70:piano23.ogg
320,192,27458,1,0,0:0:0:70:piano27.ogg
64,192,27749,1,0,0:0:0:70:piano28.ogg
320,192,28039,1,0,0:0:0:70:piano29.ogg
192,192,28232,1,0,0:0:0:70:piano28.ogg
320,192,28813,1,0,0:0:0:70:piano23.ogg
320,192,29007,1,0,0:0:0:70:piano23.ogg
448,192,29297,1,0,0:0:0:70:piano30.ogg
192,192,29587,1,0,0:0:0:70:piano31.ogg
64,192,29781,1,0,0:0:0:70:piano32.ogg
320,192,30361,1,0,0:0:0:70:piano23.ogg
192,192,30555,1,0,0:0:0:70:piano32.ogg
448,192,30845,1,0,0:0:0:70:piano33.ogg
64,192,31136,1,0,0:0:0:70:piano25.ogg
320,192,31329,1,0,0:0:0:70:piano24.ogg
192,192,31329,1,0,0:0:0:70:cymbol.wav
448,192,31910,1,0,0:0:0:70:piano23.ogg
64,192,32103,1,0,0:0:0:70:piano24.ogg
192,192,32394,1,0,0:0:0:70:piano27.ogg
448,192,32684,1,0,0:0:0:70:piano24.ogg
448,192,32878,1,0,0:0:0:70:piano24.ogg
192,192,33458,1,0,0:0:0:70:piano23.ogg
64,192,33652,1,0,0:0:0:70:piano26.ogg
448,192,33942,1,0,0:0:0:70:piano27.ogg
320,192,34232,1,0,0:0:0:70:piano23.ogg
192,192,34426,1,0,0:0:0:70:piano34.ogg
448,192,34426,1,0,0:0:0:70:cymbol.wav
320,192,34716,1,0,0:0:0:70:piano27.ogg
64,192,35007,1,0,0:0:0:70:piano28.ogg
192,192,35200,1,0,0:0:0:70:piano27.ogg
320,192,35200,1,0,0:0:0:70:cymbol.wav
448,192,35491,1,0,0:0:0:70:piano23.ogg
320,192,35781,1,0,0:0:0:70:piano27.ogg
192,192,35974,1,0,0:0:0:70:piano29.ogg
448,192,35974,1,0,0:0:0:70:cymbol.wav
192,192,36265,1,0,0:0:0:70:piano29.ogg
64,192,36555,1,0,0:0:0:70:piano28.ogg
64,192,36749,1,0,0:0:0:70:piano28.ogg
192,192,36749,128,0,37523:0:0:0:100:fade-in.wav
64,192,37523,1,0,0:0:0:70:001.ogg
448,192,37523,1,0,0:0:0:70:piano26.ogg
64,192,37910,1,0,0:0:0:70:piano27.ogg
320,192,38297,1,0,0:0:0:70:piano31.ogg
64,192,38587,1,0,0:0:0:70:piano26.ogg
320,192,38878,1,0,0:0:0:70:piano29.ogg
320,192,39071,1,0,0:0:0:70:piano29.ogg
448,192,39361,1,0,0:0:0:70:piano28.ogg
192,192,39652,1,0,0:0:0:70:piano27.ogg
448,192,39845,1,0,0:0:0:70:piano28.ogg
192,192,40620,1,0,0:0:0:70:piano29.ogg
64,192,41007,1,0,0:0:0:70:piano23.ogg
320,192,41394,1,0,0:0:0:70:piano27.ogg
192,192,41684,1,0,0:0:0:70:piano29.ogg
448,192,41974,1,0,0:0:0:70:piano30.ogg
320,192,42168,1,0,0:0:0:70:piano31.ogg
64,192,42168,1,0,0:0:0:70:cymbol.wav
192,192,42458,1,0,0:0:0:70:piano32.ogg
64,192,42749,1,0,0:0:0:70:piano29.ogg
192,192,42942,1,0,0:0:0:70:piano32.ogg
320,192,42942,128,0,43716:0:0:0:100:fade-in.wav
64,192,43716,1,0,0:0:0:70:001.ogg
448,192,43716,1,0,0:0:0:70:piano26.ogg
192,192,44103,1,0,0:0:0:70:piano27.ogg
448,192,44491,1,0,0:0:0:70:piano31.ogg
320,192,44781,1,0,0:0:0:70:piano32.ogg
192,192,45071,1,0,0:0:0:70:piano25.ogg
320,192,45265,1,0,0:0:0:70:piano24.ogg
448,192,45265,1,0,0:0:0:70:cymbol.wav
192,192,45555,1,0,0:0:0:70:piano29.ogg
320,192,45845,1,0,0:0:0:70:piano32.ogg
192,192,46039,1,0,0:0:0:70:piano29.ogg
64,192,46039,1,0,0:0:0:70:cymbol.wav
448,192,46329,1,0,0:0:0:70:piano31.ogg
192,192,46620,1,0,0:0:0:70:piano30.ogg
64,192,46813,1,0,0:0:0:70:piano36.ogg
320,192,47103,1,0,0:0:0:70:piano31.ogg
64,192,47394,1,0,0:0:0:70:piano30.ogg
192,192,47587,1,0,0:0:0:70:piano36.ogg
320,192,47878,1,0,0:0:0:70:piano37.ogg
448,192,48168,1,0,0:0:0:70:piano38.ogg
64,192,48361,1,0,0:0:0:70:piano38.ogg
320,192,48361,1,0,0:0:0:70:G01.ogg
192,192,48652,1,0,0:0:0:70:piano38.ogg
448,192,48652,1,0,0:0:0:70:G01.ogg
320,192,48942,1,0,0:0:0:70:G01.ogg
64,192,48942,1,0,0:0:0:70:piano37.ogg
192,192,49136,128,0,49910:0:0:0:100:fade-in.wav
64,192,49910,1,0,0:0:0:70:cymbol.wav
448,192,49910,128,0,51458:0:0:0:40:G05.ogg
192,192,50297,1,0,0:0:0:70:Bass.wav
64,192,50297,1,0,0:0:0:70:clap.ogg
192,192,50684,1,0,0:0:0:70:Bass.wav
192,192,51071,1,0,0:0:0:70:Bass.wav
64,192,51071,1,0,0:0:0:70:clap.ogg
64,192,51458,128,0,53007:0:0:0:40:G06.ogg
320,192,51458,1,0,0:0:0:70:Bass.wav
448,192,51845,1,0,0:0:0:70:clap.ogg
320,192,51845,1,0,0:0:0:70:Bass.wav
192,192,52232,1,0,0:0:0:70:Bass.wav
192,192,52620,1,0,0:0:0:70:clap.ogg
320,192,52620,1,0,0:0:0:70:Bass.wav
320,192,53007,1,0,0:0:0:70:Bass.wav
448,192,53007,128,0,54555:0:0:0:40:G07.ogg
192,192,53394,1,0,0:0:0:70:Bass.wav
64,192,53394,1,0,0:0:0:70:clap.ogg
192,192,53781,1,0,0:0:0:70:Bass.wav
320,192,54168,1,0,0:0:0:70:Bass.wav
192,192,54168,1,0,0:0:0:70:clap.ogg
320,192,54555,1,0,0:0:0:70:Bass.wav
192,192,54555,128,0,55329:0:0:0:40:G08.ogg
320,192,54942,1,0,0:0:0:70:clap.ogg
448,192,54942,1,0,0:0:0:70:Bass.wav
64,192,55329,1,0,0:0:0:70:Bass.wav
320,192,55329,128,0,56103:0:0:0:40:G09.ogg
448,192,55620,1,0,0:0:0:70:Bass.wav
192,192,55716,1,0,0:0:0:70:Bass.wav
64,192,55716,1,0,0:0:0:70:clap.ogg
192,192,56103,1,0,0:0:0:70:Bass.wav
64,192,56103,128,0,57652:0:0:0:40:G10.ogg
320,192,56491,1,0,0:0:0:70:Bass.wav
448,192,56491,1,0,0:0:0:70:clap.ogg
320,192,56878,1,0,0:0:0:70:Bass.wav
192,192,57265,1,0,0:0:0:70:Bass.wav
320,192,57265,1,0,0:0:0:70:clap.ogg
192,192,57652,1,0,0:0:0:70:Bass.wav
320,192,57652,128,0,59200:0:0:0:40:G14.ogg
192,192,58039,1,0,0:0:0:70:clap.ogg
64,192,58039,1,0,0:0:0:70:Bass.wav
448,192,58426,1,0,0:0:0:70:Bass.wav
192,192,58813,1,0,0:0:0:70:Bass.wav
448,192,58813,1,0,0:0:0:70:clap.ogg
64,192,59200,1,0,0:0:0:70:Bass.wav
448,192,59200,128,0,60749:0:0:0:40:G07.ogg
320,192,59587,1,0,0:0:0:70:clap.ogg
192,192,59587,1,0,0:0:0:70:Bass.wav
192,192,59974,1,0,0:0:0:70:Bass.wav
192,192,60361,1,0,0:0:0:70:Bass.wav
64,192,60361,1,0,0:0:0:70:clap.ogg
64,192,60749,128,0,61523:0:0:0:40:G02.ogg
448,192,61523,128,0,62297:0:0:0:40:G03.ogg
192,192,62297,1,0,0:0:0:70:Bass.wav
64,192,62297,128,0,63845:0:0:0:40:G10.ogg
192,192,62684,1,0,0:0:0:70:clap.ogg
448,192,62684,1,0,0:0:0:70:Bass.wav
320,192,63071,1,0,0:0:0:70:Bass.wav
320,192,63458,1,0,0:0:0:70:Bass.wav
448,192,63458,1,0,0:0:0:70:clap.ogg
192,192,63845,1,0,0:0:0:70:Bass.wav
448,192,63845,128,0,65394:0:0:0:40:G06.ogg
64,192,64232,1,0,0:0:0:70:Bass.wav
320,192,64232,1,0,0:0:0:70:clap.ogg
192,192,64620,1,0,0:0:0:70:Bass.wav
64,192,65007,1,0,0:0:0:70:clap.ogg
192,192,65007,1,0,0:0:0:70:Bass.wav
320,192,65394,1,0,0:0:0:70:Bass.wav
64,192,65394,128,0,66942:0:0:0:40:G07.ogg
192,192,65781,1,0,0:0:0:70:Bass.wav
448,192,65781,1,0,0:0:0:70:clap.ogg
320,192,66168,1,0,0:0:0:70:Bass.wav
320,192,66555,1,0,0:0:0:70:Bass.wav
448,192,66555,1,0,0:0:0:70:clap.ogg
192,192,66942,1,0,0:0:0:70:Bass.wav
448,192,66942,128,0,67716:0:0:0:40:G08.ogg
320,192,67329,1,0,0:0:0:70:Bass.wav
64,192,67329,1,0,0:0:0:70:clap.ogg
192,192,67716,1,0,0:0:0:70:Bass.wav
64,192,67716,128,0,68491:0:0:0:40:G09.ogg
320,192,68007,1,0,0:0:0:70:Bass.wav
192,192,68103,1,0,0:0:0:70:clap.ogg
448,192,68103,1,0,0:0:0:70:Bass.wav
320,192,68491,1,0,0:0:0:70:Bass.wav
448,192,68491,128,0,70039:0:0:0:40:G10.ogg
192,192,68878,1,0,0:0:0:70:clap.ogg
320,192,68878,1,0,0:0:0:70:Bass.wav
192,192,69265,1,0,0:0:0:70:Bass.wav
192,192,69652,1,0,0:0:0:70:clap.ogg
64,192,69652,1,0,0:0:0:70:Bass.wav
192,192,70039,1,0,0:0:0:70:Bass.wav
64,192,70039,128,0,71587:0:0:0:40:G14.ogg
320,192,70426,1,0,0:0:0:70:clap.ogg
192,192,70426,1,0,0:0:0:70:Bass.wav
320,192,70813,1,0,0:0:0:70:Bass.wav
320,192,71200,1,0,0:0:0:70:Bass.wav
448,192,71200,1,0,0:0:0:70:clap.ogg
448,192,71587,1,0,0:0:0:70:Bass.wav
320,192,71587,128,0,73136:0:0:0:40:G07.ogg
192,192,71974,1,0,0:0:0:70:Bass.wav
64,192,71974,1,0,0:0:0:70:clap.ogg
448,192,72361,1,0,0:0:0:70:Bass.wav
64,192,72749,1,0,0:0:0:70:Bass.wav
192,192,72749,1,0,0:0:0:70:clap.ogg
448,192,73136,128,0,73910:0:0:0:40:G03.ogg
64,192,73910,128,0,74684:0:0:0:40:G02.ogg
192,192,74684,1,0,0:0:0:70:Bass.wav
448,192,74684,1,0,0:0:0:70:hihat.wav
320,192,74684,128,0,75458:0:0:0:40:G11.ogg
64,192,75071,1,0,0:0:0:70:clap.ogg
192,192,75071,1,0,0:0:0:70:Bass.wav
448,192,75458,1,0,0:0:0:70:Bass.wav
192,192,75458,128,0,76232:0:0:0:40:G12.ogg
448,192,75845,1,0,0:0:0:70:clap.ogg
320,192,75845,1,0,0:0:0:70:Bass.wav
64,192,76232,1,0,0:0:0:70:Bass.wav
320,192,76232,128,0,77781:0:0:0:40:G13.ogg
64,192,77781,1,0,0:0:0:70:001.ogg
448,192,77781,1,0,0:0:0:70:002.ogg
320,192,77974,1,0,0:0:0:70:hithat.ogg
64,192,78168,1,0,0:0:0:70:Bass.wav
448,192,78361,1,0,0:0:0:70:hithat.ogg
192,192,78555,1,0,0:0:0:70:Bass.wav
320,192,78749,1,0,0:0:0:70:hithat.ogg
64,192,78942,1,0,0:0:0:70:Bass.wav
448,192,79136,1,0,0:0:0:70:hithat.ogg
192,192,79329,1,0,0:0:0:70:Bass.wav
448,192,79523,1,0,0:0:0:70:hithat.ogg
64,192,79716,1,0,0:0:0:70:Bass.wav
320,192,79910,1,0,0:0:0:70:hithat.ogg
64,192,80103,1,0,0:0:0:70:Bass.wav
448,192,80297,1,0,0:0:0:70:hithat.ogg
64,192,80491,1,0,0:0:0:70:Bass.wav
320,192,80684,1,0,0:0:0:70:hithat.ogg
64,192,80878,1,0,0:0:0:70:Bass.wav
448,192,80878,1,0,0:0:0:70:cymbol.wav
192,192,81071,1,0,0:0:0:70:hithat.ogg
448,192,81265,1,0,0:0:0:70:Bass.wav
64,192,81458,1,0,0:0:0:70:hithat.ogg
448,192,81652,1,0,0:0:0:70:Bass.wav
192,192,81845,1,0,0:0:0:70:hithat.ogg
448,192,82039,1,0,0:0:0:70:Bass.wav
64,192,82232,1,0,0:0:0:70:hithat.ogg
448,192,82426,1,0,0:0:0:70:Bass.wav
320,192,82620,1,0,0:0:0:70:hithat.ogg
64,192,82813,1,0,0:0:0:70:Bass.wav
320,192,83007,1,0,0:0:0:70:hithat.ogg
64,192,83200,5,0,0:0:0:70:Bass.wav
192,192,83394,1,0,0:0:0:70:hithat.ogg
448,192,83587,1,0,0:0:0:70:Bass.wav
192,192,83781,1,0,0:0:0:70:hithat.ogg
448,192,83974,1,0,0:0:0:70:Bass.wav
192,192,84361,128,0,89394:0:0:0:40:G04.ogg
320,192,84361,128,0,87071:0:0:0:20:003.ogg
