osu file format v13

[General]
AudioFilename: Opening [black bullet - fripSide] HD.mp3
AudioLeadIn: 0
PreviewTime: 49481
Countdown: 0
SampleSet: Soft
StackLeniency: 0.7
Mode: 3
LetterboxInBreaks: 0
SpecialStyle: 0
WidescreenStoryboard: 1

[Editor]
DistanceSpacing: 0.7
BeatDivisor: 4
GridSize: 4
TimelineZoom: 1.399999

[Metadata]
Title:black bullet
TitleUnicode:black bullet
Artist:fripSide
ArtistUnicode:fripSide
Creator:Rumia-
Version:Insane
Source:ブラック・ブレット
Tags:opening op
BeatmapID:432518
BeatmapSetID:179951

[Difficulty]
HPDrainRate:8
CircleSize:7
OverallDifficulty:8
ApproachRate:2
SliderMultiplier:1.4
SliderTickRate:1

[Events]
//Background and Video events
0,0,"bgbg.jpg",0,0
//Break Periods
//Storyboard Layer 0 (Background)
//Storyboard Layer 1 (Fail)
//Storyboard Layer 2 (Pass)
//Storyboard Layer 3 (Foreground)
//Storyboard Sound Samples
//Background Colour Transformations
3,100,163,162,255

[TimingPoints]
371,387.096774193548,4,2,1,30,1,0
24370,-100,4,2,1,30,0,0
24758,-100,4,2,1,35,0,0
49919,-100,4,2,1,35,0,1
76241,-100,4,2,1,35,0,0

[Colours]
Combo1 : 220,22,12
Combo2 : 248,141,24
Combo3 : 36,0,145

[HitObjects]
256,192,371,5,0,0:0:0:0:
475,192,371,1,4,0:0:0:0:
36,192,371,1,0,0:0:0:0:
182,192,564,1,2,0:0:0:0:
402,192,564,1,0,0:0:0:0:
329,192,758,1,0,0:0:0:0:
109,192,758,1,0,0:0:0:0:
256,192,951,1,2,0:0:0:0:
475,192,951,1,0,0:0:0:0:
109,192,1048,1,2,0:0:0:0:
402,192,1145,1,0,0:0:0:0:
329,192,1145,1,0,0:0:0:0:
182,192,1338,1,2,0:0:0:0:
36,192,1435,1,2,0:0:0:0:
329,192,1532,1,0,0:0:0:0:
475,192,1532,1,0,0:0:0:0:
109,192,1725,1,2,0:0:0:0:
256,192,1822,1,2,0:0:0:0:
329,192,1919,1,0,0:0:0:0:
475,192,1919,1,0,0:0:0:0:
182,192,2112,1,2,0:0:0:0:
36,192,2209,1,2,0:0:0:0:
329,192,2306,1,0,0:0:0:0:
475,192,2306,1,0,0:0:0:0:
256,192,2500,1,2,0:0:0:0:
109,192,2596,1,2,0:0:0:0:
329,192,2693,1,0,0:0:0:0:
182,192,2790,1,2,0:0:0:0:
402,192,2887,1,2,0:0:0:0:
256,192,2983,1,2,0:0:0:0:
475,192,3080,1,0,0:0:0:0:
36,192,3080,1,0,0:0:0:0:
109,192,3274,128,0,3661:0:0:0:0:
402,192,3274,128,0,3661:0:0:0:0:
182,192,3274,1,2,0:0:0:0:
329,192,3274,1,2,0:0:0:0:
256,192,3274,1,4,0:0:0:0:
36,192,3661,128,2,4241:0:0:0:0:
182,192,3854,128,0,4241:0:0:0:0:
329,192,4048,128,2,4241:0:0:0:0:
475,192,4048,128,0,4241:0:0:0:0:
256,192,4435,128,2,4629:0:0:0:0:
402,192,4435,128,0,4629:0:0:0:0:
109,192,4822,1,4,0:0:0:0:
36,192,4822,1,0,0:0:0:0:
402,192,4822,1,4,0:0:0:0:
329,192,4822,1,0,0:0:0:0:
109,192,5209,1,4,0:0:0:0:
182,192,5209,1,0,0:0:0:0:
402,192,5209,1,4,0:0:0:0:
475,192,5209,1,0,0:0:0:0:
109,192,5596,128,4,5887:0:0:0:0:
36,192,5596,128,0,5887:0:0:0:0:
329,192,5596,128,4,5887:0:0:0:0:
402,192,5596,128,0,5887:0:0:0:0:
329,192,5983,1,4,0:0:0:0:
402,192,5983,1,0,0:0:0:0:
109,192,5983,1,4,0:0:0:0:
36,192,5983,1,0,0:0:0:0:
475,192,6177,128,0,6564:0:0:0:0:
402,192,6177,128,4,6564:0:0:0:0:
182,192,6177,128,0,6564:0:0:0:0:
109,192,6177,128,4,6564:0:0:0:0:
256,192,6564,1,4,0:0:0:0:
36,192,6564,128,0,7145:0:0:0:0:
402,192,6758,1,2,0:0:0:0:
182,192,6951,1,0,0:0:0:0:
329,192,7145,128,2,7338:0:0:0:0:
109,192,7338,1,0,0:0:0:0:
256,192,7532,128,2,7725:0:0:0:0:
402,192,7532,1,0,0:0:0:0:
475,192,7629,1,0,0:0:0:0:
36,192,7725,1,0,0:0:0:0:
109,192,7822,1,2,0:0:0:0:
182,192,7919,128,2,8112:0:0:0:0:
475,192,8112,1,0,0:0:0:0:
109,192,8306,128,2,8500:0:0:0:0:
402,192,8500,1,0,0:0:0:0:
36,192,8693,128,2,8887:0:0:0:0:
109,192,8887,1,2,0:0:0:0:
182,192,8951,1,2,0:0:0:0:
329,192,9016,1,2,0:0:0:0:
402,192,9080,1,2,0:0:0:0:
475,192,9080,128,0,9274:0:0:0:0:
36,192,9080,128,0,9274:0:0:0:0:
182,192,9274,1,0,0:0:0:0:
109,192,9274,128,0,9661:0:0:0:0:
402,192,9274,128,0,9661:0:0:0:0:
329,192,9370,1,2,0:0:0:0:
182,192,9467,1,0,0:0:0:0:
329,192,9564,1,2,0:0:0:0:
256,192,9661,128,0,11016:0:0:0:0:
36,192,9661,1,0,0:0:0:0:
475,192,9661,1,4,0:0:0:0:
36,192,9854,1,0,0:0:0:0:
402,192,9951,1,2,0:0:0:0:
475,192,10048,1,0,0:0:0:0:
36,192,10241,1,0,0:0:0:0:
109,192,10338,1,2,0:0:0:0:
475,192,10435,1,0,0:0:0:0:
402,192,10629,1,0,0:0:0:0:
402,192,10725,1,2,0:0:0:0:
109,192,10822,1,0,0:0:0:0:
109,192,10919,1,0,0:0:0:0:
402,192,11016,128,0,11112:0:0:0:0:
475,192,11016,128,0,11112:0:0:0:0:
36,192,11016,1,8,0:0:0:0:
329,192,11209,1,0,0:0:0:0:
109,192,11403,128,2,11500:0:0:0:0:
36,192,11403,128,0,11500:0:0:0:0:
475,192,11596,1,0,0:0:0:0:
182,192,11790,128,0,11887:0:0:0:0:
256,192,11790,128,2,11887:0:0:0:0:
36,192,11983,1,2,0:0:0:0:
182,192,12048,1,2,0:0:0:0:
329,192,12112,1,2,0:0:0:0:
475,192,12177,1,2,0:0:0:0:
182,192,12177,128,0,12758:0:0:0:0:
36,192,12370,128,0,12758:0:0:0:0:
329,192,12370,1,0,0:0:0:0:
475,192,12467,1,2,0:0:0:0:
256,192,12564,1,0,0:0:0:0:
402,192,12661,1,2,0:0:0:0:
109,192,12758,1,4,0:0:0:0:
475,192,12758,1,0,0:0:0:0:
329,192,12951,1,2,0:0:0:0:
109,192,13145,1,0,0:0:0:0:
475,192,13145,1,0,0:0:0:0:
329,192,13338,1,2,0:0:0:0:
109,192,13532,1,0,0:0:0:0:
475,192,13532,1,0,0:0:0:0:
36,192,13532,1,0,0:0:0:0:
329,192,13725,1,2,0:0:0:0:
182,192,13822,1,2,0:0:0:0:
109,192,13919,1,0,0:0:0:0:
475,192,13919,1,0,0:0:0:0:
329,192,14112,1,2,0:0:0:0:
109,192,14306,1,0,0:0:0:0:
36,192,14306,128,0,15854:0:0:0:0:
402,192,14306,1,0,0:0:0:0:
182,192,14500,1,2,0:0:0:0:
329,192,14693,1,0,0:0:0:0:
475,192,14693,1,0,0:0:0:0:
182,192,14887,1,2,0:0:0:0:
475,192,15080,1,0,0:0:0:0:
329,192,15080,1,0,0:0:0:0:
182,192,15274,1,2,0:0:0:0:
256,192,15370,1,2,0:0:0:0:
475,192,15467,1,0,0:0:0:0:
329,192,15467,1,0,0:0:0:0:
182,192,15661,1,2,0:0:0:0:
329,192,15854,1,0,0:0:0:0:
475,192,15854,128,0,16629:0:0:0:0:
182,192,16048,1,2,0:0:0:0:
256,192,16241,1,0,0:0:0:0:
402,192,16241,128,0,16629:0:0:0:0:
182,192,16435,1,2,0:0:0:0:
36,192,16629,128,0,17403:0:0:0:0:
256,192,16629,1,0,0:0:0:0:
182,192,16822,1,2,0:0:0:0:
475,192,16919,128,0,17403:0:0:0:0:
109,192,16919,1,2,0:0:0:0:
256,192,17016,1,0,0:0:0:0:
329,192,17209,128,0,17403:0:0:0:0:
182,192,17209,1,0,0:0:0:0:
182,192,17403,128,0,18177:0:0:0:0:
109,192,17403,1,0,0:0:0:0:
36,192,17596,1,2,0:0:0:0:
402,192,17790,128,0,18177:0:0:0:0:
109,192,17790,1,0,0:0:0:0:
256,192,17983,1,2,0:0:0:0:
109,192,18177,1,0,0:0:0:0:
329,192,18177,1,0,0:0:0:0:
475,192,18177,128,0,18467:0:0:0:0:
109,192,18467,1,0,0:0:0:0:
329,192,18564,1,0,0:0:0:0:
109,192,18564,1,2,0:0:0:0:
402,192,18758,1,0,0:0:0:0:
256,192,18758,1,0,0:0:0:0:
109,192,18758,1,0,0:0:0:0:
475,192,18951,1,0,0:0:0:0:
36,192,18951,1,4,0:0:0:0:
109,192,18951,1,0,0:0:0:0:
402,192,18951,1,0,0:0:0:0:
182,192,19241,1,0,0:0:0:0:
402,192,19241,1,2,0:0:0:0:
36,192,19338,1,0,0:0:0:0:
475,192,19338,1,0,0:0:0:0:
329,192,19532,1,2,0:0:0:0:
109,192,19532,1,0,0:0:0:0:
256,192,19725,128,0,20016:0:0:0:0:
475,192,19725,128,0,20016:0:0:0:0:
36,192,19725,1,0,0:0:0:0:
109,192,19919,1,2,0:0:0:0:
182,192,20016,128,2,20306:0:0:0:0:
402,192,20016,128,0,20306:0:0:0:0:
36,192,20112,1,0,0:0:0:0:
329,192,20306,128,2,20500:0:0:0:0:
109,192,20306,128,2,20500:0:0:0:0:
475,192,20500,1,0,0:0:0:0:
36,192,20500,1,0,0:0:0:0:
182,192,20693,1,2,0:0:0:0:
475,192,20887,1,0,0:0:0:0:
36,192,20887,1,0,0:0:0:0:
329,192,21080,1,2,0:0:0:0:
475,192,21274,1,0,0:0:0:0:
36,192,21274,1,0,0:0:0:0:
256,192,21274,1,0,0:0:0:0:
109,192,21467,1,2,0:0:0:0:
329,192,21467,1,0,0:0:0:0:
402,192,21564,1,0,0:0:0:0:
36,192,21661,1,0,0:0:0:0:
475,192,21661,1,0,0:0:0:0:
402,192,21854,1,2,0:0:0:0:
36,192,22048,1,0,0:0:0:0:
475,192,22048,1,0,0:0:0:0:
182,192,22048,128,2,22435:0:0:0:0:
256,192,22241,1,2,0:0:0:0:
329,192,22338,128,2,22629:0:0:0:0:
475,192,22435,1,0,0:0:0:0:
36,192,22435,1,0,0:0:0:0:
109,192,22629,128,2,23016:0:0:0:0:
256,192,22629,1,2,0:0:0:0:
402,192,22822,128,2,23016:0:0:0:0:
36,192,22822,1,0,0:0:0:0:
475,192,22822,1,0,0:0:0:0:
256,192,23016,128,2,23596:0:0:0:0:
182,192,23016,1,2,0:0:0:0:
329,192,23112,1,2,0:0:0:0:
109,192,23209,1,0,0:0:0:0:
402,192,23209,1,0,0:0:0:0:
36,192,23403,1,2,0:0:0:0:
329,192,23596,128,0,24370:0:0:0:0:
182,192,23596,128,0,24370:0:0:0:0:
109,192,23596,1,0,0:0:0:0:
402,192,23596,1,0,0:0:0:0:
109,192,23790,1,2,0:0:0:0:
256,192,23887,1,0,0:0:0:0:
475,192,23983,128,0,24370:0:0:0:0:
36,192,23983,128,0,24370:0:0:0:0:
402,192,23983,1,0,0:0:0:70:soft-hitclap2.wav
256,192,24177,1,2,0:0:0:0:
109,192,24370,1,0,0:0:0:0:
402,192,24370,1,0,0:0:0:0:
475,192,24467,1,0,0:0:0:0:
256,192,24467,1,0,0:0:0:70:soft-hitclap2.wav
36,192,24467,1,0,0:0:0:0:
109,192,24661,1,0,0:0:0:0:
402,192,24661,1,0,0:0:0:0:
475,192,24758,1,0,0:0:0:0:
256,192,24758,1,0,0:0:0:70:soft-hitclap2.wav
36,192,24758,1,0,0:0:0:0:
109,192,24951,1,2,0:0:0:0:
402,192,24951,1,2,0:0:0:0:
182,192,25145,1,0,0:0:0:0:
36,192,25145,1,0,0:0:0:0:
475,192,25145,1,0,0:0:0:0:
109,192,25338,1,2,0:0:0:0:
256,192,25435,1,2,0:0:0:0:
329,192,25532,1,0,0:0:0:0:
475,192,25532,1,2,0:0:0:0:
36,192,25532,1,2,0:0:0:0:
182,192,25725,1,2,0:0:0:0:
109,192,25919,1,0,0:0:0:0:
402,192,25919,1,0,0:0:0:0:
182,192,26112,1,0,0:0:0:0:
402,192,26306,1,0,0:0:0:0:
475,192,26306,1,0,0:0:0:70:soft-hitclap2.wav
182,192,26306,1,0,0:0:0:0:
329,192,26403,1,0,0:0:0:0:
109,192,26403,1,2,0:0:0:0:
36,192,26500,1,2,0:0:0:0:
256,192,26500,1,2,0:0:0:0:
109,192,26596,1,2,0:0:0:0:
329,192,26596,1,0,0:0:0:0:
182,192,26693,1,0,0:0:0:0:
402,192,26693,1,0,0:0:0:0:
109,192,26887,1,2,0:0:0:0:
475,192,26887,1,0,0:0:0:0:
36,192,26983,1,2,0:0:0:0:
402,192,26983,1,0,0:0:0:0:
109,192,27080,1,0,0:0:0:0:
475,192,27080,1,0,0:0:0:0:
182,192,27274,1,0,0:0:0:0:
402,192,27274,1,0,0:0:0:0:
36,192,27467,128,0,28241:0:0:0:0:
475,192,27467,1,0,0:0:0:0:
256,192,27564,1,2,0:0:0:0:
402,192,27661,1,2,0:0:0:0:
329,192,27758,1,2,0:0:0:0:
109,192,27758,128,0,28241:0:0:0:0:
475,192,27854,1,0,0:0:0:0:
256,192,27854,1,0,0:0:0:70:soft-hitclap2.wav
402,192,27951,1,2,0:0:0:0:
182,192,28048,128,0,28241:0:0:0:0:
329,192,28048,1,0,0:0:0:0:
256,192,28145,1,0,0:0:0:0:
402,192,28241,128,0,29790:0:0:0:0:
329,192,28241,1,0,0:0:0:0:
475,192,28241,1,0,0:0:0:0:
182,192,28435,1,2,0:0:0:0:
36,192,28629,1,0,0:0:0:0:
475,192,28629,1,0,0:0:0:0:
256,192,28822,1,2,0:0:0:0:
109,192,28822,1,0,0:0:0:0:
329,192,29016,1,0,0:0:0:0:
109,192,29016,128,0,29790:0:0:0:0:
182,192,29112,1,2,0:0:0:0:
256,192,29209,1,2,0:0:0:0:
182,192,29306,1,2,0:0:0:0:
475,192,29403,1,0,0:0:0:0:
36,192,29403,1,0,0:0:0:0:
329,192,29403,1,0,0:0:0:0:
256,192,29596,1,2,0:0:0:0:
329,192,29790,128,0,30564:0:0:0:0:
182,192,29790,1,0,0:0:0:0:
256,192,29983,1,2,0:0:0:0:
109,192,30177,1,0,0:0:0:0:
475,192,30177,1,0,0:0:0:0:
36,192,30370,128,0,30564:0:0:0:0:
256,192,30370,1,2,0:0:0:0:
402,192,30370,1,0,0:0:0:0:
182,192,30564,1,0,0:0:0:0:
475,192,30564,1,0,0:0:0:0:
402,192,30661,1,0,0:0:0:0:
109,192,30661,1,0,0:0:0:0:
256,192,30661,1,0,0:0:0:70:soft-hitclap2.wav
36,192,30854,1,0,0:0:0:0:
329,192,30854,1,0,0:0:0:0:
109,192,30951,1,0,0:0:0:0:
256,192,30951,1,0,0:0:0:70:soft-hitclap2.wav
402,192,30951,1,0,0:0:0:0:
182,192,31145,1,2,0:0:0:0:
475,192,31145,1,2,0:0:0:0:
402,192,31338,1,4,0:0:0:0:
329,192,31338,1,4,0:0:0:0:
109,192,31338,1,0,0:0:0:0:
36,192,31338,1,0,0:0:0:0:
182,192,31532,1,2,0:0:0:0:
256,192,31629,1,2,0:0:0:0:
329,192,31725,1,0,0:0:0:0:
475,192,31725,1,0,0:0:0:0:
182,192,31919,1,2,0:0:0:0:
36,192,32112,1,0,0:0:0:0:
329,192,32112,1,0,0:0:0:0:
256,192,32306,1,2,0:0:0:0:
402,192,32500,1,0,0:0:0:70:soft-hitclap2.wav
475,192,32500,1,0,0:0:0:0:
109,192,32500,1,0,0:0:0:0:
329,192,32693,1,0,0:0:0:0:
256,192,32790,1,2,0:0:0:0:
182,192,32887,128,0,34435:0:0:0:0:
475,192,32887,1,0,0:0:0:0:
329,192,32887,1,0,0:0:0:0:
109,192,33080,1,0,0:0:0:0:
36,192,33177,1,2,0:0:0:0:
256,192,33274,1,0,0:0:0:0:
402,192,33274,1,0,0:0:0:0:
109,192,33467,1,2,0:0:0:0:
256,192,33564,1,2,0:0:0:0:
329,192,33661,128,0,34435:0:0:0:0:
402,192,33661,1,0,0:0:0:0:
256,192,33758,1,2,0:0:0:0:
109,192,33854,1,2,0:0:0:0:
256,192,34048,1,0,0:0:0:70:soft-hitclap2.wav
475,192,34048,1,0,0:0:0:0:
36,192,34048,1,0,0:0:0:0:
109,192,34241,1,2,0:0:0:0:
402,192,34435,1,4,0:0:0:0:
475,192,34435,1,4,0:0:0:0:
109,192,34435,1,0,0:0:0:0:
36,192,34435,1,0,0:0:0:0:
182,192,34629,1,2,0:0:0:0:
256,192,34725,1,2,0:0:0:0:
329,192,34822,1,0,0:0:0:0:
475,192,34822,1,8,0:0:0:0:
36,192,34822,1,0,0:0:0:0:
256,192,35016,1,2,0:0:0:0:
109,192,35209,1,0,0:0:0:0:
182,192,35209,1,0,0:0:0:0:
329,192,35209,1,4,0:0:0:0:
402,192,35209,1,4,0:0:0:0:
36,192,35403,1,2,0:0:0:0:
109,192,35500,1,2,0:0:0:0:
182,192,35596,1,0,0:0:0:0:
402,192,35596,1,8,0:0:0:0:
475,192,35596,1,8,0:0:0:0:
256,192,35790,1,2,0:0:0:0:
109,192,35983,1,0,0:0:0:0:
36,192,35983,1,0,0:0:0:0:
402,192,35983,1,4,0:0:0:0:
475,192,35983,1,4,0:0:0:0:
182,192,36177,1,2,0:0:0:0:
329,192,36274,1,2,0:0:0:0:
475,192,36370,1,8,0:0:0:0:
36,192,36370,1,0,0:0:0:0:
256,192,36370,1,8,0:0:0:0:
182,192,36564,1,0,0:0:0:0:
256,192,36661,1,0,0:0:0:0:
329,192,36758,1,0,0:0:0:0:
475,192,36758,1,0,0:0:0:0:
36,192,36758,1,0,0:0:0:0:
109,192,36951,1,0,0:0:0:0:
256,192,36951,1,0,0:0:0:0:
475,192,37145,1,0,0:0:0:0:
329,192,37145,1,0,0:0:0:0:
36,192,37338,1,0,0:0:0:0:
182,192,37338,1,0,0:0:0:0:
109,192,37532,1,4,0:0:0:0:
256,192,37532,1,0,0:0:0:0:
475,192,37532,1,4,0:0:0:0:
402,192,37629,1,0,0:0:0:0:
36,192,37725,1,2,0:0:0:0:
475,192,37822,1,0,0:0:0:0:
109,192,37919,1,0,0:0:0:0:
256,192,37919,1,0,0:0:0:0:
402,192,37919,1,0,0:0:0:0:
182,192,38016,1,0,0:0:0:0:
329,192,38112,1,2,0:0:0:0:
109,192,38209,1,0,0:0:0:0:
256,192,38306,1,0,0:0:0:0:
475,192,38306,1,0,0:0:0:0:
36,192,38403,1,0,0:0:0:0:
182,192,38500,1,2,0:0:0:0:
475,192,38596,1,0,0:0:0:0:
329,192,38693,1,0,0:0:0:0:
109,192,38693,1,8,0:0:0:0:
36,192,38693,1,8,0:0:0:0:
402,192,38790,1,0,0:0:0:0:
475,192,38887,1,2,0:0:0:0:
402,192,38983,1,0,0:0:0:0:
329,192,39080,1,0,0:0:0:0:
36,192,39080,1,0,0:0:0:0:
109,192,39177,1,0,0:0:0:0:
182,192,39274,1,2,0:0:0:0:
329,192,39370,1,0,0:0:0:0:
402,192,39467,1,0,0:0:0:0:
109,192,39467,1,0,0:0:0:0:
36,192,39564,1,0,0:0:0:0:
182,192,39661,1,2,0:0:0:0:
329,192,39758,1,0,0:0:0:0:
109,192,39854,1,0,0:0:0:0:
402,192,39854,1,0,0:0:0:0:
36,192,39951,1,0,0:0:0:0:
256,192,39951,1,8,0:0:0:0:
475,192,39951,1,0,0:0:0:0:
109,192,40145,1,0,0:0:0:0:
402,192,40145,1,0,0:0:0:0:
36,192,40241,1,0,0:0:0:0:
256,192,40241,1,8,0:0:0:0:
475,192,40241,1,0,0:0:0:0:
182,192,40435,1,0,0:0:0:0:
329,192,40435,1,0,0:0:0:0:
256,192,40629,128,0,42177:0:0:0:0:
36,192,40629,1,0,0:0:0:0:
475,192,40629,1,4,0:0:0:0:
109,192,40725,1,0,0:0:0:0:
402,192,40822,1,2,0:0:0:0:
182,192,40919,1,2,0:0:0:0:
475,192,41016,1,0,0:0:0:0:
109,192,41016,1,0,0:0:0:0:
402,192,41112,1,0,0:0:0:0:
329,192,41209,1,2,0:0:0:0:
109,192,41306,1,2,0:0:0:0:
475,192,41403,1,0,0:0:0:0:
36,192,41403,1,0,0:0:0:0:
109,192,41500,1,2,0:0:0:0:
182,192,41596,1,2,0:0:0:0:
402,192,41693,1,2,0:0:0:0:
329,192,41790,1,8,0:0:0:0:
475,192,41790,1,8,0:0:0:0:
109,192,41790,1,0,0:0:0:0:
36,192,41983,1,2,0:0:0:0:
329,192,41983,1,0,0:0:0:0:
402,192,42177,1,4,0:0:0:0:
182,192,42177,128,0,43725:0:0:0:0:
109,192,42177,1,0,0:0:0:0:
36,192,42370,1,0,0:0:0:0:
329,192,42370,1,0,0:0:0:0:
109,192,42467,1,0,0:0:0:0:
402,192,42467,1,0,0:0:0:0:
36,192,42661,1,0,0:0:0:0:
475,192,42661,1,0,0:0:0:0:
402,192,42758,1,0,0:0:0:0:
109,192,42758,1,0,0:0:0:0:
329,192,42951,128,0,43725:0:0:0:0:
36,192,42951,1,0,0:0:0:0:
109,192,42951,1,0,0:0:0:0:
475,192,42951,1,0,0:0:0:0:
475,192,43145,1,0,0:0:0:0:
109,192,43145,1,0,0:0:0:0:
402,192,43145,1,0,0:0:0:0:
256,192,43338,1,8,0:0:0:0:
402,192,43338,1,8,0:0:0:0:
36,192,43338,1,0,0:0:0:0:
109,192,43532,1,2,0:0:0:0:
475,192,43532,1,2,0:0:0:0:
36,192,43532,1,0,0:0:0:0:
36,192,43725,1,0,0:0:0:0:
402,192,43725,1,4,0:0:0:0:
256,192,43725,1,4,0:0:0:0:
109,192,43822,1,2,0:0:0:0:
475,192,43919,1,2,0:0:0:0:
402,192,44016,1,2,0:0:0:0:
329,192,44112,1,0,0:0:0:0:
36,192,44112,1,0,0:0:0:0:
182,192,44209,1,0,0:0:0:0:
109,192,44306,1,2,0:0:0:0:
256,192,44403,1,0,0:0:0:0:
475,192,44500,1,0,0:0:0:0:
182,192,44500,1,0,0:0:0:0:
329,192,44596,1,0,0:0:0:0:
36,192,44693,1,2,0:0:0:0:
182,192,44790,1,0,0:0:0:0:
329,192,44887,1,8,0:0:0:0:
475,192,44887,1,8,0:0:0:0:
36,192,44887,1,0,0:0:0:0:
109,192,44983,1,0,0:0:0:0:
182,192,45080,1,2,0:0:0:0:
256,192,45177,1,0,0:0:0:0:
329,192,45274,1,0,0:0:0:0:
109,192,45274,1,0,0:0:0:0:
475,192,45274,128,0,45661:0:0:0:0:
402,192,45274,1,4,0:0:0:0:
182,192,45467,1,2,0:0:0:0:
329,192,45661,128,0,46048:0:0:0:0:
402,192,45661,1,4,0:0:0:0:
109,192,45661,1,8,0:0:0:0:
36,192,45661,1,8,0:0:0:0:
182,192,45854,1,2,0:0:0:0:
182,192,46048,128,0,46435:0:0:0:0:
402,192,46048,1,4,0:0:0:0:
36,192,46048,1,0,0:0:0:0:
475,192,46145,1,0,0:0:0:0:
109,192,46145,1,0,0:0:0:0:
256,192,46241,1,2,0:0:0:0:
329,192,46338,1,0,0:0:0:0:
402,192,46435,1,8,0:0:0:0:
109,192,46435,1,0,0:0:0:0:
36,192,46435,128,0,46822:0:0:0:0:
475,192,46435,1,8,0:0:0:0:
256,192,46532,1,0,0:0:0:0:
182,192,46629,1,2,0:0:0:0:
329,192,46725,1,0,0:0:0:0:
475,192,46822,128,0,48370:0:0:0:0:
402,192,46822,128,0,48370:0:0:0:0:
109,192,46822,1,0,0:0:0:0:
256,192,46822,1,0,0:0:0:0:
182,192,47016,1,2,0:0:0:0:
256,192,47112,1,0,0:0:0:0:
182,192,47209,1,8,0:0:0:0:
329,192,47209,1,8,0:0:0:0:
36,192,47209,1,0,0:0:0:0:
109,192,47403,1,2,0:0:0:0:
36,192,47500,1,2,0:0:0:0:
182,192,47596,128,0,47693:0:0:0:0:
329,192,47693,128,0,47790:0:0:0:0:
109,192,47790,128,0,47887:0:0:0:0:
256,192,47887,128,0,47983:0:0:0:0:
36,192,47983,128,0,48080:0:0:0:0:
182,192,48080,128,0,48177:0:0:0:0:
329,192,48177,128,0,48274:0:0:0:0:
182,192,48274,128,0,48370:0:0:0:0:
36,192,48370,1,0,0:0:0:0:
329,192,48370,1,4,0:0:0:0:
109,192,48661,1,0,0:0:0:0:
256,192,48661,1,4,0:0:0:0:
402,192,48661,1,0,0:0:0:0:
182,192,48951,1,0,0:0:0:0:
329,192,48951,1,4,0:0:0:0:
475,192,48951,1,0,0:0:0:0:
109,192,49048,1,0,0:0:0:70:soft-hitnormal2.wav
36,192,49145,1,0,0:0:0:70:soft-hitnormal2.wav
256,192,49241,1,0,0:0:0:70:soft-hitnormal2.wav
182,192,49338,1,0,0:0:0:70:soft-hitnormal2.wav
329,192,49435,1,0,0:0:0:70:soft-hitnormal2.wav
256,192,49532,1,0,0:0:0:0:
36,192,49532,1,0,0:0:0:0:
402,192,49629,1,0,0:0:0:70:soft-hitnormal2.wav
109,192,49725,1,0,0:0:0:0:
329,192,49725,1,0,0:0:0:0:
256,192,49822,1,0,0:0:0:70:soft-hitnormal2.wav
475,192,49919,1,0,0:0:0:0:
109,192,49919,1,0,0:0:0:0:
329,192,49919,1,0,0:0:0:0:
36,192,50016,1,0,0:0:0:0:
182,192,50112,1,2,0:0:0:0:
36,192,50209,1,0,0:0:0:0:
329,192,50306,1,0,0:0:0:0:
475,192,50306,1,8,0:0:0:0:
109,192,50306,1,0,0:0:0:0:
402,192,50403,1,0,0:0:0:0:
256,192,50500,1,2,0:0:0:0:
109,192,50596,1,0,0:0:0:0:
36,192,50693,1,0,0:0:0:0:
329,192,50693,1,0,0:0:0:0:
109,192,50790,1,0,0:0:0:0:
256,192,50790,1,0,0:0:0:0:
256,192,50983,1,0,0:0:0:0:
402,192,50983,1,0,0:0:0:0:
36,192,51080,1,8,0:0:0:0:
182,192,51080,1,8,0:0:0:0:
475,192,51080,1,0,0:0:0:0:
109,192,51274,1,0,0:0:0:0:
256,192,51274,1,2,0:0:0:0:
475,192,51467,1,0,0:0:0:0:
36,192,51467,1,0,0:0:0:0:
329,192,51467,1,4,0:0:0:0:
402,192,51661,1,0,0:0:0:0:
182,192,51661,1,2,0:0:0:0:
329,192,51758,1,0,0:0:0:0:
109,192,51758,1,2,0:0:0:0:
475,192,51854,1,0,0:0:0:0:
182,192,51854,1,8,0:0:0:0:
36,192,51854,1,0,0:0:0:0:
256,192,52048,1,0,0:0:0:0:
109,192,52048,1,0,0:0:0:0:
36,192,52241,128,0,53016:0:0:0:0:
182,192,52241,1,0,0:0:0:0:
329,192,52241,1,0,0:0:0:0:
402,192,52338,1,0,0:0:0:0:
256,192,52338,1,0,0:0:0:0:
256,192,52532,1,0,0:0:0:0:
402,192,52532,1,0,0:0:0:0:
329,192,52629,1,0,0:0:0:0:
475,192,52629,1,0,0:0:0:0:
109,192,52629,1,0,0:0:0:0:
182,192,52822,1,2,0:0:0:0:
402,192,52822,1,2,0:0:0:0:
329,192,53016,1,0,0:0:0:0:
475,192,53016,1,0,0:0:0:0:
109,192,53016,1,0,0:0:0:0:
182,192,53209,1,2,0:0:0:0:
402,192,53209,1,0,0:0:0:0:
256,192,53306,1,2,0:0:0:0:
109,192,53403,1,0,0:0:0:0:
36,192,53403,1,0,0:0:0:0:
329,192,53403,1,0,0:0:0:0:
182,192,53500,1,0,0:0:0:0:
475,192,53500,1,0,0:0:0:0:
402,192,53693,1,0,0:0:0:0:
109,192,53693,1,0,0:0:0:0:
475,192,53790,1,0,0:0:0:0:
182,192,53790,1,0,0:0:0:0:
109,192,53887,1,0,0:0:0:0:
402,192,53887,1,0,0:0:0:0:
256,192,53983,1,2,0:0:0:0:
36,192,54080,1,0,0:0:0:0:
182,192,54080,1,0,0:0:0:0:
402,192,54177,128,8,54274:0:0:0:0:
256,192,54177,1,8,0:0:0:0:
109,192,54274,128,0,54370:0:0:0:0:
329,192,54370,128,0,54467:0:0:0:0:
36,192,54467,128,0,54564:0:0:0:0:
256,192,54564,128,0,54661:0:0:0:0:
109,192,54661,128,0,54758:0:0:0:0:
475,192,54758,128,0,54854:0:0:0:0:
329,192,54854,128,0,54951:0:0:0:0:
182,192,54951,128,4,55048:0:0:0:0:
402,192,55048,128,0,55145:0:0:0:0:
109,192,55145,128,0,55241:0:0:0:0:
256,192,55241,128,0,55338:0:0:0:0:
402,192,55338,128,0,55725:0:0:0:0:
36,192,55338,1,0,0:0:0:0:
475,192,55338,1,4,0:0:0:0:
109,192,55435,128,0,55822:0:0:0:0:
329,192,55532,128,0,55919:0:0:0:0:
182,192,55629,128,0,56016:0:0:0:0:
256,192,55725,128,0,56112:0:0:0:0:
36,192,55725,1,0,0:0:0:0:
475,192,55725,1,4,0:0:0:0:
402,192,55822,1,0,0:0:0:0:
109,192,55919,1,0,0:0:0:0:
329,192,56016,1,0,0:0:0:0:
182,192,56112,1,0,0:0:0:0:
475,192,56112,1,4,0:0:0:0:
36,192,56112,1,0,0:0:0:0:
109,192,56112,128,0,56887:0:0:0:0:
402,192,56209,1,0,0:0:0:0:
329,192,56209,1,0,0:0:0:0:
256,192,56403,1,0,0:0:0:0:
329,192,56403,1,0,0:0:0:0:
475,192,56500,1,8,0:0:0:0:
182,192,56500,1,8,0:0:0:0:
36,192,56500,1,0,0:0:0:0:
329,192,56596,1,0,0:0:0:0:
256,192,56693,1,2,0:0:0:0:
402,192,56693,1,0,0:0:0:0:
182,192,56790,1,0,0:0:0:0:
329,192,56887,128,0,57661:0:0:0:0:
36,192,56887,1,0,0:0:0:0:
475,192,56887,1,0,0:0:0:0:
402,192,56983,1,0,0:0:0:0:
109,192,56983,1,0,0:0:0:0:
109,192,57177,1,0,0:0:0:0:
402,192,57177,1,0,0:0:0:0:
36,192,57274,1,0,0:0:0:0:
475,192,57274,1,8,0:0:0:0:
256,192,57274,1,8,0:0:0:0:
182,192,57370,1,2,0:0:0:0:
109,192,57467,1,0,0:0:0:0:
402,192,57467,1,0,0:0:0:0:
256,192,57564,1,2,0:0:0:0:
182,192,57661,1,4,0:0:0:0:
475,192,57661,1,4,0:0:0:0:
36,192,57854,1,2,0:0:0:0:
329,192,57854,1,2,0:0:0:0:
109,192,57951,1,2,0:0:0:0:
402,192,57951,1,2,0:0:0:0:
475,192,58048,1,8,0:0:0:0:
182,192,58048,1,0,0:0:0:0:
256,192,58048,1,0,0:0:0:0:
109,192,58241,1,2,0:0:0:0:
402,192,58241,1,2,0:0:0:0:
36,192,58435,1,2,0:0:0:0:
475,192,58435,1,2,0:0:0:0:
402,192,58532,1,0,0:0:0:0:
109,192,58532,1,0,0:0:0:0:
402,192,58725,1,2,0:0:0:0:
109,192,58725,1,2,0:0:0:0:
182,192,58822,1,8,0:0:0:0:
36,192,58822,1,8,0:0:0:0:
475,192,58822,1,0,0:0:0:0:
109,192,59016,1,2,0:0:0:0:
329,192,59016,1,2,0:0:0:0:
182,192,59112,1,2,0:0:0:0:
402,192,59112,1,2,0:0:0:0:
256,192,59209,1,4,0:0:0:0:
475,192,59209,1,0,0:0:0:0:
36,192,59209,1,0,0:0:0:0:
182,192,59403,1,0,0:0:0:0:
475,192,59403,1,0,0:0:0:0:
109,192,59500,1,2,0:0:0:0:
402,192,59500,1,2,0:0:0:0:
36,192,59596,1,0,0:0:0:0:
329,192,59596,1,0,0:0:0:0:
182,192,59790,1,2,0:0:0:0:
475,192,59790,1,2,0:0:0:0:
329,192,59983,1,0,0:0:0:0:
402,192,59983,1,0,0:0:0:0:
109,192,60080,1,2,0:0:0:0:
36,192,60080,1,2,0:0:0:0:
182,192,60177,1,2,0:0:0:0:
256,192,60177,1,2,0:0:0:0:
475,192,60274,1,0,0:0:0:0:
402,192,60274,1,0,0:0:0:0:
182,192,60370,1,8,0:0:0:0:
36,192,60370,1,8,0:0:0:0:
256,192,60467,1,10,0:0:0:0:
402,192,60467,1,2,0:0:0:0:
329,192,60564,1,2,0:0:0:0:
475,192,60564,1,2,0:0:0:0:
182,192,60661,1,2,0:0:0:0:
36,192,60661,1,2,0:0:0:0:
402,192,60758,128,0,60854:0:0:0:0:
109,192,60854,128,0,60951:0:0:0:0:
475,192,60951,128,0,61048:0:0:0:0:
36,192,61048,128,0,61145:0:0:0:0:
402,192,61145,128,4,61241:0:0:0:0:
109,192,61241,128,0,61338:0:0:0:0:
329,192,61338,128,0,61435:0:0:0:0:
182,192,61435,128,0,61532:0:0:0:0:
36,192,61532,128,0,62306:0:0:0:0:
475,192,61532,128,0,62306:0:0:0:0:
402,192,61532,128,4,61629:0:0:0:0:
329,192,61629,128,0,61725:0:0:0:0:
109,192,61725,128,0,61822:0:0:0:0:
182,192,61822,128,0,61919:0:0:0:0:
402,192,61919,128,4,62016:0:0:0:0:
329,192,62016,128,0,62112:0:0:0:0:
109,192,62112,128,0,62209:0:0:0:0:
182,192,62209,128,0,62306:0:0:0:0:
402,192,62306,1,0,0:0:0:0:
256,192,62306,1,4,0:0:0:0:
182,192,62403,1,0,0:0:0:0:
36,192,62403,1,0,0:0:0:0:
109,192,62596,1,0,0:0:0:0:
256,192,62596,1,0,0:0:0:0:
329,192,62693,1,8,0:0:0:0:
475,192,62693,1,8,0:0:0:0:
36,192,62693,1,0,0:0:0:0:
402,192,62790,1,2,0:0:0:0:
109,192,62790,1,2,0:0:0:0:
182,192,62887,1,2,0:0:0:0:
329,192,62887,1,2,0:0:0:0:
402,192,63080,1,0,0:0:0:0:
109,192,63080,1,0,0:0:0:0:
36,192,63177,128,8,63370:0:0:0:0:
475,192,63177,128,8,63370:0:0:0:0:
109,192,63370,1,0,0:0:0:0:
402,192,63370,1,0,0:0:0:0:
329,192,63467,128,0,63854:0:0:0:0:
182,192,63467,128,0,63854:0:0:0:0:
256,192,63467,1,0,0:0:0:0:
36,192,63467,1,8,0:0:0:0:
475,192,63467,1,8,0:0:0:0:
109,192,63661,1,2,0:0:0:0:
402,192,63661,1,2,0:0:0:0:
256,192,63758,1,2,0:0:0:0:
36,192,63854,1,0,0:0:0:0:
475,192,63854,1,0,0:0:0:0:
109,192,63854,128,0,64241:0:0:0:0:
402,192,63854,128,0,64241:0:0:0:0:
256,192,64048,1,2,0:0:0:0:
182,192,64145,1,2,0:0:0:0:
329,192,64145,1,2,0:0:0:0:
475,192,64241,1,8,0:0:0:0:
36,192,64241,1,8,0:0:0:0:
256,192,64241,1,0,0:0:0:0:
109,192,64435,1,2,0:0:0:0:
402,192,64435,1,2,0:0:0:0:
36,192,64629,1,2,0:0:0:0:
329,192,64629,1,2,0:0:0:0:
109,192,64725,1,0,0:0:0:0:
402,192,64725,1,0,0:0:0:0:
256,192,64822,1,2,0:0:0:0:
109,192,64919,1,0,0:0:0:0:
402,192,64919,1,0,0:0:0:0:
36,192,65016,1,8,0:0:0:0:
329,192,65016,1,8,0:0:0:0:
475,192,65112,1,2,0:0:0:0:
182,192,65209,1,2,0:0:0:0:
36,192,65306,1,2,0:0:0:0:
402,192,65403,128,0,65500:0:0:0:0:
256,192,65403,1,0,0:0:0:0:
109,192,65500,128,0,65596:0:0:0:0:
329,192,65596,128,0,65693:0:0:0:0:
36,192,65693,128,0,65790:0:0:0:0:
475,192,65790,128,8,65887:0:0:0:0:
182,192,65887,128,0,65983:0:0:0:0:
402,192,65983,128,0,66080:0:0:0:0:
109,192,66080,128,0,66177:0:0:0:0:
329,192,66177,128,0,66274:0:0:0:0:
182,192,66274,128,0,66370:0:0:0:0:
402,192,66370,128,0,66467:0:0:0:0:
109,192,66467,128,0,66564:0:0:0:0:
475,192,66564,128,8,66661:0:0:0:0:
36,192,66661,128,0,66758:0:0:0:0:
402,192,66758,128,0,66854:0:0:0:0:
109,192,66854,128,0,66951:0:0:0:0:
36,192,66951,1,0,0:0:0:0:
475,192,66951,1,4,0:0:0:0:
256,192,66951,1,4,0:0:0:0:
36,192,67145,1,0,0:0:0:0:
329,192,67145,1,0,0:0:0:0:
109,192,67241,1,2,0:0:0:0:
402,192,67241,1,2,0:0:0:0:
475,192,67338,128,0,67532:0:0:0:0:
182,192,67338,128,0,67532:0:0:0:0:
36,192,67338,1,0,0:0:0:0:
329,192,67338,1,4,0:0:0:0:
402,192,67532,1,2,0:0:0:0:
109,192,67532,1,2,0:0:0:0:
36,192,67725,1,8,0:0:0:0:
402,192,67822,1,8,0:0:0:0:
109,192,67822,1,8,0:0:0:0:
402,192,68016,1,2,0:0:0:0:
182,192,68112,1,8,0:0:0:0:
475,192,68112,1,0,0:0:0:0:
109,192,68306,1,2,0:0:0:0:
402,192,68306,1,2,0:0:0:0:
475,192,68500,128,0,70048:0:0:0:0:
36,192,68500,1,0,0:0:0:0:
329,192,68500,1,4,0:0:0:0:
182,192,68500,1,4,0:0:0:0:
109,192,68596,1,0,0:0:0:0:
402,192,68596,1,0,0:0:0:0:
109,192,68790,1,0,0:0:0:0:
329,192,68790,1,0,0:0:0:0:
256,192,68887,1,8,0:0:0:0:
402,192,68887,1,8,0:0:0:0:
36,192,68887,1,0,0:0:0:0:
329,192,69080,1,2,0:0:0:0:
182,192,69080,1,2,0:0:0:0:
36,192,69274,128,0,70048:0:0:0:0:
402,192,69274,1,0,0:0:0:0:
109,192,69274,1,0,0:0:0:0:
256,192,69370,1,0,0:0:0:70:soft-hitclap2.wav
182,192,69467,1,0,0:0:0:70:soft-hitnormal.wav
329,192,69564,1,2,0:0:0:0:
109,192,69661,1,0,0:0:0:0:
402,192,69661,1,8,0:0:0:0:
256,192,69661,1,8,0:0:0:0:
182,192,69854,1,2,0:0:0:0:
329,192,69854,1,2,0:0:0:0:
109,192,70048,1,0,0:0:0:0:
402,192,70048,1,2,0:0:0:0:
256,192,70048,128,4,71596:0:0:0:0:
182,192,70241,1,0,0:0:0:0:
329,192,70241,1,0,0:0:0:0:
109,192,70338,1,0,0:0:0:0:
402,192,70338,1,2,0:0:0:0:
36,192,70435,1,8,0:0:0:0:
475,192,70435,1,8,0:0:0:0:
109,192,70629,1,2,0:0:0:0:
402,192,70629,1,2,0:0:0:0:
182,192,70822,1,2,0:0:0:0:
475,192,70822,1,2,0:0:0:0:
109,192,70919,1,0,0:0:0:0:
402,192,70919,1,0,0:0:0:0:
109,192,71112,1,0,0:0:0:0:
402,192,71112,1,0,0:0:0:0:
182,192,71209,1,8,0:0:0:0:
475,192,71209,1,8,0:0:0:0:
109,192,71306,1,2,0:0:0:0:
36,192,71403,1,0,0:0:0:0:
329,192,71403,1,0,0:0:0:0:
402,192,71500,1,0,0:0:0:0:
109,192,71500,1,0,0:0:0:0:
475,192,71596,1,8,0:0:0:0:
182,192,71596,1,4,0:0:0:0:
36,192,71596,1,4,0:0:0:0:
109,192,71693,1,0,0:0:0:0:
402,192,71790,1,2,0:0:0:0:
182,192,71887,1,0,0:0:0:0:
329,192,71983,1,8,0:0:0:0:
475,192,71983,1,8,0:0:0:0:
36,192,71983,1,0,0:0:0:0:
109,192,72177,1,2,0:0:0:0:
256,192,72177,1,2,0:0:0:0:
36,192,72370,1,0,0:0:0:0:
402,192,72370,1,0,0:0:0:0:
329,192,72467,1,0,0:0:0:0:
475,192,72467,1,0,0:0:0:0:
109,192,72564,1,2,0:0:0:0:
402,192,72661,1,0,0:0:0:0:
256,192,72661,1,0,0:0:0:0:
36,192,72758,1,8,0:0:0:0:
475,192,72758,1,0,0:0:0:0:
402,192,72854,1,0,0:0:0:0:
182,192,72951,1,8,0:0:0:0:
256,192,72951,1,0,0:0:0:0:
475,192,73048,1,0,0:0:0:0:
329,192,73145,1,4,0:0:0:0:
109,192,73145,1,0,0:0:0:0:
36,192,73145,1,0,0:0:0:0:
402,192,73145,1,8,0:0:0:0:
109,192,73435,1,0,0:0:0:0:
182,192,73435,1,0,0:0:0:0:
402,192,73435,1,8,0:0:0:0:
475,192,73435,1,4,0:0:0:0:
402,192,73725,1,8,0:0:0:0:
329,192,73725,1,4,0:0:0:0:
109,192,73725,1,0,0:0:0:0:
36,192,73725,1,0,0:0:0:0:
182,192,73919,1,0,0:0:0:0:
256,192,73919,1,0,0:0:0:0:
402,192,74016,1,0,0:0:0:0:
109,192,74112,1,0,0:0:0:0:
329,192,74209,1,0,0:0:0:0:
36,192,74306,1,8,0:0:0:0:
182,192,74306,1,8,0:0:0:0:
475,192,74306,1,0,0:0:0:0:
256,192,74403,1,0,0:0:0:0:
402,192,74500,1,0,0:0:0:0:
182,192,74596,1,0,0:0:0:0:
329,192,74693,1,4,0:0:0:0:
475,192,74693,1,4,0:0:0:0:
36,192,74693,1,0,0:0:0:0:
109,192,74693,128,0,76241:0:0:0:0:
256,192,74790,1,0,0:0:0:0:
182,192,74887,1,2,0:0:0:0:
256,192,74983,1,0,0:0:0:0:
329,192,75080,1,8,0:0:0:0:
475,192,75080,1,8,0:0:0:0:
36,192,75080,1,0,0:0:0:0:
182,192,75177,1,0,0:0:0:0:
402,192,75274,1,2,0:0:0:0:
256,192,75370,1,0,0:0:0:0:
475,192,75467,1,0,0:0:0:0:
36,192,75467,1,0,0:0:0:0:
329,192,75564,1,0,0:0:0:0:
256,192,75661,1,2,0:0:0:0:
182,192,75758,1,0,0:0:0:0:
329,192,75854,1,10,0:0:0:0:
475,192,75854,1,10,0:0:0:0:
36,192,75854,1,0,0:0:0:0:
182,192,75951,1,0,0:0:0:0:
402,192,76048,1,2,0:0:0:0:
256,192,76145,1,0,0:0:0:0:
36,192,76241,1,4,0:0:0:0:
475,192,76241,1,0,0:0:0:0:
182,192,76241,1,4,0:0:0:0:
402,192,76338,1,0,0:0:0:0:
329,192,76435,1,0,0:0:0:0:
182,192,76435,1,0,0:0:0:0:
109,192,76532,1,0,0:0:0:0:
36,192,76629,1,0,0:0:0:0:
256,192,76629,1,8,0:0:0:0:
475,192,76629,1,8,0:0:0:0:
329,192,76725,1,0,0:0:0:0:
182,192,76822,1,0,0:0:0:0:
329,192,76919,1,0,0:0:0:0:
36,192,77016,128,0,77112:0:0:0:0:
256,192,77016,1,4,0:0:0:0:
475,192,77112,128,8,77209:0:0:0:0:
36,192,77209,128,0,77790:0:0:0:0:
475,192,77306,128,0,77790:0:0:0:0:
109,192,77403,128,8,77500:0:0:0:0:
256,192,77403,1,4,0:0:0:0:
402,192,77500,128,0,77596:0:0:0:0:
109,192,77596,128,0,77790:0:0:0:0:
402,192,77693,128,0,77790:0:0:0:0:
256,192,77790,128,0,78370:0:0:0:0:
182,192,77790,1,0,0:0:0:0:
329,192,77887,1,0,0:0:0:0:
109,192,77983,1,2,0:0:0:0:
402,192,78080,1,2,0:0:0:0:
36,192,78177,1,0,0:0:0:0:
475,192,78274,1,0,0:0:0:0:
402,192,78370,128,2,78564:0:0:0:0:
109,192,78370,128,2,78564:0:0:0:0:
256,192,78564,1,0,0:0:0:0:
182,192,78758,128,2,78951:0:0:0:0:
475,192,78758,128,2,78951:0:0:0:0:
329,192,78951,1,0,0:0:0:0:
402,192,79145,128,2,79338:0:0:0:0:
109,192,79145,128,2,79338:0:0:0:0:
256,192,79338,1,0,0:0:0:0:
329,192,79532,128,2,79725:0:0:0:0:
36,192,79532,128,2,79725:0:0:0:0:
182,192,79725,1,0,0:0:0:0:
109,192,79919,128,0,80112:0:0:0:0:
402,192,79919,128,0,80112:0:0:0:0:
256,192,80112,1,0,0:0:0:0:
182,192,80306,128,2,80500:0:0:0:0:
475,192,80306,128,2,80500:0:0:0:0:
36,192,80500,1,0,0:0:0:0:
329,192,80500,1,0,0:0:0:0:
109,192,80596,1,0,0:0:0:0:
256,192,80693,1,2,0:0:0:0:
402,192,80790,1,2,0:0:0:0:
36,192,80887,1,0,0:0:0:0:
182,192,80887,1,4,0:0:0:0:
475,192,80887,1,0,0:0:0:0:
329,192,80887,1,4,0:0:0:0:
256,192,80887,128,2,81467:0:0:0:0:
109,192,81080,1,2,0:0:0:0:
182,192,81177,1,2,0:0:0:0:
329,192,81274,1,0,0:0:0:0:
402,192,81274,1,0,0:0:0:0:
36,192,81467,128,2,81661:0:0:0:0:
475,192,81467,128,2,81661:0:0:0:0:
109,192,81467,1,0,0:0:0:0:
402,192,81564,1,2,0:0:0:0:
109,192,81661,1,0,0:0:0:0:
109,192,81854,128,2,82048:0:0:0:0:
402,192,81854,128,2,82048:0:0:0:0:
182,192,81854,1,2,0:0:0:0:
256,192,81951,1,2,0:0:0:0:
329,192,82048,1,0,0:0:0:0:
256,192,82145,1,0,0:0:0:0:
36,192,82241,128,2,83016:0:0:0:0:
475,192,82241,128,2,83016:0:0:0:0:
329,192,82241,1,0,0:0:0:0:
182,192,82241,1,0,0:0:0:0:
256,192,82435,1,0,0:0:0:0:
402,192,82629,128,2,83403:0:0:0:0:
109,192,82629,128,2,83403:0:0:0:0:
182,192,82629,1,0,0:0:0:0:
329,192,82629,1,0,0:0:0:0:
182,192,83016,128,2,83596:0:0:0:0:
329,192,83016,128,2,83596:0:0:0:0:
36,192,83209,1,0,0:0:0:0:
475,192,83209,1,0,0:0:0:0:
256,192,83403,1,0,0:0:0:0:
256,192,83596,128,4,83983:0:0:0:0:
402,192,83596,1,0,0:0:0:0:
109,192,83596,1,0,0:0:0:0:
36,192,83693,1,0,0:0:0:0:
475,192,83693,1,0,0:0:0:0:
402,192,83790,1,0,0:0:0:0:
109,192,83790,1,0,0:0:0:0:
329,192,83887,1,0,0:0:0:0:
182,192,83887,1,0,0:0:0:0:
475,192,83983,128,0,84370:0:0:0:0:
329,192,84080,128,0,84370:0:0:0:0:
182,192,84177,128,0,84370:0:0:0:0:
36,192,84274,128,0,84370:0:0:0:0:
402,192,84370,1,0,0:0:0:0:
109,192,84370,1,0,0:0:0:0:
256,192,84370,128,0,89209:0:0:0:0:
