osu file format v12

[General]
AudioFilename: fripside - black bullet.mp3
AudioLeadIn: 0
PreviewTime: 49532
Countdown: 0
SampleSet: Normal
StackLeniency: 0.7
Mode: 1
LetterboxInBreaks: 0
WidescreenStoryboard: 1

[Editor]
DistanceSpacing: 1.2
BeatDivisor: 4
GridSize: 8
TimelineZoom: 2.1

[Metadata]
Title:black bullet (TV Size)
TitleUnicode:black bullet (TV Size)
Artist:fripSide
ArtistUnicode:fripSide
Creator:Chloe
Version:Muzukashii
Source:ブラック・ブレット
Tags:Kuro no Juudan Kawaiwkyik Kodora Irreversible No_Gu Hanzer 黒の銃弾 Sharlo KanaRin climbb65588
BeatmapID:415202
BeatmapSetID:157168

[Difficulty]
HPDrainRate:5
CircleSize:4
OverallDifficulty:4
ApproachRate:5
SliderMultiplier:1.4
SliderTickRate:1

[Events]
//Background and Video events
0,0,"blackBulletTaiko.jpg",0,0
//Break Periods
//Storyboard Layer 0 (Background)
//Storyboard Layer 1 (Fail)
//Storyboard Layer 2 (Pass)
//Storyboard Layer 3 (Foreground)
//Storyboard Sound Samples
//Background Colour Transformations
3,100,163,162,255

[TimingPoints]
371,387.096774193548,4,1,10,85,1,0
49919,-100,4,1,10,85,0,1
84370,-100,4,1,10,85,0,0

[Colours]
Combo1 : 27,230,245
Combo2 : 158,194,243
Combo3 : 237,221,143
Combo4 : 254,180,222

[HitObjects]
280,272,371,5,4,0:0:0:0:
400,264,758,1,8,0:0:0:0:
328,232,951,1,0,0:0:0:0:
400,264,1338,1,0,0:0:0:0:
368,232,1532,1,8,0:0:0:0:
400,264,1725,1,0,0:0:0:0:
368,232,2112,1,0,0:0:0:0:
328,232,2500,1,8,0:0:0:0:
368,232,2887,1,8,0:0:0:0:
336,288,3274,1,4,0:0:0:0:
272,272,3661,1,0,0:0:0:0:
424,224,3854,1,8,0:0:0:0:
368,232,4048,1,0,0:0:0:0:
320,256,4435,1,8,0:0:0:0:
368,232,4822,1,4,0:0:0:0:
368,232,5209,1,4,0:0:0:0:
368,232,5596,1,4,0:0:0:0:
368,232,5983,1,4,0:0:0:0:
368,224,6177,1,12,0:0:0:0:
336,232,6564,5,4,0:0:0:0:
296,232,6951,1,0,0:0:0:0:
320,200,7144,1,8,0:0:0:0:
328,208,7532,1,8,0:0:0:0:
392,112,7919,1,8,0:0:0:0:
360,80,8306,1,8,0:0:0:0:
392,112,8693,1,8,0:0:0:0:
336,176,9080,1,8,0:0:0:0:
280,192,9274,1,8,0:0:0:0:
320,176,9661,1,4,0:0:0:0:
384,168,10048,1,0,0:0:0:0:
320,176,10241,1,8,0:0:0:0:
392,112,10629,1,8,0:0:0:0:
368,80,11015,1,8,0:0:0:0:
368,80,11403,1,8,0:0:0:0:
360,120,11790,1,8,0:0:0:0:
360,160,12177,1,8,0:0:0:0:
272,136,12370,1,8,0:0:0:0:
320,160,12758,1,4,0:0:0:0:
256,192,13145,1,0,0:0:0:0:
376,232,13532,1,0,0:0:0:0:
376,232,13919,1,0,0:0:0:0:
368,384,14112,1,8,0:0:0:0:
336,256,14306,1,0,0:0:0:0:
336,256,14693,1,0,0:0:0:0:
336,256,15080,1,0,0:0:0:0:
376,232,15467,1,0,0:0:0:0:
336,256,15661,1,8,0:0:0:0:
256,192,15854,1,0,0:0:0:0:
376,232,16241,1,0,0:0:0:0:
376,232,16628,1,0,0:0:0:0:
336,256,17015,1,0,0:0:0:0:
336,256,17402,1,0,0:0:0:0:
336,256,17789,1,0,0:0:0:0:
256,192,18177,1,0,0:0:0:0:
440,224,18370,1,8,0:0:0:0:
376,232,18564,1,0,0:0:0:0:
376,232,18951,1,4,0:0:0:0:
336,256,19338,1,0,0:0:0:0:
336,256,19725,1,0,0:0:0:0:
400,256,19919,1,8,0:0:0:0:
336,256,20112,1,0,0:0:0:0:
256,192,20500,1,0,0:0:0:0:
376,232,20887,1,0,0:0:0:0:
376,232,21274,1,0,0:0:0:0:
432,240,21467,1,8,0:0:0:0:
336,256,21661,1,0,0:0:0:0:
336,256,22048,1,0,0:0:0:0:
336,256,22435,1,0,0:0:0:0:
432,240,22629,1,8,0:0:0:0:
256,192,22822,1,0,0:0:0:0:
376,232,23209,1,0,0:0:0:0:
408,280,23403,1,8,0:0:0:0:
376,232,23596,1,0,0:0:0:0:
336,256,23983,1,0,0:0:0:0:
432,240,24177,1,8,0:0:0:0:
336,256,24370,1,0,0:0:0:0:
376,232,24564,1,8,0:0:0:0:
336,256,24757,1,8,0:0:0:0:
336,256,24951,1,8,0:0:0:0:
376,232,25145,1,4,0:0:0:0:
176,192,25532,1,8,0:0:0:0:
272,208,25919,1,0,0:0:0:0:
128,176,26210,1,0,0:0:0:0:
80,176,26306,1,8,0:0:0:0:
0,128,26500,1,8,0:0:0:0:
0,128,26693,1,0,0:0:0:0:
160,72,27080,1,8,0:0:0:0:
192,152,27370,1,8,0:0:0:0:
144,160,27467,1,0,0:0:0:0:
224,104,27661,1,0,0:0:0:0:
144,160,27854,1,8,0:0:0:0:
144,160,28241,1,0,0:0:0:0:
120,144,28532,1,0,0:0:0:0:
96,104,28629,1,8,0:0:0:0:
96,104,28822,1,8,0:0:0:0:
128,96,29016,1,0,0:0:0:0:
96,104,29403,1,8,0:0:0:0:
232,128,29790,1,0,0:0:0:0:
152,224,30177,1,8,0:0:0:0:
152,224,30370,1,8,0:0:0:0:
112,136,30564,1,0,0:0:0:0:
88,72,30758,1,8,0:0:0:0:
128,96,30951,1,8,0:0:0:0:
32,144,31338,1,4,0:0:0:0:
224,152,31725,1,8,0:0:0:0:
224,176,32112,1,0,0:0:0:0:
152,144,32306,1,0,0:0:0:0:
152,144,32403,1,0,0:0:0:0:
152,144,32500,1,8,0:0:0:0:
184,144,32693,1,0,0:0:0:0:
184,144,32887,1,0,0:0:0:0:
264,192,33274,1,8,0:0:0:0:
64,192,33661,1,0,0:0:0:0:
120,208,33854,1,0,0:0:0:0:
152,264,34048,1,8,0:0:0:0:
160,192,34241,1,8,0:0:0:0:
160,192,34435,1,4,0:0:0:0:
184,160,34725,1,0,0:0:0:0:
184,160,34822,1,8,0:0:0:0:
184,160,35016,1,8,0:0:0:0:
184,160,35209,1,4,0:0:0:0:
96,96,35500,1,0,0:0:0:0:
152,136,35596,1,8,0:0:0:0:
240,152,35790,1,8,0:0:0:0:
144,64,35983,1,4,0:0:0:0:
144,88,36274,1,8,0:0:0:0:
240,152,36370,1,8,0:0:0:0:
152,136,36564,1,8,0:0:0:0:
120,192,36758,1,0,0:0:0:0:
88,96,36951,1,0,0:0:0:0:
176,0,37145,1,8,0:0:0:0:
176,0,37338,1,8,0:0:0:0:
152,136,37532,1,4,0:0:0:0:
152,136,37919,1,8,0:0:0:0:
152,136,38306,1,0,0:0:0:0:
152,136,38693,1,8,0:0:0:0:
128,152,38887,1,0,0:0:0:0:
152,136,38983,1,0,0:0:0:0:
200,120,39080,1,0,0:0:0:0:
152,136,39370,1,0,0:0:0:0:
152,136,39467,1,8,0:0:0:0:
216,192,39661,1,8,0:0:0:0:
168,144,39854,1,0,0:0:0:0:
104,104,40241,1,8,0:0:0:0:
208,96,40435,1,8,0:0:0:0:
208,96,40629,1,4,0:0:0:0:
8,160,41016,1,8,0:0:0:0:
40,152,41403,1,0,0:0:0:0:
40,152,41500,1,0,0:0:0:0:
40,152,41596,1,0,0:0:0:0:
40,152,41790,1,8,0:0:0:0:
128,144,41983,1,8,0:0:0:0:
192,136,42177,1,4,0:0:0:0:
192,136,42467,1,8,0:0:0:0:
192,136,42564,1,0,0:0:0:0:
192,136,42758,1,8,0:0:0:0:
104,96,42951,1,0,0:0:0:0:
168,208,43241,1,8,0:0:0:0:
88,88,43532,1,8,0:0:0:0:
160,144,43725,1,0,0:0:0:0:
176,160,44112,1,8,0:0:0:0:
192,168,44500,1,0,0:0:0:0:
192,168,44596,1,0,0:0:0:0:
192,168,44693,1,0,0:0:0:0:
160,144,44887,1,8,0:0:0:0:
160,144,45080,1,8,0:0:0:0:
112,144,45274,1,4,0:0:0:0:
152,136,45661,1,12,0:0:0:0:
144,8,45854,1,8,0:0:0:0:
112,144,46048,1,4,0:0:0:0:
248,160,46338,1,0,0:0:0:0:
112,144,46435,1,8,0:0:0:0:
208,160,46629,1,8,0:0:0:0:
240,192,46822,1,4,0:0:0:0:
240,192,47112,1,0,0:0:0:0:
272,216,47209,1,8,0:0:0:0:
240,192,47403,1,0,0:0:0:0:
216,160,47596,1,8,0:0:0:0:
200,112,47693,1,8,0:0:0:0:
200,112,47790,1,8,0:0:0:0:
200,112,47983,1,0,0:0:0:0:
200,112,48177,1,0,0:0:0:0:
200,112,48370,1,4,0:0:0:0:
376,136,48661,5,4,0:0:0:0:
272,120,48951,1,4,0:0:0:0:
320,128,49532,1,8,0:0:0:0:
320,128,49725,1,8,0:0:0:0:
296,208,49919,5,4,0:0:0:0:
272,248,50209,1,0,0:0:0:0:
272,248,50306,1,8,0:0:0:0:
336,248,50500,1,0,0:0:0:0:
336,248,50693,1,0,0:0:0:0:
336,248,51080,1,8,0:0:0:0:
336,248,51177,1,8,0:0:0:0:
360,224,51274,1,8,0:0:0:0:
432,184,51467,1,0,0:0:0:0:
368,184,51758,1,0,0:0:0:0:
264,192,51854,1,8,0:0:0:0:
368,184,52048,1,0,0:0:0:0:
320,200,52241,1,8,0:0:0:0:
432,184,52435,1,0,0:0:0:0:
192,208,52629,1,0,0:0:0:0:
360,224,52822,1,0,0:0:0:0:
368,184,53016,1,4,0:0:0:0:
368,264,53403,1,8,0:0:0:0:
328,232,53596,1,0,0:0:0:0:
296,232,53790,1,0,0:0:0:0:
152,168,54177,1,0,0:0:0:0:
360,224,54370,1,8,0:0:0:0:
328,232,54564,1,4,0:0:0:0:
328,232,54758,1,0,0:0:0:0:
400,224,54951,1,8,0:0:0:0:
296,232,55145,1,0,0:0:0:0:
328,168,55338,1,0,0:0:0:0:
392,192,55629,1,0,0:0:0:0:
360,264,55725,1,8,0:0:0:0:
360,224,55919,1,8,0:0:0:0:
248,288,56112,1,4,0:0:0:0:
232,168,56500,1,8,0:0:0:0:
360,224,56693,1,8,0:0:0:0:
296,200,56887,1,0,0:0:0:0:
440,200,57177,1,0,0:0:0:0:
408,216,57274,1,8,0:0:0:0:
264,208,57467,1,8,0:0:0:0:
296,200,57661,1,0,0:0:0:0:
296,200,57758,1,0,0:0:0:0:
296,200,57854,1,0,0:0:0:0:
296,200,58048,1,8,0:0:0:0:
360,224,58241,1,8,0:0:0:0:
360,224,58435,1,0,0:0:0:0:
440,200,58725,1,8,0:0:0:0:
296,200,58822,1,0,0:0:0:0:
360,224,59016,1,8,0:0:0:0:
360,192,59209,1,4,0:0:0:0:
264,192,59500,1,8,0:0:0:0:
360,192,59596,1,8,0:0:0:0:
296,200,59790,1,0,0:0:0:0:
408,216,59983,1,0,0:0:0:0:
304,168,60370,1,8,0:0:0:0:
280,248,60758,1,0,0:0:0:0:
408,216,60951,1,8,0:0:0:0:
408,216,61048,1,8,0:0:0:0:
272,176,61145,1,8,0:0:0:0:
440,200,61338,1,8,0:0:0:0:
296,200,61532,1,0,0:0:0:0:
296,200,61629,1,0,0:0:0:0:
168,184,61725,1,0,0:0:0:0:
336,216,61919,1,8,0:0:0:0:
336,216,62112,1,8,0:0:0:0:
256,200,62306,1,4,0:0:0:0:
96,176,62693,1,8,0:0:0:0:
192,184,62887,1,8,0:0:0:0:
192,184,63080,1,0,0:0:0:0:
192,168,63467,1,8,0:0:0:0:
80,144,63661,1,8,0:0:0:0:
176,168,63854,1,0,0:0:0:0:
152,160,64048,1,8,0:0:0:0:
152,160,64145,1,8,0:0:0:0:
152,160,64241,1,8,0:0:0:0:
152,160,64435,1,0,0:0:0:0:
136,128,64629,1,8,0:0:0:0:
176,88,64919,1,8,0:0:0:0:
208,40,65016,1,0,0:0:0:0:
208,40,65209,1,8,0:0:0:0:
208,40,65403,1,4,0:0:0:0:
168,152,65790,1,8,0:0:0:0:
256,112,65983,1,8,0:0:0:0:
120,128,66177,1,0,0:0:0:0:
176,120,66467,1,0,0:0:0:0:
232,120,66564,1,8,0:0:0:0:
136,24,66758,1,8,0:0:0:0:
216,104,66951,1,0,0:0:0:0:
112,136,67145,1,8,0:0:0:0:
136,24,67338,1,12,0:0:0:0:
216,104,67532,1,0,0:0:0:0:
104,112,67725,1,0,0:0:0:0:
216,104,68112,1,8,0:0:0:0:
208,104,68306,1,0,0:0:0:0:
192,80,68500,1,12,0:0:0:0:
200,112,68887,1,8,0:0:0:0:
120,160,69080,1,0,0:0:0:0:
120,160,69274,1,0,0:0:0:0:
120,160,69661,1,8,0:0:0:0:
64,144,69758,1,8,0:0:0:0:
184,72,69854,1,8,0:0:0:0:
184,72,70048,1,0,0:0:0:0:
72,136,70241,1,8,0:0:0:0:
176,104,70435,1,0,0:0:0:0:
176,104,70629,1,8,0:0:0:0:
128,80,70822,1,0,0:0:0:0:
224,120,71209,1,0,0:0:0:0:
80,128,71403,1,8,0:0:0:0:
80,128,71596,1,4,0:0:0:0:
128,144,71887,1,8,0:0:0:0:
208,160,71983,1,0,0:0:0:0:
176,112,72177,1,0,0:0:0:0:
184,152,72370,1,8,0:0:0:0:
128,152,72467,1,8,0:0:0:0:
184,152,72564,1,8,0:0:0:0:
184,152,72758,1,0,0:0:0:0:
136,144,72951,1,8,0:0:0:0:
136,144,73145,1,0,0:0:0:0:
224,160,73338,1,0,0:0:0:0:
224,160,73532,1,0,0:0:0:0:
224,160,73725,1,0,0:0:0:0:
224,160,73919,1,0,0:0:0:0:
224,160,74112,1,8,0:0:0:0:
224,160,74209,1,8,0:0:0:0:
224,160,74306,1,8,0:0:0:0:
224,160,74500,1,8,0:0:0:0:
224,160,74693,1,4,0:0:0:0:
56,160,74983,1,8,0:0:0:0:
112,160,75080,1,0,0:0:0:0:
416,208,75274,1,8,0:0:0:0:
112,160,75467,1,4,0:0:0:0:
120,136,75758,1,0,0:0:0:0:
120,136,76048,1,0,0:0:0:0:
248,144,76241,1,0,0:0:0:0:
248,144,76435,1,0,0:0:0:0:
248,144,76629,1,0,0:0:0:0:
248,144,76822,1,0,0:0:0:0:
248,144,77016,1,8,0:0:0:0:
248,144,77112,1,8,0:0:0:0:
248,144,77209,1,8,0:0:0:0:
248,144,77403,1,0,0:0:0:0:
248,144,77500,1,0,0:0:0:0:
248,144,77596,1,0,0:0:0:0:
248,144,77693,1,0,0:0:0:0:
248,144,77790,1,0,0:0:0:0:
152,192,78177,5,0,0:0:0:0:
240,240,78370,1,8,0:0:0:0:
384,232,78758,1,8,0:0:0:0:
392,272,79145,1,8,0:0:0:0:
360,304,79532,1,8,0:0:0:0:
392,272,79919,1,8,0:0:0:0:
392,272,80306,1,8,0:0:0:0:
392,272,80500,1,8,0:0:0:0:
320,208,80887,1,4,0:0:0:0:
384,216,81274,1,0,0:0:0:0:
320,208,81467,1,8,0:0:0:0:
392,272,81854,1,8,0:0:0:0:
368,304,82241,1,8,0:0:0:0:
368,304,82629,1,8,0:0:0:0:
360,336,83016,1,8,0:0:0:0:
368,304,83403,1,8,0:0:0:0:
368,304,83596,1,8,0:0:0:0:
456,192,84370,1,4,0:0:0:0:
