osu file format v12

[General]
AudioFilename: fripside - black bullet.mp3
AudioLeadIn: 0
PreviewTime: 49532
Countdown: 0
SampleSet: Soft
StackLeniency: 0.7
Mode: 0
LetterboxInBreaks: 0
EpilepsyWarning: 1
WidescreenStoryboard: 1

[Editor]
DistanceSpacing: 1
BeatDivisor: 4
GridSize: 4
TimelineZoom: 2.799999

[Metadata]
Title:black bullet (TV Size)
TitleUnicode:black bullet (TV Size)
Artist:fripSide
ArtistUnicode:fripSide
Creator:Chloe
Version:Insane
Source:ブラック・ブレット
Tags:Kuro no Juudan Kawaiwkyik Kodora Irreversible No_Gu Hanzer 黒の銃弾 Sharlo KanaRin climbb65588
BeatmapID:402624
BeatmapSetID:157168

[Difficulty]
HPDrainRate:7
CircleSize:4
OverallDifficulty:7
ApproachRate:9
SliderMultiplier:1.8
SliderTickRate:1

[Events]
//Background and Video events
0,0,"fripside - black bullet.jpg",0,0
//Break Periods
//Storyboard Layer 0 (Background)
Sprite,Background,TopLeft,"fripside - black bullet.jpg",0,0
//Storyboard Layer 1 (Fail)
//Storyboard Layer 2 (Pass)
//Storyboard Layer 3 (Foreground)
Sprite,Foreground,Centre,"SB\White.png",320,240 S,0,3274,,0.9174194 F,0,3274,3661,0,0.8 F,0,3661,4629,0.8 F,0,4241,4629,0.8,0
Sprite,Foreground,Centre,"SB\1.jpg",320,240 S,0,3661,,0.9174193 F,0,3661,4435,0,1 F,0,4435,4822,1 F,0,4822,5790,1,0
Sprite,Foreground,Centre,"SB\2.jpg",320,240 S,0,5016,,0.9174194 F,0,5016,5790,0,1 F,0,5790,7338,1 F,0,7338,8500,1,0
Sprite,Foreground,Centre,"SB\3.jpg",320,240 S,0,7338,,0.9174194 F,0,7338,8112,0,1 F,0,8112,12758,1
Sprite,Foreground,Centre,"SB\4.png",320,240 F,0,7532,7919,0,0.6 R,0,7919,12758,0,0.4129034
Sprite,Foreground,Centre,"SB\Dot.png",320,240 F,0,7919,8112,0,1 S,0,7919,10435,0.7274838,1.293197 R,0,7919,10435,-0.247742,0.2469949 F,0,8112,10048,1 F,0,10048,10435,1,0
Sprite,Foreground,Centre,"SB\Title 1.png",320,240 F,0,6370,6564,0,1 S,0,6370,6564,3.674375,0.9752257 S,0,6564,12758,0.9752257,0.9009031
Sprite,Foreground,Centre,"SB\Title 2.png",320,325 F,0,7919,8500,0,1 S,0,7919,12758,0.9504517,0.8843872 F,0,8500,12758,1
Sprite,Foreground,Centre,"SB\White.png",320,240 S,0,12177,,0.9174194 F,0,12177,12758,0,0.8
Sprite,Foreground,Centre,"SB\Role 1 BG.JPG",320,240 S,0,12758,18951,0.9174194
Sprite,Foreground,Centre,"SB\Role 2 BG.jpg",320,240 S,0,15854,18951,0.9174193
Sprite,Foreground,Centre,"SB\Role 3 BG.jpg",320,240 S,0,18951,22048,0.9174194
Sprite,Foreground,Centre,"SB\Role 4 BG.jpg",320,240 S,0,22048,25145,0.9174194
Sprite,Foreground,Centre,"SB\Role 1.png",320,240 S,0,12758,,0.9174193 M,0,12758,15854,168,240,142,240
Sprite,Foreground,Centre,"SB\Role 2.png",320,240 S,0,15854,,0.9174194 M,0,15854,18951,538,240,560,240
Sprite,Foreground,Centre,"SB\Role 3.png",320,240 S,0,18951,,0.9174194 M,0,18951,22048,209,239,177,240
Sprite,Foreground,Centre,"SB\Role 4.png",320,240 S,0,22048,,0.9174193 M,0,22048,22822,262,240,220,239 F,0,22435,22822,1,0
Sprite,Foreground,Centre,"SB\Role 5.png",320,240 S,0,22822,,0.9174193 F,0,22822,23016,0,1 M,0,22822,23596,488,240,532,240 F,0,23016,23209,1 F,0,23209,23596,1,0
Sprite,Foreground,Centre,"SB\Role 6.png",320,240 S,0,23596,,0.9174193 F,0,23596,23790,0,1 M,0,23596,24370,320,240,277,240 F,0,23790,23983,1 F,0,23983,24370,1,0
Sprite,Foreground,Centre,"SB\Role 7.png",320,240 S,0,24370,,0.9174194 F,0,24370,24564,0,1 M,0,24370,25145,478,240,523,240 F,0,24564,24758,1 F,0,24758,25145,1,0
Sprite,Foreground,Centre,"SB\Role 2 BG.jpg",320,240 F,0,25145,28241,1 S,0,25145,31338,0.9174193,2.159226 F,0,28241,31338,1,0.5
Sprite,Foreground,Centre,"SB\5.jpg",320,240 S,0,26693,,0.9174194 F,0,26693,31338,0,1
Sprite,Foreground,Centre,"SB\Dot.png",320,240 F,0,27467,29016,0,1 M,0,27467,31338,970,-157,800,113 S,0,28241,,4.385807 R,0,28241,31338,0,-0.1486453 F,0,29016,30564,1 F,0,30564,31338,1,0
Sprite,Foreground,Centre,"SB\6.jpg",320,240 S,0,31338,,0.9174193 M,0,31338,32887,160,240,120,240
Sprite,Foreground,Centre,"SB\7.jpg",320,240 S,0,32887,,0.9174193 M,0,32887,34435,320,210,320,230
Sprite,Foreground,Centre,"SB\8.jpg",320,240 S,0,34435,,0.9174194 M,0,34435,35983,320,220,320,200
Sprite,Foreground,Centre,"SB\9.jpg",320,240 S,0,35983,,0.9174194 M,0,35983,37532,450,240,410,240
Sprite,Foreground,Centre,"SB\10a.jpg",320,240 S,0,37532,,0.9174193 F,0,40241,41016,1,0
Sprite,Foreground,Centre,"SB\11.jpg",320,240 S,0,40241,,0.9174193 F,0,40241,41016,0,1 F,0,41016,43725,1
Sprite,Foreground,Centre,"SB\13.jpg",320,240 S,0,46629,46822,5,0.9174194 S,0,46822,,0.9174194 F,0,47596,48177,1,0
Sprite,Foreground,Centre,"SB\14.jpg",320,240 F,0,47790,,0 S,0,47790,,0.9174193 F,0,47790,48177,0,1
Sprite,Foreground,Centre,"SB\15.jpg",320,240 S,0,48177,,0.9174193 M,0,48177,48370,320,-60,320,-50 M,0,48370,48758,320,-50,320,-30 M,0,48758,49145,320,-30,320,520 M,0,49145,49532,320,520,320,540
Sprite,Foreground,Centre,"SB\Dot.png",320,240 F,0,27467,29016,0,1 M,0,27467,31338,609,287,439,554 S,0,28241,,2.387355 F,0,29016,30564,1 F,0,30564,31338,1,0
Sprite,Foreground,Centre,"SB\12.jpg",320,240 S,0,43725,,0.9174194 F,0,43725,43822,0.7,1 F,0,43822,44016,1 F,0,44016,44112,1,0.7 F,0,44112,44209,0.7,1 F,0,44209,44403,1 F,0,44403,44500,1,0.7 F,0,44500,44596,0.7,1 F,0,44596,44693,1 F,0,44693,44790,1,0.7 F,0,44790,44887,0.7,1 F,0,44887,44983,1 F,0,44983,45080,1,0.7 F,0,45080,45177,0.7,1 F,0,45177,45274,1,0.7 F,0,45274,45370,0.7,1 F,0,45370,45564,1 F,0,45564,45661,1,0.7 F,0,45661,45758,0.7,1 F,0,45758,45854,1,0.7 F,0,45854,45951,0.7,1 F,0,45951,46048,1,0.7 F,0,46048,46145,0.7,1 F,0,46145,46241,1 F,0,46241,46338,1,0.7 F,0,46338,46435,0.7,1 F,0,46435,46532,1 F,0,46532,46629,1,0.7
Sprite,Foreground,Centre,"SB\White.png",320,240 F,0,48758,,0 S,0,48758,,0.9174194 F,0,48758,49532,0,0.8
Sprite,Foreground,Centre,"SB\Dot.png",320,240 S,0,37532,,1.305548 M,0,37532,43725,349,377,349,110
Sprite,Foreground,Centre,"SB\16.jpg",320,240 S,0,49532,,0.9174194 F,0,51080,51467,1,0
Sprite,Foreground,Centre,"SB\17.jpg",320,240 S,0,51080,,0.9174194 F,0,51080,51467,0,1 F,0,51467,52629,1 F,0,52629,53016,1,0
Sprite,Foreground,Centre,"SB\18.jpg",320,240 S,0,52629,,0.9174193 F,0,52629,53016,0,1 F,0,53016,53403,1 F,0,53403,53790,1,0
Sprite,Foreground,Centre,"SB\19.jpg",320,240 S,0,53403,,0.9174194 F,0,53403,53790,0,1 F,0,53790,54177,1 F,0,54177,54564,1,0
Sprite,Foreground,Centre,"SB\20a.jpg",320,240 S,0,54177,,0.9174193 F,0,54177,54564,0,1 F,0,54564,54951,1 F,0,54951,55338,1,0
Sprite,Foreground,Centre,"SB\21.jpg",320,240 S,0,54951,,0.9174193 F,0,54951,55338,0,1 F,0,55338,55725,1 F,0,55725,56112,1,0
Sprite,Foreground,Centre,"SB\22.jpg",320,240 S,0,55725,,0.9174194 F,0,55725,56112,0,1 F,0,56112,56500,1 F,0,56500,56887,1,0
Sprite,Foreground,Centre,"SB\23.jpg",320,240 S,0,56500,,0.9174193 F,0,56500,56887,0,1 F,0,56887,57274,1 F,0,57274,57661,1,0
Sprite,Foreground,Centre,"SB\24.jpg",320,240 S,0,57274,,0.9174193 F,0,57274,57661,0,1 F,0,57661,58048,1 F,0,58048,58435,1,0
Sprite,Foreground,Centre,"SB\25.jpg",320,240 S,0,58048,,0.9174194 F,0,58048,58435,0,1 F,0,58435,58822,1 F,0,58822,59209,1,0
Sprite,Foreground,Centre,"SB\26.jpg",320,240 S,0,58822,,0.9174194 F,0,58822,59209,0,1 F,0,59209,60370,1 F,0,60370,60758,1,0
Sprite,Foreground,Centre,"SB\27.jpg",320,240 S,0,60370,,0.9174194 F,0,60370,60758,0,1 F,0,60758,61919,1
Sprite,Foreground,Centre,"SB\28.jpg",320,240 S,0,61919,,0.9174194 M,0,61919,65016,320,218,320,260
Sprite,Foreground,Centre,"SB\Black.png",320,22 S,0,61919,65403,0.9174194
Sprite,Foreground,Centre,"SB\Black.png",320,457 S,0,61919,65403,0.9174191
Sprite,Foreground,Centre,"SB\29.jpg",320,240 S,0,65016,,0.9091612 M,0,65016,68112,400,240,280,240
Sprite,Foreground,Centre,"SB\30a.jpg",320,240 S,0,68112,,0.9174194 F,0,68500,68887,1 F,0,68887,69274,1,0
Sprite,Foreground,Centre,"SB\31.jpg",320,240 S,0,68887,,0.9174193 F,0,68887,69274,0,1 F,0,69274,69661,1 F,0,69661,70048,1,0
Sprite,Foreground,Centre,"SB\32.jpg",320,240 S,0,69661,,0.9174193 F,0,69661,70048,0,1 F,0,70048,70435,1 F,0,70435,70822,1,0
Sprite,Foreground,Centre,"SB\33.jpg",320,240 S,0,70435,,0.9174193 F,0,70435,70822,0,1 F,0,70822,71209,1 F,0,71209,71596,1,0
Sprite,Foreground,Centre,"SB\34.jpg",320,240 S,0,71209,,0.9174193 F,0,71209,71596,0,1 F,0,71596,71983,1 F,0,71983,72370,1,0
Sprite,Foreground,Centre,"SB\35.jpg",320,240 S,0,71983,,0.9174193 F,0,71983,72370,0,1 F,0,72370,72758,1 F,0,72758,73145,1,0
Sprite,Foreground,Centre,"SB\36.jpg",320,240 M,0,72758,,320,240 F,0,72758,,0 S,0,72758,,0.9174194 F,0,72758,73145,0,1 F,0,73145,73532,1 F,0,73532,73919,1,0
Sprite,Foreground,Centre,"SB\37.jpg",320,240 S,0,73532,,0.9174194 F,0,73532,73919,0,1 F,0,73919,74306,1 F,0,74306,74693,1
Sprite,Foreground,Centre,"SB\38.jpg",320,240 S,0,74693,,0.9174193 M,0,74693,75467,320,-315,320,-14 M,0,75467,76435,320,-14,320,794 M,0,76435,77790,320,794
Sprite,Foreground,Centre,"SB\White.png",320,240 S,0,75467,,0.9174194 F,0,75467,77790,0,0.8
Sprite,Foreground,Centre,"SB\39.jpg",320,240 F,0,77790,,0.9 S,0,77790,83983,1.330322,0.9174193
Sprite,Foreground,Centre,"SB\40a.jpg",320,240 S,0,83983,,0.9174194 F,0,88629,89403,1,0
Sprite,Foreground,Centre,"SB\Dot.png",320,240 S,0,84370,,0.6696774 V,0,84370,,0.5788386,0.9834839 M,0,84370,89403,290,21,296,153 F,0,88629,89403,1,0
//Storyboard Sound Samples
//Background Colour Transformations
3,100,163,162,255

[TimingPoints]
371,387.096774193548,4,2,4,80,1,0
467,-100,4,2,1,60,0,0
4048,-100,4,2,3,60,0,0
4242,-100,4,2,1,60,0,0
4822,-100,4,2,3,60,0,0
6177,-100,4,2,4,60,0,0
6274,-100,4,2,1,60,0,0
6564,-100,4,2,3,60,0,1
6661,-100,4,2,1,70,0,0
9274,-100,4,2,4,70,0,0
9662,-100,4,2,3,60,0,1
9758,-100,4,2,1,70,0,0
11016,-100,4,2,1,60,0,0
11403,-100,4,2,1,55,0,0
11791,-100,4,2,1,50,0,0
12178,-100,4,2,3,40,0,0
12371,-100,4,2,3,30,0,0
12468,-100,4,2,3,20,0,0
12758,-100,4,2,2,50,0,0
22049,-100,4,2,3,45,0,0
22145,-100,4,2,2,50,0,0
22823,-100,4,2,3,45,0,0
22920,-100,4,2,2,50,0,0
23597,-100,4,2,3,45,0,0
23694,-100,4,2,2,50,0,0
25145,-100,4,2,5,50,0,0
25242,-100,4,2,2,58,0,0
30565,-100,4,2,2,43,0,0
30662,-100,4,2,2,58,0,0
31339,-100,4,2,5,43,0,0
31436,-100,4,2,2,58,0,0
32887,-100,4,2,5,43,0,0
32984,-100,4,2,2,58,0,0
34436,-100,4,2,3,45,0,0
34726,-100,4,2,2,58,0,0
35210,-100,4,2,3,45,0,0
35500,-100,4,2,2,58,0,0
35984,-100,4,2,3,45,0,0
36274,-100,4,2,2,58,0,0
36758,-100,4,2,3,45,0,0
36952,-100,4,2,3,43,0,0
37532,-100,4,2,2,58,0,0
40242,-100,4,2,5,50,0,0
40436,-100,4,2,5,58,0,0
42178,-100,4,2,5,50,0,0
42468,-100,4,2,5,58,0,0
42952,-100,4,2,5,50,0,0
43145,-100,4,2,2,58,0,0
43339,-100,4,2,5,50,0,0
43532,-100,4,2,5,58,0,0
43823,-100,4,2,5,58,0,0
45274,-100,4,2,5,43,0,0
45468,-100,4,2,5,58,0,0
47597,-100,4,2,4,58,0,0
47694,-100,4,2,5,58,0,0
48371,-100,4,2,7,70,0,0
49919,-100,4,2,5,80,0,1
50016,-100,4,2,5,90,0,1
51468,-100,4,2,5,70,0,1
51662,-100,4,2,5,90,0,1
51855,-100,4,2,5,70,0,1
52049,-100,4,2,5,90,0,1
53016,-100,4,2,5,80,0,1
53113,-100,4,2,5,90,0,1
54565,-100,4,2,5,70,0,1
54758,-100,4,2,5,90,0,1
54952,-100,4,2,5,70,0,1
55145,-100,4,2,5,90,0,1
56113,-100,4,2,5,80,0,1
56210,-100,4,2,5,90,0,1
57662,-100,4,2,5,70,0,1
57855,-100,4,2,5,90,0,1
58049,-100,4,2,5,70,0,1
58242,-100,4,2,5,90,0,1
59209,-100,4,2,4,85,0,0
59306,-100,4,2,4,90,0,0
61145,-100,4,2,4,70,0,0
61242,-100,4,2,4,90,0,0
61532,-100,4,2,4,80,0,0
61726,-100,4,2,4,90,0,0
62306,-100,4,2,5,80,0,1
62403,-100,4,2,5,90,0,1
63855,-100,4,2,5,70,0,1
64049,-100,4,2,5,90,0,1
64242,-100,4,2,5,70,0,1
64436,-100,4,2,5,90,0,1
65403,-100,4,2,5,80,0,1
65500,-100,4,2,5,90,0,1
66952,-100,4,2,5,70,0,1
67145,-100,4,2,5,90,0,1
67339,-100,4,2,5,70,0,1
67532,-100,4,2,5,90,0,1
68500,-100,4,2,5,80,0,1
68597,-100,4,2,5,90,0,1
70049,-100,4,2,5,70,0,1
70242,-100,4,2,5,90,0,1
70436,-100,4,2,5,70,0,1
70629,-100,4,2,5,90,0,1
71597,-100,4,2,4,85,0,0
71694,-100,4,2,4,90,0,0
73920,-100,4,2,4,80,0,0
74307,-100,4,2,4,70,0,0
74500,-100,4,2,4,80,0,0
74694,-100,4,2,4,85,0,0
74791,-100,4,2,4,90,0,0
75468,-100,4,2,4,75,0,0
75565,-100,4,2,4,90,0,0
77016,-100,4,2,4,75,0,0
77113,-100,4,2,4,85,0,0
77403,-100,4,2,4,75,0,0
77500,-100,4,2,4,85,0,0
77791,-100,4,2,3,60,0,1
77887,-100,4,2,1,70,0,0
80500,-100,4,2,4,60,0,0
80887,-100,4,2,3,60,0,1
80983,-100,4,2,1,70,0,0
82241,-100,4,2,1,60,0,0
82629,-100,4,2,1,55,0,0
83016,-100,4,2,1,50,0,0
83983,-100,4,2,1,80,0,0
84370,-100,4,2,1,60,0,0
84467,-100,4,2,0,5,0,0

[Colours]
Combo1 : 27,230,245
Combo2 : 158,194,243
Combo3 : 237,221,143
Combo4 : 254,180,222

[HitObjects]
242,51,371,6,0,L|153:46,1,90,12|0,0:0|0:0,0:0:0:0:
63,189,758,2,0,L|152:172,1,90,8|0,0:0|0:0,0:0:0:0:
355,122,1145,1,8,0:0:0:0:
249,57,1338,5,0,0:0:0:0:
235,80,1435,1,0,0:0:0:0:
230,106,1532,2,0,P|234:163|257:203,1,90,8|0,0:0|0:0,0:0:0:0:
437,26,1919,2,0,P|397:4|353:-1,1,90,8|0,0:0|0:0,0:0:0:0:
400,238,2306,2,0,P|438:216|465:180,1,90,8|0,0:0|0:0,0:0:0:0:
243,263,2693,5,8,0:0:0:0:
97,198,2887,1,0,0:0:0:0:
70,43,3080,1,8,1:2:0:0:
256,192,3274,5,0,0:0:0:0:
256,192,3371,1,8,0:2:0:0:
256,192,3467,1,8,1:2:0:0:
148,178,3661,1,8,1:2:0:0:
103,276,3854,1,8,1:2:0:0:
182,349,4048,1,12,1:2:0:0:
381,265,4242,5,8,0:0:0:0:
379,273,4338,1,0,0:0:0:0:
377,281,4435,1,8,0:0:0:0:
375,289,4532,1,0,0:0:0:0:
373,297,4629,1,8,0:0:0:0:
476,212,4822,5,12,1:2:0:0:
480,103,5209,1,12,1:2:0:0:
385,48,5596,1,12,1:2:0:0:
291,101,5984,1,12,1:2:0:0:
387,158,6177,5,4,0:0:0:0:
373,176,6273,1,0,0:0:0:0:
357,191,6370,1,8,0:0:0:0:
337,202,6467,1,8,0:0:0:0:
316,210,6564,6,0,P|272:213|230:197,1,90,12|0,1:2|0:0,0:0:0:0:
291,101,6951,1,8,0:0:0:0:
139,139,7145,2,0,P|125:219|167:288,1,135,4|0,0:0|0:0,0:0:0:0:
113,309,7532,2,0,L|234:299,1,90,4|8,0:0|0:0,0:0:0:0:
275,212,7919,1,0,0:0:0:0:
299,232,8016,1,0,0:0:0:0:
325,251,8113,5,8,0:0:0:0:
420,189,8306,1,0,0:0:0:0:
316,231,8500,1,8,0:0:0:0:
454,179,8693,1,4,0:0:0:0:
302,214,8887,1,8,0:0:0:0:
489,170,9080,1,4,0:0:0:0:
302,214,9274,5,12,0:0:0:0:
316,231,9370,1,0,0:0:0:0:
325,251,9467,1,0,0:0:0:0:
329,273,9564,1,0,0:0:0:0:
326,295,9661,2,0,P|338:251|366:217,1,90,12|0,1:2|0:0,0:0:0:0:
156,340,10048,5,8,0:0:0:0:
91,183,10241,1,4,0:0:0:0:
91,183,10338,1,0,0:0:0:0:
91,183,10435,1,8,0:0:0:0:
113,325,10629,1,12,0:0:0:0:
122,177,10822,1,8,0:0:0:0:
70,310,11015,5,2,0:0:0:0:
70,310,11112,1,0,0:0:0:0:
70,310,11209,1,0,0:0:0:0:
152,171,11402,5,2,0:0:0:0:
152,171,11499,1,0,0:0:0:0:
152,171,11596,1,0,0:0:0:0:
288,239,11790,5,2,0:0:0:0:
288,239,11886,1,0,0:0:0:0:
288,239,11983,1,0,0:0:0:0:
396,144,12177,5,0,0:0:0:0:
314,36,12370,2,0,B|358:31|358:31|362:39|362:39|398:31,1,90,4|0,0:0|0:0,0:0:0:0:
65,150,12757,6,0,P|95:197|68:299,1,135,12|0,0:0|0:0,0:0:0:0:
81,280,13144,1,8,0:0:0:0:
195,262,13338,1,0,0:0:0:0:
75,287,13531,2,0,B|197:261|197:261|228:272|290:266,1,180,8|8,0:0|0:0,0:0:0:0:
463,131,14112,1,0,0:0:0:0:
374,193,14306,6,0,L|215:180,1,135,8|0,0:0|0:0,0:0:0:0:
233,188,14693,1,8,0:0:0:0:
194,83,14886,1,0,0:0:0:0:
225,193,15080,2,0,L|208:292,1,90,8|0,0:0|0:0,0:0:0:0:
202,287,15370,1,0,0:0:0:0:
195,292,15467,1,8,0:0:0:0:
96,336,15661,1,0,0:0:0:0:
225,193,15854,6,0,B|230:187|230:187|394:174,1,135,8|0,0:0|0:0,0:0:0:0:
365,176,16241,1,8,0:0:0:0:
470,118,16435,1,0,0:0:0:0:
374,176,16628,2,0,B|364:176|364:176|317:258|368:346,1,180,8|8,0:0|0:0,0:0:0:0:
150,272,17209,1,0,0:0:0:0:
225,193,17402,6,0,P|237:117|217:52,1,135,8|0,0:0|0:0,0:0:0:0:
216,54,17790,1,8,0:0:0:0:
118,4,17983,1,0,0:0:0:0:
210,47,18177,1,8,0:0:0:0:
260,192,18370,1,0,0:0:0:0:
260,192,18467,1,0,0:0:0:0:
260,192,18564,1,8,0:0:0:0:
152,300,18757,1,8,0:0:0:0:
152,300,18854,1,0,0:0:0:0:
152,300,18951,6,0,B|189:331|189:331|306:315,1,135,12|0,0:0|0:0,0:0:0:0:
347,301,19338,2,0,P|391:293|443:309,2,90,8|0|8,0:0|0:0|0:0,0:0:0:0:
428,120,19919,1,0,0:0:0:0:
347,188,20112,2,0,P|303:200|260:192,1,90,8|0,0:0|0:0,0:0:0:0:
196,156,20402,1,0,0:0:0:0:
196,156,20499,6,0,P|220:233|177:311,1,135,8|0,0:0|0:0,0:0:0:0:
203,282,20886,1,8,0:0:0:0:
111,225,21080,1,0,0:0:0:0:
203,282,21273,2,0,P|244:294|320:264,1,90,8|0,0:0|0:0,0:0:0:0:
290,285,21564,1,0,0:0:0:0:
290,285,21661,1,8,0:0:0:0:
414,125,21854,1,0,0:0:0:0:
282,122,22048,6,0,B|348:108|348:108|414:125,1,135,12|0,0:0|0:0,0:0:0:0:
422,127,22435,1,8,0:0:0:0:
459,234,22628,1,0,0:0:0:0:
430,129,22822,1,12,0:0:0:0:
476,270,23112,5,0,0:0:0:0:
476,270,23209,1,8,0:0:0:0:
438,132,23402,1,0,0:0:0:0:
492,306,23596,1,12,0:1:0:0:
446,135,23886,5,0,0:0:0:0:
446,135,23983,1,10,0:0:0:0:
509,342,24177,1,0,0:0:0:0:
454,138,24370,5,8,0:0:0:0:
454,138,24467,1,2,0:0:0:0:
454,138,24564,1,0,0:0:0:0:
454,138,24661,1,0,0:0:0:0:
454,138,24758,2,0,P|408:116|342:115,1,90,10|8,0:0|0:0,0:0:0:0:
262,307,25145,6,0,P|327:302|368:250,1,135,12|0,0:0|0:0,0:0:0:0:
377,240,25531,1,8,0:0:0:0:
334,120,25725,1,0,0:0:0:0:
383,228,25919,2,0,P|362:280|377:322,1,90,8|0,0:0|0:0,0:0:0:0:
370,311,26209,1,0,0:0:0:0:
370,311,26306,1,2,0:0:0:0:
223,233,26499,1,0,0:0:0:0:
223,233,26596,1,0,0:0:0:0:
223,233,26693,6,0,P|248:171|213:89,1,135,8|0,0:0|0:0,0:0:0:0:
220,98,27080,1,8,0:0:0:0:
121,30,27274,1,0,0:0:0:0:
210,88,27467,2,0,L|299:95,2,90,8|0|10,0:0|0:0|0:0,0:0:0:0:
382,23,28048,1,0,0:0:0:0:
295,108,28241,6,0,B|264:175|264:175|255:255,1,135,8|0,0:0|0:0,0:0:0:0:
248,247,28628,1,8,0:0:0:0:
352,314,28823,1,0,0:0:0:0:
240,258,29015,2,0,L|256:136,1,90,8|0,0:0|0:0,0:0:0:0:
155,78,29402,2,0,L|144:168,1,90,10|0,0:0|0:0,0:0:0:0:
153,312,29790,6,0,P|217:356|292:349,1,135,8|0,0:0|0:0,0:0:0:0:
285,353,30177,1,8,0:0:0:0:
389,306,30371,1,0,0:0:0:0:
298,350,30564,1,10,0:0:0:0:
285,353,30661,1,0,0:0:0:0:
272,355,30757,1,0,0:0:0:0:
187,201,30951,1,10,0:0:0:0:
120,38,31144,1,0,0:0:0:0:
106,35,31241,1,0,0:0:0:0:
94,31,31338,6,0,B|120:38|120:38|105:161,1,135,12|0,0:0|0:0,0:0:0:0:
105,158,31725,1,8,0:0:0:0:
53,264,31919,1,0,0:0:0:0:
103,171,32112,2,0,B|187:201|187:201|262:203,1,135,8|0,0:0|0:0,0:0:0:0:
246,202,32499,1,10,0:0:0:0:
438,59,32693,1,0,0:0:0:0:
360,135,32886,6,0,B|357:182|357:182|365:230,1,90,12|0,0:0|0:0,0:0:0:0:
371,236,33177,1,0,0:0:0:0:
377,247,33273,1,8,0:0:0:0:
150,246,33467,1,0,0:0:0:0:
250,291,33660,2,0,B|253:244|253:244|245:196,1,90,8|0,0:0|0:0,0:0:0:0:
115,107,34048,5,10,0:0:0:0:
150,246,34241,1,0,0:0:0:0:
127,110,34435,1,12,0:0:0:0:
136,248,34725,5,0,0:0:0:0:
136,248,34822,1,10,0:0:0:0:
139,114,35015,1,0,0:0:0:0:
122,250,35209,1,12,0:0:0:0:
151,118,35499,5,0,0:0:0:0:
151,118,35596,1,10,0:0:0:0:
108,252,35790,1,0,0:0:0:0:
163,122,35983,1,12,0:0:0:0:
94,255,36273,5,0,0:0:0:0:
94,255,36370,1,10,0:0:0:0:
175,125,36564,1,0,0:0:0:0:
435,188,36757,5,12,1:2:0:0:
369,49,36951,1,8,0:0:0:0:
369,49,37048,1,0,0:0:0:0:
369,49,37144,1,8,0:0:0:0:
251,148,37338,1,8,0:0:0:0:
338,237,37531,6,0,P|252:257|166:234,1,180,8|8,0:0|0:0,0:0:0:0:
73,39,38306,5,8,0:0:0:0:
170,171,38596,1,0,0:0:0:0:
182,146,38693,2,0,L|168:234,1,90,10|0,0:0|0:0,0:0:0:0:
274,256,39080,5,8,0:0:0:0:
281,48,39370,1,0,0:0:0:0:
293,23,39467,2,0,L|279:111,1,90,10|0,0:0|0:0,0:0:0:0:
386,134,39854,5,8,0:0:0:0:
457,53,40047,1,0,0:0:0:0:
457,53,40144,1,0,0:0:0:0:
457,53,40241,1,14,0:0:0:0:
417,237,40435,1,0,0:0:0:0:
280,112,40628,6,0,P|195:129|136:66,1,180,12|8,0:0|0:0,0:0:0:0:
352,32,41402,5,8,0:0:0:0:
214,210,41693,1,0,0:0:0:0:
201,187,41790,2,0,L|224:275,1,90,10|0,0:0|0:0,0:0:0:0:
280,112,42177,5,12,0:0:0:0:
136,286,42467,1,0,0:0:0:0:
123,263,42564,2,0,L|146:351,1,90,10|0,0:0|0:0,0:0:0:0:
201,187,42951,5,10,0:0:0:0:
404,98,43144,1,0,0:0:0:0:
404,98,43241,1,0,0:0:0:0:
404,98,43338,1,14,0:0:0:0:
372,255,43531,1,0,0:0:0:0:
372,255,43628,1,0,0:0:0:0:
372,255,43725,6,0,P|330:245|268:264,1,90,12|0,0:0|0:0,0:0:0:0:
139,369,44112,2,0,P|170:336|184:294,1,90,10|0,0:0|0:0,0:0:0:0:
159,110,44499,2,0,P|172:153|202:187,1,90,8|0,0:0|0:0,0:0:0:0:
234,202,44790,1,0,0:0:0:0:
269,204,44886,1,10,0:0:0:0:
372,171,45080,1,0,0:0:0:0:
512,16,45273,6,0,P|468:6|425:16,1,90,12|0,0:0|0:0,0:0:0:0:
396,34,45564,1,0,0:0:0:0:
377,64,45660,1,14,0:0:0:0:
372,171,45854,1,0,0:0:0:0:
427,384,46048,6,0,P|457:351|472:309,1,90,12|0,0:0|0:0,0:0:0:0:
469,274,46339,1,0,0:0:0:0:
453,242,46435,1,10,0:0:0:0:
372,171,46628,1,0,0:0:0:0:
203,99,46822,6,0,P|137:82|69:76,1,135,12|0,0:0|0:0,0:0:0:0:
189,151,47209,2,0,P|241:100|289:75,1,90,10|0,0:0|0:0,0:0:0:0:
370,203,47596,1,12,0:0:0:0:
402,186,47693,1,8,0:0:0:0:
429,163,47789,1,8,0:0:0:0:
451,134,47887,1,8,0:0:0:0:
466,101,47983,1,8,0:0:0:0:
474,66,48081,1,8,0:0:0:0:
474,30,48176,1,8,0:0:0:0:
474,30,48274,1,8,0:0:0:0:
474,30,48370,5,14,0:0:0:0:
256,308,48661,1,10,0:0:0:0:
37,31,48951,1,10,0:0:0:0:
37,31,49145,1,8,0:0:0:0:
37,31,49338,1,8,0:0:0:0:
37,31,49532,5,8,0:2:0:0:
67,24,49629,1,8,0:0:0:0:
97,18,49725,1,8,0:0:0:0:
127,9,49822,1,8,0:0:0:0:
160,0,49920,2,0,P|159:71|91:145,1,135,12|0,0:0|0:0,0:0:0:0:
78,149,50307,5,10,0:0:0:0:
37,31,50500,1,0,0:0:0:0:
187,214,50694,2,0,P|136:264|35:267,1,135,8|0,0:0|0:0,0:0:0:0:
23,262,51081,5,10,0:0:0:0:
78,149,51274,1,0,0:0:0:0:
75,276,51467,1,12,0:0:0:0:
257,166,51662,1,0,0:0:0:0:
110,317,51855,1,14,0:0:0:0:
376,301,52049,1,0,0:0:0:0:
376,301,52145,1,0,0:0:0:0:
376,301,52242,2,0,L|242:279,1,135,8|0,0:0|0:0,0:0:0:0:
190,270,52629,5,10,0:0:0:0:
308,334,52823,1,8,0:0:0:0:
444,268,53016,2,0,L|310:246,1,135,12|0,0:0|0:0,0:0:0:0:
258,237,53403,5,10,0:0:0:0:
376,301,53597,1,0,0:0:0:0:
512,235,53790,2,0,L|378:213,1,135,8|0,0:0|0:0,0:0:0:0:
326,204,54178,5,10,0:0:0:0:
444,268,54371,1,0,0:0:0:0:
346,107,54565,1,12,0:0:0:0:
478,252,54758,1,0,0:0:0:0:
367,10,54952,1,14,0:0:0:0:
512,235,55144,1,0,0:0:0:0:
478,252,55241,1,0,0:0:0:0:
444,268,55339,2,0,L|303:192,1,135,8|0,0:0|0:0,0:0:0:0:
326,204,55726,5,10,0:0:0:0:
444,268,55919,1,8,0:0:0:0:
300,291,56113,2,0,L|261:161,1,135,12|0,0:0|0:0,0:0:0:0:
261,162,56500,5,10,0:0:0:0:
300,291,56693,1,0,0:0:0:0:
135,235,56887,2,0,L|211:94,1,135,8|0,0:0|0:0,0:0:0:0:
199,117,57274,5,10,0:0:0:0:
135,235,57468,1,0,0:0:0:0:
270,85,57661,1,12,0:0:0:0:
212,261,57855,1,0,0:0:0:0:
340,55,58049,1,14,0:0:0:0:
288,286,58242,1,0,0:0:0:0:
408,24,58436,1,8,0:0:0:0:
408,24,58532,1,0,0:0:0:0:
408,24,58629,1,8,0:0:0:0:
408,24,58726,1,0,0:0:0:0:
408,24,58823,1,10,0:0:0:0:
365,309,59016,5,0,0:0:0:0:
458,121,59210,1,14,0:0:0:0:
316,271,59500,5,0,0:0:0:0:
316,271,59597,1,10,0:0:0:0:
429,142,59790,1,2,0:0:0:0:
266,233,59984,5,10,0:0:0:0:
400,164,60178,1,0,0:0:0:0:
400,164,60274,1,0,0:0:0:0:
400,164,60371,1,8,0:0:0:0:
219,193,60564,1,8,0:0:0:0:
199,14,60758,5,14,0:0:0:0:
221,28,60854,1,0,0:0:0:0:
240,48,60952,1,8,0:0:0:0:
252,72,61048,1,0,0:0:0:0:
259,98,61145,1,14,0:0:0:0:
258,125,61241,1,0,0:0:0:0:
251,151,61338,1,10,0:0:0:0:
238,174,61435,1,0,0:0:0:0:
219,193,61532,1,14,0:0:0:0:
97,225,61726,1,0,0:0:0:0:
97,225,61823,1,0,0:0:0:0:
97,225,61919,5,8,0:2:0:0:
152,109,62113,1,0,0:0:0:0:
47,340,62306,2,0,P|114:349|175:324,1,135,12|0,0:0|0:0,0:0:0:0:
210,282,62693,5,10,0:0:0:0:
97,225,62886,1,0,0:0:0:0:
296,374,63081,2,0,P|334:308|314:212,1,135,8|0,0:0|0:0,0:0:0:0:
307,202,63468,5,10,0:0:0:0:
210,282,63661,1,0,0:0:0:0:
360,108,63855,1,12,0:0:0:0:
202,181,64049,1,0,0:0:0:0:
414,14,64242,1,14,0:0:0:0:
195,79,64436,1,0,0:0:0:0:
195,79,64531,1,0,0:0:0:0:
195,79,64628,2,0,L|55:62,1,135,8|0,0:0|0:0,0:0:0:0:
7,53,65016,5,10,0:0:0:0:
129,24,65210,1,8,0:0:0:0:
261,134,65403,2,0,L|121:117,1,135,12|0,0:0|0:0,0:0:0:0:
73,108,65790,5,10,0:0:0:0:
195,79,65984,1,0,0:0:0:0:
327,189,66177,2,0,L|187:172,1,135,8|0,0:0|0:0,0:0:0:0:
139,163,66564,5,10,0:0:0:0:
261,134,66757,1,0,0:0:0:0:
118,108,66951,1,12,0:0:0:0:
255,159,67144,1,0,0:0:0:0:
98,53,67338,1,14,0:0:0:0:
250,184,67532,1,0,0:0:0:0:
250,184,67629,1,0,0:0:0:0:
250,184,67725,2,0,L|302:320,1,135,8|0,0:0|0:0,0:0:0:0:
316,360,68111,5,10,0:0:0:0:
301,235,68305,1,8,0:0:0:0:
187,147,68499,2,0,L|273:265,1,135,12|0,0:0|0:0,0:0:0:0:
297,300,68887,5,10,0:0:0:0:
250,184,69079,1,0,0:0:0:0:
117,128,69273,2,0,L|231:220,1,135,8|0,0:0|0:0,0:0:0:0:
263,247,69660,5,10,0:0:0:0:
187,147,69854,1,0,0:0:0:0:
371,284,70048,1,12,0:0:0:0:
357,151,70240,1,0,0:0:0:0:
467,345,70435,1,14,0:0:0:0:
512,217,70628,1,0,0:0:0:0:
379,380,70823,1,8,0:0:0:0:
379,380,70919,1,0,0:0:0:0:
379,380,71016,1,0,0:0:0:0:
379,380,71113,1,0,0:0:0:0:
379,380,71210,1,10,0:0:0:0:
263,247,71403,5,8,0:0:0:0:
368,136,71597,1,14,0:0:0:0:
280,347,71887,5,0,0:0:0:0:
280,347,71984,1,10,0:0:0:0:
203,106,72178,1,2,0:0:0:0:
433,2,72371,1,10,0:0:0:0:
368,136,72565,5,0,0:0:0:0:
368,136,72661,1,0,0:0:0:0:
368,136,72758,1,8,0:0:0:0:
467,246,72952,1,0,0:0:0:0:
434,84,73145,5,14,0:0:0:0:
414,65,73242,1,0,0:0:0:0:
389,54,73339,1,8,0:0:0:0:
362,52,73436,1,0,0:0:0:0:
336,58,73532,1,10,0:0:0:0:
313,72,73629,1,0,0:0:0:0:
296,92,73726,1,10,0:0:0:0:
286,117,73823,1,0,0:0:0:0:
285,144,73919,1,14,0:0:0:0:
322,255,74113,1,8,0:0:0:0:
322,255,74210,1,0,0:0:0:0:
322,255,74307,1,12,0:0:0:0:
30,136,74500,5,0,0:0:0:0:
143,78,74694,2,0,L|132:168,1,90,12|0,0:0|0:0,0:0:0:0:
132,168,74984,1,0,0:0:0:0:
132,168,75081,1,8,0:0:0:0:
235,198,75274,1,0,0:0:0:0:
299,36,75467,2,2,L|315:125,1,90,12|0,0:0|0:0,0:0:0:0:
315,125,75758,1,0,0:0:0:0:
315,125,75855,1,8,0:0:0:0:
337,230,76049,1,0,0:0:0:0:
118,281,76242,5,8,0:0:0:0:
167,54,76436,1,8,0:0:0:0:
394,103,76629,1,8,0:0:0:0:
345,330,76823,1,8,0:0:0:0:
256,192,77016,1,12,0:0:0:0:
256,192,77112,1,0,0:0:0:0:
256,192,77209,1,8,0:0:0:0:
256,192,77306,1,0,0:0:0:0:
256,192,77403,1,12,0:0:0:0:
256,192,77500,1,0,0:0:0:0:
256,192,77596,1,8,0:0:0:0:
256,192,77693,1,0,0:0:0:0:
256,192,77790,6,0,P|300:195|342:179,1,90,12|0,1:2|0:0,0:0:0:0:
281,83,78177,1,8,0:0:0:0:
433,121,78371,2,0,P|447:201|405:270,1,135,4|0,0:0|0:0,0:0:0:0:
459,291,78758,2,0,L|338:281,1,90,4|8,0:0|0:0,0:0:0:0:
233,256,79145,1,0,0:0:0:0:
205,271,79241,1,0,0:0:0:0:
177,288,79338,5,8,0:0:0:0:
68,269,79532,1,0,0:0:0:0:
169,266,79725,1,8,0:0:0:0:
59,304,79919,1,4,0:0:0:0:
166,243,80112,1,8,0:0:0:0:
50,338,80306,1,4,0:0:0:0:
169,220,80500,5,12,0:0:0:0:
175,198,80596,1,0,0:0:0:0:
187,178,80693,1,0,0:0:0:0:
202,161,80790,1,0,0:0:0:0:
220,148,80887,2,0,P|280:135|330:154,1,90,12|0,1:2|0:0,0:0:0:0:
270,240,81274,5,8,0:0:0:0:
389,278,81467,5,12,0:0:0:0:
410,283,81563,1,0,0:0:0:0:
433,283,81660,1,8,0:0:0:0:
251,270,81854,5,12,0:0:0:0:
454,276,82048,5,8,0:0:0:0:
232,300,82241,5,2,0:0:0:0:
232,300,82338,1,0,0:0:0:0:
232,300,82435,1,0,0:0:0:0:
251,270,82629,5,2,0:0:0:0:
251,270,82725,1,0,0:0:0:0:
251,270,82822,1,0,0:0:0:0:
270,240,83016,5,2,0:0:0:0:
270,240,83112,1,0,0:0:0:0:
270,240,83209,1,0,0:0:0:0:
321,165,83403,5,0,0:0:0:0:
372,91,83596,5,0,0:0:0:0:
372,91,83693,1,0,0:0:0:0:
372,91,83790,1,0,0:0:0:0:
372,91,83887,1,0,0:0:0:0:
372,91,83983,2,0,L|447:91,4,45,2|0|0|0|4,0:0|0:0|0:0|0:0|0:1,0:0:0:0:
256,192,84467,12,0,88629,0:0:0:0:
