osu file format v12

[General]
AudioFilename: fripside - black bullet.mp3
AudioLeadIn: 0
PreviewTime: 49532
Countdown: 0
SampleSet: Soft
StackLeniency: 0.7
Mode: 0
LetterboxInBreaks: 0
EpilepsyWarning: 1
WidescreenStoryboard: 1

[Editor]
DistanceSpacing: 1.2
BeatDivisor: 4
GridSize: 4
TimelineZoom: 2.2

[Metadata]
Title:black bullet (TV Size)
TitleUnicode:black bullet (TV Size)
Artist:fripSide
ArtistUnicode:fripSide
Creator:Chloe
Version:Hard
Source:ブラック・ブレット
Tags:Kuro no Juudan Kawaiwkyik Kodora Irreversible No_Gu Hanzer 黒の銃弾 Sharlo KanaRin climbb65588
BeatmapID:391204
BeatmapSetID:157168

[Difficulty]
HPDrainRate:5
CircleSize:4
OverallDifficulty:6
ApproachRate:8
SliderMultiplier:1.6
SliderTickRate:1

[Events]
//Background and Video events
0,0,"fripside - black bullet.jpg",0,0
//Break Periods
//Storyboard Layer 0 (Background)
Sprite,Background,TopLeft,"fripside - black bullet.jpg",0,0
//Storyboard Layer 1 (Fail)
//Storyboard Layer 2 (Pass)
//Storyboard Layer 3 (Foreground)
Sprite,Foreground,Centre,"SB\White.png",320,240 S,0,3274,,0.9174194 F,0,3274,3661,0,0.8 F,0,3661,4629,0.8 F,0,4241,4629,0.8,0
Sprite,Foreground,Centre,"SB\1.jpg",320,240 S,0,3661,,0.9174193 F,0,3661,4435,0,1 F,0,4435,4822,1 F,0,4822,5790,1,0
Sprite,Foreground,Centre,"SB\2.jpg",320,240 S,0,5016,,0.9174194 F,0,5016,5790,0,1 F,0,5790,7338,1 F,0,7338,8500,1,0
Sprite,Foreground,Centre,"SB\3.jpg",320,240 S,0,7338,,0.9174194 F,0,7338,8112,0,1 F,0,8112,12758,1
Sprite,Foreground,Centre,"SB\4.png",320,240 F,0,7532,7919,0,0.6 R,0,7919,12758,0,0.4129034
Sprite,Foreground,Centre,"SB\Dot.png",320,240 F,0,7919,8112,0,1 S,0,7919,10435,0.7274838,1.293197 R,0,7919,10435,-0.247742,0.2469949 F,0,8112,10048,1 F,0,10048,10435,1,0
Sprite,Foreground,Centre,"SB\Title 1.png",320,240 F,0,6370,6564,0,1 S,0,6370,6564,3.674375,0.9752257 S,0,6564,12758,0.9752257,0.9009031
Sprite,Foreground,Centre,"SB\Title 2.png",320,325 F,0,7919,8500,0,1 S,0,7919,12758,0.9504517,0.8843872 F,0,8500,12758,1
Sprite,Foreground,Centre,"SB\White.png",320,240 S,0,12177,,0.9174194 F,0,12177,12758,0,0.8
Sprite,Foreground,Centre,"SB\Role 1 BG.JPG",320,240 S,0,12758,18951,0.9174194
Sprite,Foreground,Centre,"SB\Role 2 BG.jpg",320,240 S,0,15854,18951,0.9174193
Sprite,Foreground,Centre,"SB\Role 3 BG.jpg",320,240 S,0,18951,22048,0.9174194
Sprite,Foreground,Centre,"SB\Role 4 BG.jpg",320,240 S,0,22048,25145,0.9174194
Sprite,Foreground,Centre,"SB\Role 1.png",320,240 S,0,12758,,0.9174193 M,0,12758,15854,168,240,142,240
Sprite,Foreground,Centre,"SB\Role 2.png",320,240 S,0,15854,,0.9174194 M,0,15854,18951,538,240,560,240
Sprite,Foreground,Centre,"SB\Role 3.png",320,240 S,0,18951,,0.9174194 M,0,18951,22048,209,239,177,240
Sprite,Foreground,Centre,"SB\Role 4.png",320,240 S,0,22048,,0.9174193 M,0,22048,22822,262,240,220,239 F,0,22435,22822,1,0
Sprite,Foreground,Centre,"SB\Role 5.png",320,240 S,0,22822,,0.9174193 F,0,22822,23016,0,1 M,0,22822,23596,488,240,532,240 F,0,23016,23209,1 F,0,23209,23596,1,0
Sprite,Foreground,Centre,"SB\Role 6.png",320,240 S,0,23596,,0.9174193 F,0,23596,23790,0,1 M,0,23596,24370,320,240,277,240 F,0,23790,23983,1 F,0,23983,24370,1,0
Sprite,Foreground,Centre,"SB\Role 7.png",320,240 S,0,24370,,0.9174194 F,0,24370,24564,0,1 M,0,24370,25145,478,240,523,240 F,0,24564,24758,1 F,0,24758,25145,1,0
Sprite,Foreground,Centre,"SB\Role 2 BG.jpg",320,240 F,0,25145,28241,1 S,0,25145,31338,0.9174193,2.159226 F,0,28241,31338,1,0.5
Sprite,Foreground,Centre,"SB\5.jpg",320,240 S,0,26693,,0.9174194 F,0,26693,31338,0,1
Sprite,Foreground,Centre,"SB\Dot.png",320,240 F,0,27467,29016,0,1 M,0,27467,31338,970,-157,800,113 S,0,28241,,4.385807 R,0,28241,31338,0,-0.1486453 F,0,29016,30564,1 F,0,30564,31338,1,0
Sprite,Foreground,Centre,"SB\6.jpg",320,240 S,0,31338,,0.9174193 M,0,31338,32887,160,240,120,240
Sprite,Foreground,Centre,"SB\7.jpg",320,240 S,0,32887,,0.9174193 M,0,32887,34435,320,210,320,230
Sprite,Foreground,Centre,"SB\8.jpg",320,240 S,0,34435,,0.9174194 M,0,34435,35983,320,220,320,200
Sprite,Foreground,Centre,"SB\9.jpg",320,240 S,0,35983,,0.9174194 M,0,35983,37532,450,240,410,240
Sprite,Foreground,Centre,"SB\10a.jpg",320,240 S,0,37532,,0.9174193 F,0,40241,41016,1,0
Sprite,Foreground,Centre,"SB\11.jpg",320,240 S,0,40241,,0.9174193 F,0,40241,41016,0,1 F,0,41016,43725,1
Sprite,Foreground,Centre,"SB\13.jpg",320,240 S,0,46629,46822,5,0.9174194 S,0,46822,,0.9174194 F,0,47596,48177,1,0
Sprite,Foreground,Centre,"SB\14.jpg",320,240 F,0,47790,,0 S,0,47790,,0.9174193 F,0,47790,48177,0,1
Sprite,Foreground,Centre,"SB\15.jpg",320,240 S,0,48177,,0.9174193 M,0,48177,48370,320,-60,320,-50 M,0,48370,48758,320,-50,320,-30 M,0,48758,49145,320,-30,320,520 M,0,49145,49532,320,520,320,540
Sprite,Foreground,Centre,"SB\Dot.png",320,240 F,0,27467,29016,0,1 M,0,27467,31338,609,287,439,554 S,0,28241,,2.387355 F,0,29016,30564,1 F,0,30564,31338,1,0
Sprite,Foreground,Centre,"SB\12.jpg",320,240 S,0,43725,,0.9174194 F,0,43725,43822,0.7,1 F,0,43822,44016,1 F,0,44016,44112,1,0.7 F,0,44112,44209,0.7,1 F,0,44209,44403,1 F,0,44403,44500,1,0.7 F,0,44500,44596,0.7,1 F,0,44596,44693,1 F,0,44693,44790,1,0.7 F,0,44790,44887,0.7,1 F,0,44887,44983,1 F,0,44983,45080,1,0.7 F,0,45080,45177,0.7,1 F,0,45177,45274,1,0.7 F,0,45274,45370,0.7,1 F,0,45370,45564,1 F,0,45564,45661,1,0.7 F,0,45661,45758,0.7,1 F,0,45758,45854,1,0.7 F,0,45854,45951,0.7,1 F,0,45951,46048,1,0.7 F,0,46048,46145,0.7,1 F,0,46145,46241,1 F,0,46241,46338,1,0.7 F,0,46338,46435,0.7,1 F,0,46435,46532,1 F,0,46532,46629,1,0.7
Sprite,Foreground,Centre,"SB\White.png",320,240 F,0,48758,,0 S,0,48758,,0.9174194 F,0,48758,49532,0,0.8
Sprite,Foreground,Centre,"SB\Dot.png",320,240 S,0,37532,,1.305548 M,0,37532,43725,349,377,349,110
Sprite,Foreground,Centre,"SB\16.jpg",320,240 S,0,49532,,0.9174194 F,0,51080,51467,1,0
Sprite,Foreground,Centre,"SB\17.jpg",320,240 S,0,51080,,0.9174194 F,0,51080,51467,0,1 F,0,51467,52629,1 F,0,52629,53016,1,0
Sprite,Foreground,Centre,"SB\18.jpg",320,240 S,0,52629,,0.9174193 F,0,52629,53016,0,1 F,0,53016,53403,1 F,0,53403,53790,1,0
Sprite,Foreground,Centre,"SB\19.jpg",320,240 S,0,53403,,0.9174194 F,0,53403,53790,0,1 F,0,53790,54177,1 F,0,54177,54564,1,0
Sprite,Foreground,Centre,"SB\20a.jpg",320,240 S,0,54177,,0.9174193 F,0,54177,54564,0,1 F,0,54564,54951,1 F,0,54951,55338,1,0
Sprite,Foreground,Centre,"SB\21.jpg",320,240 S,0,54951,,0.9174193 F,0,54951,55338,0,1 F,0,55338,55725,1 F,0,55725,56112,1,0
Sprite,Foreground,Centre,"SB\22.jpg",320,240 S,0,55725,,0.9174194 F,0,55725,56112,0,1 F,0,56112,56500,1 F,0,56500,56887,1,0
Sprite,Foreground,Centre,"SB\23.jpg",320,240 S,0,56500,,0.9174193 F,0,56500,56887,0,1 F,0,56887,57274,1 F,0,57274,57661,1,0
Sprite,Foreground,Centre,"SB\24.jpg",320,240 S,0,57274,,0.9174193 F,0,57274,57661,0,1 F,0,57661,58048,1 F,0,58048,58435,1,0
Sprite,Foreground,Centre,"SB\25.jpg",320,240 S,0,58048,,0.9174194 F,0,58048,58435,0,1 F,0,58435,58822,1 F,0,58822,59209,1,0
Sprite,Foreground,Centre,"SB\26.jpg",320,240 S,0,58822,,0.9174194 F,0,58822,59209,0,1 F,0,59209,60370,1 F,0,60370,60758,1,0
Sprite,Foreground,Centre,"SB\27.jpg",320,240 S,0,60370,,0.9174194 F,0,60370,60758,0,1 F,0,60758,61919,1
Sprite,Foreground,Centre,"SB\28.jpg",320,240 S,0,61919,,0.9174194 M,0,61919,65016,320,218,320,260
Sprite,Foreground,Centre,"SB\Black.png",320,22 S,0,61919,65403,0.9174194
Sprite,Foreground,Centre,"SB\Black.png",320,457 S,0,61919,65403,0.9174191
Sprite,Foreground,Centre,"SB\29.jpg",320,240 S,0,65016,,0.9091612 M,0,65016,68112,400,240,280,240
Sprite,Foreground,Centre,"SB\30a.jpg",320,240 S,0,68112,,0.9174194 F,0,68500,68887,1 F,0,68887,69274,1,0
Sprite,Foreground,Centre,"SB\31.jpg",320,240 S,0,68887,,0.9174193 F,0,68887,69274,0,1 F,0,69274,69661,1 F,0,69661,70048,1,0
Sprite,Foreground,Centre,"SB\32.jpg",320,240 S,0,69661,,0.9174193 F,0,69661,70048,0,1 F,0,70048,70435,1 F,0,70435,70822,1,0
Sprite,Foreground,Centre,"SB\33.jpg",320,240 S,0,70435,,0.9174193 F,0,70435,70822,0,1 F,0,70822,71209,1 F,0,71209,71596,1,0
Sprite,Foreground,Centre,"SB\34.jpg",320,240 S,0,71209,,0.9174193 F,0,71209,71596,0,1 F,0,71596,71983,1 F,0,71983,72370,1,0
Sprite,Foreground,Centre,"SB\35.jpg",320,240 S,0,71983,,0.9174193 F,0,71983,72370,0,1 F,0,72370,72758,1 F,0,72758,73145,1,0
Sprite,Foreground,Centre,"SB\36.jpg",320,240 M,0,72758,,320,240 F,0,72758,,0 S,0,72758,,0.9174194 F,0,72758,73145,0,1 F,0,73145,73532,1 F,0,73532,73919,1,0
Sprite,Foreground,Centre,"SB\37.jpg",320,240 S,0,73532,,0.9174194 F,0,73532,73919,0,1 F,0,73919,74306,1 F,0,74306,74693,1
Sprite,Foreground,Centre,"SB\38.jpg",320,240 S,0,74693,,0.9174193 M,0,74693,75467,320,-315,320,-14 M,0,75467,76435,320,-14,320,794 M,0,76435,77790,320,794
Sprite,Foreground,Centre,"SB\White.png",320,240 S,0,75467,,0.9174194 F,0,75467,77790,0,0.8
Sprite,Foreground,Centre,"SB\39.jpg",320,240 F,0,77790,,0.9 S,0,77790,83983,1.330322,0.9174193
Sprite,Foreground,Centre,"SB\40a.jpg",320,240 S,0,83983,,0.9174194 F,0,88629,89403,1,0
Sprite,Foreground,Centre,"SB\Dot.png",320,240 S,0,84370,,0.6696774 V,0,84370,,0.5788386,0.9834839 M,0,84370,89403,290,21,296,153 F,0,88629,89403,1,0
//Storyboard Sound Samples
//Background Colour Transformations
3,100,163,162,255

[TimingPoints]
371,387.096774193548,4,2,4,60,1,0
467,-100,4,2,1,60,0,0
4048,-100,4,2,3,60,0,0
4242,-100,4,2,1,60,0,0
4822,-100,4,2,3,60,0,0
6177,-100,4,2,4,60,0,0
6274,-100,4,2,1,60,0,0
6564,-100,4,2,3,60,0,1
6661,-100,4,2,1,70,0,0
9274,-100,4,2,4,70,0,0
9662,-100,4,2,3,60,0,1
9758,-100,4,2,1,70,0,0
11016,-100,4,2,1,60,0,0
11403,-100,4,2,1,55,0,0
11791,-100,4,2,1,50,0,0
12178,-100,4,2,3,40,0,0
12371,-100,4,2,3,30,0,0
12468,-100,4,2,3,20,0,0
12758,-100,4,2,2,50,0,0
22049,-100,4,2,3,45,0,0
22145,-100,4,2,2,50,0,0
22823,-100,4,2,3,45,0,0
22920,-100,4,2,2,50,0,0
23597,-100,4,2,3,45,0,0
23694,-100,4,2,2,50,0,0
25145,-100,4,2,5,50,0,0
25242,-100,4,2,2,58,0,0
30565,-100,4,2,2,43,0,0
30662,-100,4,2,2,58,0,0
31339,-100,4,2,5,43,0,0
31436,-100,4,2,2,58,0,0
32887,-100,4,2,5,43,0,0
32984,-100,4,2,2,58,0,0
34436,-100,4,2,3,45,0,0
34726,-100,4,2,2,58,0,0
35210,-100,4,2,3,45,0,0
35500,-100,4,2,2,58,0,0
35984,-100,4,2,3,45,0,0
36274,-100,4,2,2,58,0,0
36758,-100,4,2,3,45,0,0
36952,-100,4,2,3,43,0,0
37532,-100,4,2,2,58,0,0
40242,-100,4,2,5,50,0,0
40436,-100,4,2,5,58,0,0
42178,-100,4,2,5,50,0,0
42468,-100,4,2,5,58,0,0
42952,-100,4,2,5,50,0,0
43145,-100,4,2,2,58,0,0
43339,-100,4,2,5,50,0,0
43532,-100,4,2,5,58,0,0
43823,-100,4,2,5,58,0,0
45274,-100,4,2,5,43,0,0
45468,-100,4,2,5,58,0,0
47597,-100,4,2,4,58,0,0
47694,-100,4,2,5,58,0,0
48371,-100,4,2,7,70,0,0
49919,-100,4,2,5,80,0,1
50016,-100,4,2,5,90,0,1
51468,-100,4,2,5,70,0,1
51662,-100,4,2,5,90,0,1
51855,-100,4,2,5,70,0,1
52049,-100,4,2,5,90,0,1
53016,-100,4,2,5,80,0,1
53113,-100,4,2,5,90,0,1
54565,-100,4,2,5,70,0,1
54758,-100,4,2,5,90,0,1
54952,-100,4,2,5,70,0,1
55145,-100,4,2,5,90,0,1
56113,-100,4,2,5,80,0,1
56210,-100,4,2,5,90,0,1
57662,-100,4,2,5,70,0,1
57855,-100,4,2,5,90,0,1
58049,-100,4,2,5,70,0,1
58242,-100,4,2,5,90,0,1
59209,-100,4,2,4,85,0,0
59306,-100,4,2,4,90,0,0
61145,-100,4,2,4,70,0,0
61242,-100,4,2,4,90,0,0
61532,-100,4,2,4,80,0,0
61726,-100,4,2,4,90,0,0
62306,-100,4,2,5,80,0,1
62403,-100,4,2,5,90,0,1
63855,-100,4,2,5,70,0,1
64049,-100,4,2,5,90,0,1
64242,-100,4,2,5,70,0,1
64436,-100,4,2,5,90,0,1
65403,-100,4,2,5,80,0,1
65500,-100,4,2,5,90,0,1
66952,-100,4,2,5,70,0,1
67145,-100,4,2,5,90,0,1
67339,-100,4,2,5,70,0,1
67532,-100,4,2,5,90,0,1
68500,-100,4,2,5,80,0,1
68597,-100,4,2,5,90,0,1
70049,-100,4,2,5,70,0,1
70242,-100,4,2,5,90,0,1
70436,-100,4,2,5,70,0,1
70629,-100,4,2,5,90,0,1
71597,-100,4,2,4,85,0,0
71694,-100,4,2,4,90,0,0
73920,-100,4,2,4,80,0,0
74307,-100,4,2,4,70,0,0
74500,-100,4,2,4,80,0,0
74694,-100,4,2,4,85,0,0
74791,-100,4,2,4,90,0,0
75468,-100,4,2,4,75,0,0
75565,-100,4,2,4,90,0,0
77016,-100,4,2,4,75,0,0
77113,-100,4,2,4,85,0,0
77403,-100,4,2,4,75,0,0
77500,-100,4,2,4,85,0,0
77791,-100,4,2,3,60,0,1
77887,-100,4,2,1,70,0,0
80500,-100,4,2,4,60,0,0
80887,-100,4,2,3,60,0,1
80983,-100,4,2,1,70,0,0
82241,-100,4,2,1,60,0,0
82629,-100,4,2,1,55,0,0
83016,-100,4,2,1,50,0,0
83983,-100,4,2,1,80,0,0
84370,-100,4,2,1,60,0,0
84467,-100,4,2,0,5,0,0

[Colours]
Combo1 : 27,230,245
Combo2 : 158,194,243
Combo3 : 237,221,143
Combo4 : 254,180,222

[HitObjects]
101,46,371,6,0,L|185:51,1,80,10|0,0:0|0:0,0:0:0:0:
166,145,758,2,0,L|347:157,1,160,8|8,0:0|0:0,0:0:0:0:
420,144,1338,1,0,0:0:0:0:
420,144,1532,2,0,P|403:208|423:248,1,80,8|0,0:0|0:0,0:0:0:0:
486,306,1919,2,0,P|503:270|501:231,1,80,8|0,0:0|0:0,0:0:0:0:
309,194,2306,6,0,P|306:233|323:269,2,80,8|0|8,0:0|0:0|0:0,0:0:0:0:
333,100,2887,1,0,0:0:0:0:
248,54,3080,2,0,P|208:40|166:46,1,80
197,137,3467,5,8,1:2:0:0:
197,137,3661,1,0,1:2:0:0:
148,219,3854,1,8,1:2:0:0:
233,263,4048,1,12,1:2:0:0:
320,304,4242,1,8,0:0:0:0:
320,304,4339,1,0,0:0:0:0:
320,304,4435,1,8,0:0:0:0:
233,263,4629,1,8,0:0:0:0:
148,219,4823,5,12,1:2:0:0:
210,90,5209,1,12,1:2:0:0:
357,146,5596,1,12,1:2:0:0:
301,293,5984,1,12,1:2:0:0:
256,192,6177,5,4,0:0:0:0:
268,192,6274,1,0,0:0:0:0:
280,192,6371,1,8,0:0:0:0:
292,192,6467,1,8,0:0:0:0:
304,192,6564,6,0,L|384:192,1,80,12|0,1:2|0:0,0:0:0:0:
293,96,6951,1,8,0:0:0:0:
206,137,7145,2,0,P|189:180|209:243,1,80,4|0,0:0|0:0,0:0:0:0:
344,239,7532,2,0,P|321:207|286:190,1,80,4|8,0:0|0:0,0:0:0:0:
187,308,7919,6,0,P|226:303|260:282,1,80,0|8,0:0|0:0,0:0:0:0:
191,213,8306,2,0,P|223:189|240:154,1,80,0|8,0:0|0:0,0:0:0:0:
150,121,8693,2,0,P|166:84|163:45,1,80,4|8,0:0|0:0,0:0:0:0:
70,68,9080,1,4,0:0:0:0:
150,121,9275,5,12,0:0:0:0:
160,127,9371,1,0,0:0:0:0:
170,133,9467,1,0,0:0:0:0:
180,139,9564,1,0,0:0:0:0:
190,145,9661,2,0,L|262:187,1,80,12|0,1:2|0:0,0:0:0:0:
281,228,9951,1,0,0:0:0:0:
281,228,10048,5,8,0:0:0:0:
205,287,10241,1,4,0:0:0:0:
205,287,10338,1,0,0:0:0:0:
205,287,10435,1,8,0:2:0:0:
132,349,10628,1,4,0:0:0:0:
132,349,10725,1,0,0:0:0:0:
132,349,10822,1,8,0:0:0:0:
95,260,11015,6,0,L|58:165,1,80,2|8,0:0|0:0,0:0:0:0:
162,188,11402,2,0,L|203:94,1,80,2|8,0:0|0:0,0:0:0:0:
259,186,11790,2,0,L|354:149,1,80,2|8,0:0|0:0,0:0:0:0:
423,122,12177,1,0,0:0:0:0:
327,23,12370,1,12,0:0:0:0:
327,23,12757,6,0,P|294:93|201:134,1,160,12|8,0:0|0:0,0:0:0:0:
127,134,13338,1,0,0:0:0:0:
32,116,13531,2,0,B|11:154|11:154|7:219,2,80,8|0|8,0:0|0:0|0:0,0:0:0:0:
95,43,14112,1,0,0:0:0:0:
127,134,14306,6,0,P|192:168|268:124,1,160,8|8,0:0|0:0,0:0:0:0:
194,83,14886,1,0,0:0:0:0:
199,179,15080,2,0,L|185:277,1,80,8|0,0:0|0:0,0:0:0:0:
186,282,15370,1,0,0:0:0:0:
186,282,15467,1,8,0:0:0:0:
357,330,15854,6,0,B|422:329|422:329|466:359|512:340,1,160,8|8,0:0|0:0,0:0:0:0:
475,251,16435,1,0,0:0:0:0:
511,162,16628,2,0,P|434:157|382:99,1,160,8|8,0:0|0:0,0:0:0:0:
474,71,17209,1,0,0:0:0:0:
416,188,17402,6,0,P|340:182|246:187,1,160,8|8,0:0|0:0,0:0:0:0:
179,127,17983,1,0,0:0:0:0:
256,185,18177,1,8,0:0:0:0:
189,254,18370,1,0,0:0:0:0:
189,254,18467,1,0,0:0:0:0:
189,254,18564,1,8,0:0:0:0:
267,313,18757,1,8,0:0:0:0:
267,313,18854,1,0,0:0:0:0:
267,313,18951,6,0,P|228:345|185:351,2,80,12|0|8,0:0|0:0|0:0,0:0:0:0:
333,243,19531,1,0,0:0:0:0:
256,185,19725,2,0,B|292:144|345:150|345:150|372:163|419:171,1,160,8|8,0:0|0:0,0:0:0:0:
483,116,20306,1,0,0:0:0:0:
400,70,20499,6,0,P|421:37|456:20,1,80,8|0,0:0|0:0,0:0:0:0:
311,32,20886,1,8,0:0:0:0:
279,122,21080,2,0,P|314:139|335:172,1,80,0|8,0:0|0:0,0:0:0:0:
260,324,21661,5,8,0:0:0:0:
215,239,21854,1,0,0:0:0:0:
154,313,22048,2,0,P|90:328|33:310,1,120,12|0,0:0|0:0,0:0:0:0:
154,313,22628,5,0,0:0:0:0:
93,238,22822,2,0,P|37:203|9:150,1,120,12|0,0:0|0:0,0:0:0:0:
93,238,23402,5,0,0:0:0:0:
103,142,23596,2,0,P|88:78|106:21,1,120,12|0,0:1|0:0,0:0:0:0:
103,142,24176,5,0,0:0:0:0:
197,161,24370,1,8,0:0:0:0:
220,165,24467,1,0,0:0:0:0:
243,169,24564,1,0,0:0:0:0:
266,174,24661,1,0,0:0:0:0:
289,179,24757,1,8,0:0:0:0:
495,54,25144,6,0,B|437:45|404:82|404:82|344:85,1,160,12|8,0:0|0:0,0:0:0:0:
286,162,25725,1,0,0:0:0:0:
224,235,25919,2,0,B|201:243|201:243|167:232|167:232|128:263|72:252,1,160,8|2,0:0|0:0,0:0:0:0:
26,109,26499,1,0,0:0:0:0:
105,162,26693,6,0,P|183:172|262:157,1,160,8|8,0:0|0:0,0:0:0:0:
344,109,27273,1,0,0:0:0:0:
346,205,27467,2,0,P|339:268|366:306,1,80,8|0,0:0|0:0,0:0:0:0:
433,318,27854,2,0,P|442:279|431:241,1,80,10|0,0:0|0:0,0:0:0:0:
377,161,28241,6,0,P|304:137|217:168,1,160,8|8,0:0|0:0,0:0:0:0:
161,232,28822,1,0,0:0:0:0:
113,315,29015,2,0,P|80:276|109:151,1,160,8|10,0:0|0:0,0:0:0:0:
152,101,29596,1,0,0:0:0:0:
226,161,29790,6,0,P|306:181|398:162,1,160,8|8,0:0|0:0,0:0:0:0:
465,121,30370,1,0,0:0:0:0:
493,212,30564,2,0,P|508:248|511:288,1,80,10|0,0:0|0:0,0:0:0:0:
433,371,30951,2,0,P|418:334|415:295,1,80,10|0,0:0|0:0,0:0:0:0:
400,199,31338,6,0,P|316:231|246:202,1,160,12|8,0:0|0:0,0:0:0:0:
321,140,31918,1,0,0:0:0:0:
390,71,32112,2,0,P|315:49|244:81,1,160,8|10,0:0|0:0,0:0:0:0:
174,147,32693,1,0,0:0:0:0:
146,238,32886,6,0,L|132:316,1,80,12|0,0:0|0:0,0:0:0:0:
65,184,33273,1,8,0:0:0:0:
37,275,33467,2,0,L|21:368,1,80,0|8,0:0|0:0,0:0:0:0:
146,238,34048,5,10,0:0:0:0:
239,259,34241,1,0,0:0:0:0:
209,167,34435,2,0,L|340:158,1,120,12|0,0:0|0:0,0:0:0:0:
209,167,35015,1,0,0:0:0:0:
239,259,35209,6,0,L|181:376,1,120,12|0,0:0|0:0,0:0:0:0:
239,259,35789,1,0,0:0:0:0:
146,238,35983,6,0,L|72:129,1,120,12|0,0:0|0:0,0:0:0:0:
146,238,36563,1,0,0:0:0:0:
209,167,36757,5,12,1:2:0:0:
209,167,36951,1,8,1:2:0:0:
209,167,37144,1,8,1:2:0:0:
209,167,37338,1,8,0:0:0:0:
289,219,37531,6,0,P|366:240|471:198,1,160,8|8,0:0|0:0,0:0:0:0:
500,65,38306,1,8,0:0:0:0:
359,33,38596,1,0,0:0:0:0:
359,33,38693,2,0,L|248:45,1,80,10|0,0:0|0:0,0:0:0:0:
183,49,39080,1,8,0:0:0:0:
272,161,39370,1,0,0:0:0:0:
272,161,39467,2,0,L|161:173,1,80,10|0,0:0|0:0,0:0:0:0:
96,177,39854,5,8,0:0:0:0:
0,185,40047,1,0,0:0:0:0:
0,185,40144,1,0,0:0:0:0:
0,185,40241,1,14,0:0:0:0:
41,271,40435,1,0,0:0:0:0:
1,357,40628,6,0,B|74:377|117:324|117:324|172:332,1,160,12|8,0:0|0:0,0:0:0:0:
306,352,41402,1,8,0:0:0:0:
444,310,41693,1,0,0:0:0:0:
444,310,41790,2,0,L|417:216,1,80,10|0,0:0|0:0,0:0:0:0:
397,140,42177,1,12,0:0:0:0:
263,192,42467,1,0,0:0:0:0:
263,192,42564,2,0,L|236:98,1,80,10|0,0:0|0:0,0:0:0:0:
216,22,42951,5,10,0:0:0:0:
240,115,43144,1,0,0:0:0:0:
240,115,43241,1,0,0:0:0:0:
240,115,43338,1,14,0:0:0:0:
147,138,43531,1,0,0:0:0:0:
147,138,43628,1,0,0:0:0:0:
147,138,43725,5,12,0:0:0:0:
313,234,44112,1,10,0:0:0:0:
314,45,44499,5,8,0:0:0:0:
239,168,44790,1,0,0:0:0:0:
382,171,45080,1,0,0:0:0:0:
299,122,45273,5,12,0:0:0:0:
348,257,45564,1,0,0:0:0:0:
441,145,45854,1,0,0:0:0:0:
352,181,46048,5,12,0:0:0:0:
484,236,46338,1,0,0:0:0:0:
466,93,46628,1,0,0:0:0:0:
381,46,46822,6,0,P|287:12|234:11,1,120,8|0,0:0|0:0,0:0:0:0:
261,33,47209,2,0,P|212:26|158:27,1,80,10|0,0:0|0:0,0:0:0:0:
86,39,47596,2,0,P|45:49|23:45,4,40,8|0|8|0|8,0:0|0:0|0:0|0:0|0:0,0:0:0:0:
137,119,48177,1,8,0:0:0:0:
101,207,48370,5,14,0:0:0:0:
101,207,48661,1,10,0:0:0:0:
101,207,48951,1,10,0:0:0:0:
46,127,49145,2,0,L|6:121,2,40,8|0|8,0:0|0:0|0:0,0:0:0:0:
138,99,49532,5,8,0:0:0:0:
232,56,49725,1,8,0:0:0:0:
232,56,49822,1,0,0:0:0:0:
232,56,49919,2,0,L|226:136,1,80,12|0,0:0|0:0,0:0:0:0:
150,195,50306,1,10,0:0:0:0:
55,154,50499,1,0,0:0:0:0:
55,154,50596,1,0,0:0:0:0:
55,154,50693,2,0,L|62:234,1,80,8|0,0:0|0:0,0:0:0:0:
139,290,51080,5,10,0:0:0:0:
226,252,51273,1,0,0:0:0:0:
302,310,51467,2,0,P|341:311|379:300,1,80,12|0,0:0|0:0,0:0:0:0:
422,214,51854,1,14,0:0:0:0:
353,145,52048,2,0,P|332:179|327:219,2,80,0|8|0,0:0|0:0|0:0,0:0:0:0:
423,80,52629,5,10,0:0:0:0:
353,145,52822,1,8,0:0:0:0:
329,142,52918,1,0,0:0:0:0:
304,140,53015,2,0,L|193:124,1,80,12|0,0:0|0:0,0:0:0:0:
241,223,53402,1,10,0:0:0:0:
171,289,53595,1,0,0:0:0:0:
147,285,53693,1,0,0:0:0:0:
122,283,53790,2,0,L|11:267,1,80,0|0,0:0|0:0,0:0:0:0:
42,271,54178,5,10,0:0:0:0:
24,178,54370,1,0,0:0:0:0:
130,234,54564,1,12,0:0:0:0:
104,125,54757,1,0,0:0:0:0:
218,196,54951,1,14,0:0:0:0:
184,72,55144,1,0,0:0:0:0:
306,159,55338,2,0,P|361:176|404:172,1,80,8|0,0:0|0:0,0:0:0:0:
456,112,55726,5,10,0:0:0:0:
366,80,55918,1,0,0:0:0:0:
456,112,56112,2,0,P|478:157|469:217,1,80,12|0,0:0|0:0,0:0:0:0:
382,175,56499,1,10,0:0:0:0:
292,142,56693,1,0,0:0:0:0:
382,175,56886,2,0,P|363:209|305:240,1,80,8|0,0:0|0:0,0:0:0:0:
234,221,57273,6,0,L|155:208,1,80,10|0,0:0|0:0,0:0:0:0:
129,362,57660,2,0,L|180:300,1,80,12|0,0:0|0:0,0:0:0:0:
59,201,58048,2,0,L|87:275,1,80,14|0,0:0|0:0,0:0:0:0:
87,275,58338,1,0,0:0:0:0:
87,275,58435,1,8,0:0:0:0:
245,187,58822,5,10,0:0:0:0:
245,187,59016,1,0,0:0:0:0:
322,243,59210,2,0,P|391:257|455:232,1,120,14|0,0:0|0:0,0:0:0:0:
453,225,59596,1,10,0:0:0:0:
467,130,59789,1,2,0:0:0:0:
380,89,59983,2,0,P|370:127|378:167,1,80,10|0,0:0|0:0,0:0:0:0:
467,130,60370,5,8,0:0:0:0:
380,89,60564,1,8,0:0:0:0:
380,89,60757,1,14,0:0:0:0:
284,95,60951,5,8,0:0:0:0:
284,95,61048,1,0,0:0:0:0:
284,95,61144,1,14,0:0:0:0:
200,143,61338,1,10,0:0:0:0:
169,235,61532,1,14,0:0:0:0:
169,235,61628,1,0,0:0:0:0:
169,235,61725,1,0,0:0:0:0:
73,228,61918,5,8,0:0:0:0:
37,317,62112,1,0,0:0:0:0:
37,317,62209,1,0,0:0:0:0:
37,317,62306,2,0,P|78:324|137:302,1,80,12|0,0:0|0:0,0:0:0:0:
208,292,62693,1,10,0:0:0:0:
181,384,62887,1,0,0:0:0:0:
181,384,62984,1,0,0:0:0:0:
181,384,63081,2,0,P|222:387|279:360,1,80,8|0,0:0|0:0,0:0:0:0:
342,329,63467,5,10,0:0:0:0:
292,247,63660,1,0,0:0:0:0:
355,172,63854,2,0,P|377:205|387:243,1,80,12|0,0:0|0:0,0:0:0:0:
292,247,64241,1,14,0:0:0:0:
261,155,64435,1,0,0:0:0:0:
243,61,64628,2,0,P|283:63|319:79,1,80,8|0,0:0|0:0,0:0:0:0:
94,25,65015,5,10,0:0:0:0:
148,104,65209,1,8,0:0:0:0:
148,104,65306,1,0,0:0:0:0:
148,104,65402,2,0,L|132:182,1,80,12|0,0:0|0:0,0:0:0:0:
41,150,65789,1,10,0:0:0:0:
1,237,65983,1,0,0:0:0:0:
1,237,66080,1,0,0:0:0:0:
1,237,66176,2,0,L|17:315,1,80,8|0,0:0|0:0,0:0:0:0:
17,315,66564,5,10,0:0:0:0:
82,383,66758,1,0,0:0:0:0:
97,264,66951,1,12,0:0:0:0:
172,347,67145,1,0,0:0:0:0:
179,213,67338,1,14,0:0:0:0:
262,313,67532,1,0,0:0:0:0:
260,162,67725,1,8,0:0:0:0:
260,162,67822,1,0,0:0:0:0:
260,162,67919,1,0,0:0:0:0:
320,87,68112,5,10,0:0:0:0:
226,70,68306,1,0,0:0:0:0:
320,87,68499,2,0,P|349:127|351:188,1,80,4|0,0:0|0:0,0:0:0:0:
260,162,68887,1,10,0:0:0:0:
164,145,69079,1,0,0:0:0:0:
259,162,69273,2,0,P|245:199|217:227,1,80,8|0,0:0|0:0,0:0:0:0:
121,227,69661,6,0,L|41:235,1,80,10|0,0:0|0:0,0:0:0:0:
185,300,70048,2,0,L|217:227,1,80,4|0,0:0|0:0,0:0:0:0:
90,319,70435,2,0,L|136:383,1,80,4|0,0:0|0:0,0:0:0:0:
136,383,70725,1,0,0:0:0:0:
136,383,70822,1,8,0:0:0:0:
268,217,71209,5,10,0:0:0:0:
268,217,71402,1,8,0:0:0:0:
351,169,71596,2,0,P|411:155|472:175,1,120,14|0,0:0|0:0,0:0:0:0:
483,187,71983,1,10,0:0:0:0:
494,282,72177,1,2,0:0:0:0:
407,322,72370,2,0,P|396:284|406:246,1,80,10|0,0:0|0:0,0:0:0:0:
483,187,72757,1,8,0:0:0:0:
494,282,72951,1,0,0:0:0:0:
405,246,73144,6,0,P|366:234|303:242,1,80,14|8,0:0|0:0,0:0:0:0:
304,239,73434,1,0,0:0:0:0:
282,249,73532,1,0,0:0:0:0:
205,308,73725,1,10,0:0:0:0:
116,271,73918,1,14,0:0:0:0:
116,271,74015,1,0,0:0:0:0:
116,271,74112,1,8,0:0:0:0:
116,271,74209,1,0,0:0:0:0:
116,271,74306,1,12,0:0:0:0:
192,213,74499,1,0,0:0:0:0:
160,119,74693,6,0,P|126:138|104:171,1,80,12|0,0:0|0:0,0:0:0:0:
103,171,74983,1,0,0:0:0:0:
103,171,75080,1,8,0:0:0:0:
25,115,75274,1,0,0:0:0:0:
18,18,75467,2,0,P|57:25|92:46,1,80,12|0,0:0|0:0,0:0:0:0:
91,45,75757,1,0,0:0:0:0:
91,45,75854,1,8,0:0:0:0:
186,28,76048,1,0,0:0:0:0:
279,7,76241,6,0,L|266:110,1,80,8|8,0:0|0:0,0:0:0:0:
341,150,76629,2,0,L|245:190,1,80,8|8,0:0|0:0,0:0:0:0:
247,275,77016,2,0,L|164:212,1,80,12|8,0:0|0:0,0:0:0:0:
91,257,77403,2,0,L|104:154,1,80,12|8,0:0|0:0,0:0:0:0:
83,43,77790,6,0,L|195:75,1,80
252,90,78177,1,8,0:0:0:0:
346,95,78370,2,0,P|390:70|439:74,1,80,4|0,0:0|0:0,0:0:0:0:
278,163,78758,2,0,P|257:130|252:91,1,80,4|8,0:0|0:0,0:0:0:0:
345,231,79145,6,0,P|301:256|252:252,1,80,0|8,0:0|0:0,0:0:0:0:
219,113,79532,2,0,P|254:131|278:163,1,80,0|8,0:0|0:0,0:0:0:0:
177,280,79919,2,0,P|175:241|191:205,1,80,4|8,0:0|0:0,0:0:0:0:
278,162,80306,1,4,0:0:0:0:
278,162,80500,1,12,0:0:0:0:
191,204,80693,5,0,0:0:0:0:
180,208,80790,1,0,0:0:0:0:
168,212,80887,2,0,L|68:212,1,80,12|0,1:2|0:0,0:0:0:0:
52,122,81274,2,0,L|146:122,1,80,8|4,0:0|0:0,0:0:0:0:
166,102,81564,1,0,0:0:0:0:
166,102,81661,1,8,0:0:0:0:
256,68,81854,1,8,0:0:0:0:
256,68,81951,1,0,0:0:0:0:
256,68,82048,1,8,0:0:0:0:
348,36,82241,6,0,L|420:96,1,80,10|8,0:0|0:0,0:0:0:0:
310,210,82629,2,0,L|324:132,1,80,2|8,0:0|0:0,0:0:0:0:
479,154,83016,2,0,L|403:181,1,80,2|8,0:0|0:0,0:0:0:0:
310,210,83403,1,0,0:0:0:0:
228,164,83596,1,8,0:0:0:0:
228,164,83983,6,0,L|228:96,4,40,10|0|0|0|4,0:0|0:0|0:0|0:0|0:1,0:0:0:0:
256,192,84467,12,0,88629,0:0:0:0:
