osu file format v13

[General]
AudioFilename: Opening [black bullet - fripSide] HD.mp3
AudioLeadIn: 0
PreviewTime: 49481
Countdown: 0
SampleSet: Soft
StackLeniency: 0.7
Mode: 3
LetterboxInBreaks: 0
SpecialStyle: 0
WidescreenStoryboard: 1

[Editor]
Bookmarks: 25704,30543,39833,40995,41382,44479,54156,63833
DistanceSpacing: 0.7
BeatDivisor: 4
GridSize: 4
TimelineZoom: 1.399999

[Metadata]
Title:black bullet
TitleUnicode:black bullet
Artist:fripSide
ArtistUnicode:fripSide
Creator:Rumia-
Version:Normal
Source:ブラック・ブレット
Tags:opening op
BeatmapID:433398
BeatmapSetID:179951

[Difficulty]
HPDrainRate:7
CircleSize:7
OverallDifficulty:7
ApproachRate:2
SliderMultiplier:1.4
SliderTickRate:1

[Events]
//Background and Video events
0,0,"bgbg.jpg",0,0
//Break Periods
//Storyboard Layer 0 (Background)
//Storyboard Layer 1 (Fail)
//Storyboard Layer 2 (Pass)
//Storyboard Layer 3 (Foreground)
//Storyboard Sound Samples
//Background Colour Transformations
3,100,163,162,255

[TimingPoints]
371,387.096774193548,4,2,1,30,1,0
24370,-100,4,2,1,30,0,0
24758,-100,4,2,1,35,0,0
49919,-100,4,2,1,35,0,1
76241,-100,4,2,1,35,0,0

[Colours]
Combo1 : 220,22,12
Combo2 : 248,141,24
Combo3 : 36,0,145

[HitObjects]
402,192,371,5,4,0:0:0:0:
109,192,564,1,2,0:0:0:0:
402,192,758,1,0,0:0:0:0:
109,192,951,128,0,1338:0:0:0:0:
329,192,1338,1,2,0:0:0:0:
182,192,1532,1,0,0:0:0:0:
475,192,1725,128,2,2112:0:0:0:0:
256,192,2112,1,0,0:0:0:0:
109,192,2306,1,0,0:0:0:0:
402,192,2500,128,0,2887:0:0:0:0:
182,192,2887,1,0,0:0:0:0:
329,192,3080,1,0,0:0:0:0:
475,192,3274,128,6,3661:0:0:0:0:
109,192,3661,1,0,0:0:0:0:
402,192,3854,1,0,0:0:0:0:
182,192,4048,128,2,4435:0:0:0:0:
329,192,4435,128,2,4822:0:0:0:0:
109,192,4822,1,4,0:0:0:0:
402,192,4822,1,0,0:0:0:0:
109,192,5209,1,4,0:0:0:0:
402,192,5209,1,0,0:0:0:0:
182,192,5596,1,4,0:0:0:0:
475,192,5596,1,0,0:0:0:0:
36,192,5983,1,4,0:0:0:0:
329,192,5983,1,0,0:0:0:0:
182,192,6177,128,4,6564:0:0:0:0:
475,192,6177,128,4,6564:0:0:0:0:
329,192,6564,1,4,0:0:0:0:
36,192,6564,1,0,0:0:0:0:
109,192,7145,1,2,0:0:0:0:
256,192,7145,1,0,0:0:0:0:
329,192,7532,1,2,0:0:0:0:
182,192,7532,1,0,0:0:0:0:
402,192,7919,1,2,0:0:0:0:
256,192,7919,1,0,0:0:0:0:
475,192,8306,1,2,0:0:0:0:
329,192,8306,1,0,0:0:0:0:
256,192,8693,1,2,0:0:0:0:
402,192,8693,1,0,0:0:0:0:
36,192,9080,128,2,9274:0:0:0:0:
475,192,9274,128,0,9661:0:0:0:0:
36,192,9661,1,4,0:0:0:0:
329,192,9661,1,0,0:0:0:0:
329,192,10048,1,0,0:0:0:0:
182,192,10048,1,0,0:0:0:0:
402,192,10241,1,0,0:0:0:0:
256,192,10241,1,0,0:0:0:0:
329,192,10629,1,0,0:0:0:0:
182,192,10629,1,0,0:0:0:0:
109,192,11016,1,8,0:0:0:0:
402,192,11016,1,0,0:0:0:0:
109,192,11403,1,2,0:0:0:0:
402,192,11403,1,2,0:0:0:0:
182,192,11790,1,2,0:0:0:0:
329,192,11790,1,2,0:0:0:0:
109,192,12177,1,2,0:0:0:0:
402,192,12177,1,2,0:0:0:0:
329,192,12370,128,2,12758:0:0:0:0:
182,192,12370,128,2,12758:0:0:0:0:
36,192,12758,1,0,0:0:0:0:
475,192,12758,1,0,0:0:0:0:
182,192,13145,1,0,0:0:0:0:
256,192,13532,1,0,0:0:0:0:
402,192,13822,1,2,0:0:0:0:
475,192,14112,1,2,0:0:0:0:
256,192,14306,1,0,0:0:0:0:
36,192,14306,1,0,0:0:0:0:
182,192,14693,1,0,0:0:0:0:
329,192,15080,1,0,0:0:0:0:
182,192,15370,1,2,0:0:0:0:
402,192,15661,1,2,0:0:0:0:
256,192,15854,1,0,0:0:0:0:
109,192,15854,1,0,0:0:0:0:
329,192,16241,1,0,0:0:0:0:
36,192,16435,1,2,0:0:0:0:
182,192,16629,1,0,0:0:0:0:
475,192,16919,1,2,0:0:0:0:
402,192,17209,1,0,0:0:0:0:
109,192,17403,1,0,0:0:0:0:
256,192,17403,1,0,0:0:0:0:
402,192,17790,1,0,0:0:0:0:
329,192,18177,1,0,0:0:0:0:
109,192,18467,1,0,0:0:0:0:
402,192,18758,1,0,0:0:0:0:
182,192,18951,1,0,0:0:0:0:
36,192,18951,1,4,0:0:0:0:
256,192,19241,1,2,0:0:0:0:
182,192,19532,1,2,0:0:0:0:
475,192,19725,1,0,0:0:0:0:
329,192,19725,1,0,0:0:0:0:
109,192,20016,1,2,0:0:0:0:
256,192,20306,1,2,0:0:0:0:
402,192,20500,1,0,0:0:0:0:
475,192,20500,1,0,0:0:0:0:
36,192,20790,1,2,0:0:0:0:
109,192,20790,1,0,0:0:0:0:
182,192,21080,1,2,0:0:0:0:
329,192,21274,1,0,0:0:0:0:
402,192,21564,1,2,0:0:0:0:
475,192,21854,1,2,0:0:0:0:
109,192,22048,1,2,0:0:0:0:
329,192,22048,1,0,0:0:0:0:
182,192,22338,1,2,0:0:0:0:
402,192,22629,1,2,0:0:0:0:
402,192,22822,1,2,0:0:0:0:
109,192,22822,1,0,0:0:0:0:
256,192,23112,1,2,0:0:0:0:
182,192,23403,1,2,0:0:0:0:
329,192,23403,1,0,0:0:0:0:
36,192,23596,1,0,0:0:0:0:
475,192,23596,1,0,0:0:0:0:
256,192,23790,1,2,0:0:0:0:
402,192,23983,1,0,0:0:0:70:soft-hitclap2.wav
109,192,23983,1,0,0:0:0:0:
256,192,24177,1,2,0:0:0:0:
182,192,24370,1,0,0:0:0:0:
36,192,24467,1,0,0:0:0:70:soft-hitclap2.wav
182,192,24661,1,0,0:0:0:0:
329,192,24758,1,0,0:0:0:70:soft-hitclap2.wav
256,192,24951,1,2,0:0:0:0:
36,192,25145,1,0,0:0:0:0:
475,192,25145,1,4,0:0:0:0:
256,192,25532,1,2,0:0:0:0:
109,192,25532,1,2,0:0:0:0:
182,192,25919,1,0,0:0:0:0:
182,192,26112,1,2,0:0:0:0:
109,192,26306,1,0,0:0:0:70:soft-hitclap2.wav
402,192,26306,1,0,0:0:0:0:
182,192,26500,1,2,0:0:0:0:
475,192,26693,1,0,0:0:0:0:
109,192,26887,1,0,0:0:0:0:
256,192,26983,1,0,0:0:0:0:
402,192,27080,1,0,0:0:0:0:
182,192,27274,1,0,0:0:0:0:
475,192,27467,1,0,0:0:0:0:
329,192,27564,1,2,0:0:0:0:
182,192,27661,1,8,0:0:0:25:
36,192,27854,1,0,0:0:0:0:
475,192,27854,1,0,0:0:0:70:soft-hitclap2.wav
329,192,28048,1,0,0:0:0:0:
475,192,28241,1,0,0:0:0:0:
36,192,28241,1,0,0:0:0:0:
256,192,28629,1,0,0:0:0:0:
182,192,29016,128,2,29790:0:0:0:0:
402,192,29016,1,0,0:0:0:0:
329,192,29403,1,0,0:0:0:70:soft-hitclap2.wav
475,192,29403,1,0,0:0:0:0:
36,192,29596,1,0,0:0:0:0:
402,192,29790,128,0,30564:0:0:0:0:
256,192,29790,1,0,0:0:0:0:
109,192,30177,1,0,0:0:0:0:
329,192,30370,1,0,0:0:0:0:
182,192,30564,1,0,0:0:0:0:
36,192,30661,1,0,0:0:0:70:soft-hitclap2.wav
329,192,30854,1,0,0:0:0:0:
475,192,30951,1,0,0:0:0:70:soft-hitclap2.wav
182,192,31145,1,0,0:0:0:0:
36,192,31338,1,4,0:0:0:0:
329,192,31338,1,4,0:0:0:0:
182,192,31725,1,0,0:0:0:0:
329,192,32112,1,0,0:0:0:0:
402,192,32500,1,0,0:0:0:70:soft-hitclap2.wav
109,192,32500,1,0,0:0:0:0:
475,192,32887,1,0,0:0:0:0:
329,192,33274,1,0,0:0:0:0:
109,192,33661,1,0,0:0:0:0:
402,192,33854,1,0,0:0:0:0:
475,192,34048,1,0,0:0:0:70:soft-hitclap2.wav
182,192,34048,1,0,0:0:0:0:
256,192,34435,1,4,0:0:0:0:
36,192,34435,1,4,0:0:0:0:
182,192,34822,1,8,0:0:0:0:
109,192,35209,1,4,0:0:0:0:
402,192,35209,1,4,0:0:0:0:
36,192,35596,1,8,0:0:0:0:
182,192,35983,1,4,0:0:0:0:
475,192,35983,1,4,0:0:0:0:
402,192,36370,1,8,0:0:0:0:
182,192,36758,1,0,0:0:0:0:
329,192,36951,1,2,0:0:0:0:
182,192,37145,1,0,0:0:0:0:
329,192,37338,1,2,0:0:0:0:
109,192,37532,1,4,0:0:0:0:
256,192,37532,1,0,0:0:0:0:
402,192,37725,1,2,0:0:0:0:
182,192,37919,1,0,0:0:0:0:
329,192,38112,1,2,0:0:0:0:
109,192,38306,1,0,0:0:0:0:
402,192,38500,1,2,0:0:0:0:
36,192,38693,1,8,0:0:0:0:
182,192,38693,1,8,0:0:0:0:
402,192,38887,1,2,0:0:0:0:
109,192,39080,1,0,0:0:0:0:
402,192,39467,1,0,0:0:0:0:
36,192,39854,1,0,0:0:0:0:
182,192,39951,1,8,0:0:0:0:
329,192,39951,1,8,0:0:0:0:
256,192,40241,1,8,0:0:0:0:
402,192,40241,1,0,0:0:0:0:
182,192,40435,1,0,0:0:0:0:
329,192,40629,1,4,0:0:0:0:
109,192,40822,1,2,0:0:0:0:
402,192,41016,1,0,0:0:0:0:
182,192,41209,1,2,0:0:0:0:
475,192,41403,1,0,0:0:0:0:
256,192,41596,1,2,0:0:0:0:
182,192,41790,1,8,0:0:0:0:
36,192,41790,1,8,0:0:0:0:
109,192,42177,1,4,0:0:0:0:
402,192,42177,1,0,0:0:0:0:
182,192,42370,1,0,0:0:0:0:
329,192,42564,1,0,0:0:0:0:
109,192,42758,1,0,0:0:0:0:
475,192,42951,1,0,0:0:0:0:
36,192,43145,1,0,0:0:0:0:
329,192,43338,1,8,0:0:0:0:
182,192,43532,1,2,0:0:0:0:
402,192,43725,1,4,0:0:0:0:
109,192,43919,1,2,0:0:0:0:
475,192,44112,1,0,0:0:0:0:
182,192,44306,1,2,0:0:0:0:
402,192,44500,1,0,0:0:0:0:
109,192,44693,1,2,0:0:0:0:
329,192,44887,1,8,0:0:0:0:
182,192,44887,1,8,0:0:0:0:
109,192,45274,1,4,0:0:0:0:
402,192,45274,1,4,0:0:0:0:
36,192,45661,1,8,0:0:0:0:
475,192,45661,1,12,0:0:0:0:
109,192,46048,1,4,0:0:0:0:
402,192,46145,1,0,0:0:0:0:
109,192,46338,1,0,0:0:0:0:
402,192,46435,1,8,0:0:0:0:
182,192,46629,1,0,0:0:0:0:
36,192,46822,1,0,0:0:0:0:
475,192,46822,1,0,0:0:0:0:
256,192,47016,1,2,0:0:0:0:
402,192,47209,1,8,0:0:0:0:
109,192,47209,1,8,0:0:0:0:
256,192,47403,1,2,0:0:0:0:
475,192,47596,1,0,0:0:0:0:
36,192,47596,1,0,0:0:0:0:
109,192,47887,1,0,0:0:0:0:
402,192,47887,1,0,0:0:0:0:
182,192,48177,1,0,0:0:0:0:
329,192,48177,1,0,0:0:0:0:
109,192,48370,1,4,0:0:0:0:
402,192,48370,1,4,0:0:0:0:
109,192,48661,1,4,0:0:0:0:
402,192,48661,1,4,0:0:0:0:
109,192,48951,128,4,49919:0:0:0:0:
402,192,48951,128,4,49919:0:0:0:0:
182,192,49919,5,0,0:0:0:0:
329,192,49919,1,0,0:0:0:0:
329,192,50306,1,8,0:0:0:0:
475,192,50306,1,8,0:0:0:0:
109,192,50500,1,2,0:0:0:0:
402,192,50693,1,0,0:0:0:0:
256,192,50887,1,0,0:0:0:0:
36,192,51080,1,8,0:0:0:0:
182,192,51080,1,8,0:0:0:0:
36,192,51467,1,4,0:0:0:0:
475,192,51467,1,0,0:0:0:0:
329,192,51854,1,8,0:0:0:0:
402,192,51854,1,8,0:0:0:0:
256,192,52241,1,0,0:0:0:0:
109,192,52435,1,0,0:0:0:0:
475,192,52629,1,0,0:0:0:0:
402,192,52629,1,0,0:0:0:0:
182,192,52822,1,2,0:0:0:0:
36,192,53016,1,0,0:0:0:0:
329,192,53016,1,0,0:0:0:0:
109,192,53403,1,0,0:0:0:0:
402,192,53403,1,0,0:0:0:0:
182,192,53596,1,0,0:0:0:0:
329,192,53790,1,0,0:0:0:0:
36,192,54177,1,8,0:0:0:0:
475,192,54177,1,8,0:0:0:0:
182,192,54370,1,0,0:0:0:0:
329,192,54564,1,0,0:0:0:0:
182,192,54758,1,0,0:0:0:0:
36,192,54951,1,4,0:0:0:0:
475,192,54951,1,0,0:0:0:0:
329,192,55145,1,0,0:0:0:0:
109,192,55338,1,4,0:0:0:0:
402,192,55532,1,0,0:0:0:0:
182,192,55725,1,4,0:0:0:0:
329,192,55919,1,0,0:0:0:0:
109,192,56112,1,4,0:0:0:0:
402,192,56112,1,4,0:0:0:0:
182,192,56500,1,8,0:0:0:0:
475,192,56500,1,8,0:0:0:0:
329,192,56693,1,2,0:0:0:0:
256,192,56887,1,0,0:0:0:0:
402,192,56887,1,0,0:0:0:0:
36,192,57274,1,8,0:0:0:0:
329,192,57274,1,8,0:0:0:0:
182,192,57467,1,0,0:0:0:0:
109,192,57661,1,4,0:0:0:0:
402,192,57661,1,4,0:0:0:0:
256,192,57854,1,2,0:0:0:0:
329,192,58048,1,8,0:0:0:0:
475,192,58048,1,0,0:0:0:0:
256,192,58241,1,2,0:0:0:0:
109,192,58435,1,0,0:0:0:0:
182,192,58629,1,0,0:0:0:0:
475,192,58822,1,8,0:0:0:0:
329,192,58822,1,8,0:0:0:0:
182,192,59016,1,0,0:0:0:0:
329,192,59209,1,4,0:0:0:0:
182,192,59209,1,0,0:0:0:0:
109,192,59596,1,0,0:0:0:0:
402,192,59596,1,0,0:0:0:0:
182,192,59790,1,0,0:0:0:0:
402,192,59983,1,0,0:0:0:0:
256,192,60177,1,0,0:0:0:0:
36,192,60370,1,8,0:0:0:0:
475,192,60370,1,8,0:0:0:0:
109,192,60758,1,0,0:0:0:0:
402,192,60758,1,0,0:0:0:0:
182,192,61048,1,0,0:0:0:0:
475,192,61048,1,0,0:0:0:0:
402,192,61338,1,0,0:0:0:0:
109,192,61338,1,0,0:0:0:0:
182,192,61532,1,4,0:0:0:0:
36,192,61532,128,0,62306:0:0:0:0:
329,192,61919,128,4,62306:0:0:0:0:
182,192,62306,1,4,0:0:0:0:
475,192,62306,1,4,0:0:0:0:
256,192,62500,1,0,0:0:0:0:
182,192,62693,1,8,0:0:0:0:
36,192,62693,1,8,0:0:0:0:
402,192,62887,1,2,0:0:0:0:
109,192,63080,1,0,0:0:0:0:
256,192,63274,1,0,0:0:0:0:
329,192,63467,1,8,0:0:0:0:
475,192,63467,1,8,0:0:0:0:
182,192,63661,1,2,0:0:0:0:
109,192,63854,1,0,0:0:0:0:
402,192,63854,1,0,0:0:0:0:
256,192,64048,1,2,0:0:0:0:
329,192,64241,1,8,0:0:0:0:
36,192,64241,1,8,0:0:0:0:
182,192,64435,1,2,0:0:0:0:
329,192,64629,1,2,0:0:0:0:
182,192,64822,1,2,0:0:0:0:
109,192,65016,1,8,0:0:0:0:
36,192,65016,1,8,0:0:0:0:
256,192,65209,1,2,0:0:0:0:
475,192,65403,1,0,0:0:0:0:
182,192,65403,1,4,0:0:0:0:
402,192,65790,1,8,0:0:0:0:
256,192,65983,1,0,0:0:0:0:
109,192,66177,128,0,66564:0:0:0:0:
182,192,66564,1,8,0:0:0:0:
329,192,66564,1,0,0:0:0:0:
256,192,66758,1,0,0:0:0:0:
329,192,66951,1,4,0:0:0:0:
475,192,66951,1,0,0:0:0:0:
256,192,67145,1,0,0:0:0:0:
182,192,67338,1,4,0:0:0:0:
36,192,67338,1,4,0:0:0:0:
256,192,67532,1,2,0:0:0:0:
109,192,67725,1,8,0:0:0:0:
329,192,67822,1,2,0:0:0:0:
182,192,68016,1,2,0:0:0:0:
402,192,68112,128,8,68500:0:0:0:0:
36,192,68500,1,4,0:0:0:0:
256,192,68500,1,4,0:0:0:0:
182,192,68887,1,8,0:0:0:0:
329,192,68887,1,8,0:0:0:0:
109,192,69080,1,2,0:0:0:0:
329,192,69274,128,0,69661:0:0:0:0:
182,192,69661,1,8,0:0:0:0:
36,192,69661,1,8,0:0:0:0:
329,192,69854,1,2,0:0:0:0:
109,192,70048,1,4,0:0:0:0:
402,192,70048,1,2,0:0:0:0:
182,192,70241,1,0,0:0:0:0:
329,192,70435,1,8,0:0:0:0:
475,192,70435,1,8,0:0:0:0:
182,192,70629,1,2,0:0:0:0:
36,192,70822,128,2,71209:0:0:0:0:
256,192,71016,1,0,0:0:0:0:
475,192,71209,1,8,0:0:0:0:
329,192,71209,1,8,0:0:0:0:
182,192,71403,1,0,0:0:0:0:
109,192,71596,1,12,0:0:0:0:
402,192,71596,1,4,0:0:0:0:
182,192,71983,1,8,0:0:0:0:
475,192,71983,1,8,0:0:0:0:
402,192,72177,1,2,0:0:0:0:
256,192,72370,1,0,0:0:0:0:
182,192,72758,1,8,0:0:0:0:
329,192,72758,1,0,0:0:0:0:
36,192,73145,1,12,0:0:0:0:
475,192,73145,1,8,0:0:0:0:
109,192,73435,1,8,0:0:0:0:
402,192,73435,1,4,0:0:0:0:
329,192,73725,1,8,0:0:0:0:
182,192,73725,1,4,0:0:0:0:
109,192,73919,1,0,0:0:0:0:
402,192,74112,1,0,0:0:0:0:
109,192,74306,1,8,0:0:0:0:
402,192,74500,1,0,0:0:0:0:
36,192,74693,1,4,0:0:0:0:
475,192,74693,1,4,0:0:0:0:
256,192,74887,1,2,0:0:0:0:
475,192,75080,1,8,0:0:0:0:
182,192,75274,1,2,0:0:0:0:
402,192,75467,1,0,0:0:0:0:
109,192,75661,1,2,0:0:0:0:
329,192,75854,1,10,0:0:0:0:
36,192,76048,1,2,0:0:0:0:
329,192,76241,1,4,0:0:0:0:
402,192,76435,1,0,0:0:0:0:
182,192,76629,1,8,0:0:0:0:
36,192,76629,1,8,0:0:0:0:
329,192,76822,1,0,0:0:0:0:
182,192,77016,1,4,0:0:0:0:
109,192,77209,1,0,0:0:0:0:
329,192,77403,1,8,0:0:0:0:
475,192,77403,1,4,0:0:0:0:
36,192,77596,1,0,0:0:0:0:
109,192,77790,128,0,78370:0:0:0:0:
402,192,77790,128,0,78370:0:0:0:0:
182,192,78370,1,2,0:0:0:0:
329,192,78370,1,2,0:0:0:0:
182,192,78758,1,2,0:0:0:0:
329,192,78758,1,2,0:0:0:0:
109,192,79145,1,2,0:0:0:0:
402,192,79145,1,2,0:0:0:0:
36,192,79532,1,2,0:0:0:0:
475,192,79532,1,2,0:0:0:0:
109,192,79919,1,0,0:0:0:0:
402,192,79919,1,0,0:0:0:0:
182,192,80306,1,2,0:0:0:0:
329,192,80306,1,2,0:0:0:0:
329,192,80500,128,0,80887:0:0:0:0:
182,192,80500,128,0,80887:0:0:0:0:
36,192,80887,1,6,0:0:0:0:
475,192,80887,1,4,0:0:0:0:
256,192,80887,128,4,81467:0:0:0:0:
109,192,81467,1,2,0:0:0:0:
402,192,81467,1,2,0:0:0:0:
182,192,81854,1,2,0:0:0:0:
329,192,81854,1,2,0:0:0:0:
109,192,82241,1,2,0:0:0:0:
402,192,82241,1,2,0:0:0:0:
36,192,82629,1,2,0:0:0:0:
475,192,82629,1,2,0:0:0:0:
109,192,83016,1,2,0:0:0:0:
402,192,83016,1,2,0:0:0:0:
182,192,83403,1,0,0:0:0:0:
329,192,83403,1,0,0:0:0:0:
329,192,83596,128,4,83983:0:0:0:0:
182,192,83596,128,0,83983:0:0:0:0:
256,192,83983,128,0,84370:0:0:0:0:
402,192,84370,128,4,89209:0:0:0:0:
109,192,84370,128,0,89209:0:0:0:0:
