osu file format v14

[General]
AudioFilename: 01. black bullet.mp3
AudioLeadIn: 1000
PreviewTime: 139452
Countdown: 1
SampleSet: Soft
StackLeniency: 0.7
Mode: 0
LetterboxInBreaks: 1
WidescreenStoryboard: 1

[Editor]
DistanceSpacing: 0.9
BeatDivisor: 4
GridSize: 4
TimelineZoom: 2.5

[Metadata]
Title:black bullet
TitleUnicode:black bullet
Artist:fripSide
ArtistUnicode:fripSide
Creator:P A N
Version:Normal
Source:ブラック・ブレット
Tags:Burakku Buretto black bullet p_a_n opening pan
BeatmapID:589489
BeatmapSetID:230498

[Difficulty]
HPDrainRate:3
CircleSize:3
OverallDifficulty:3
ApproachRate:4.5
SliderMultiplier:1.2
SliderTickRate:2

[Events]
//Background and Video events
0,0,"cxvsd.jpg",0,0
//Break Periods
2,103071,110901
2,192635,197611
2,199071,202256
//Storyboard Layer 0 (Background)
//Storyboard Layer 1 (Fail)
//Storyboard Layer 2 (Pass)
//Storyboard Layer 3 (Foreground)
//Storyboard Sound Samples

[TimingPoints]
678,387.096774193548,4,2,2,70,1,0
25452,-100,4,2,2,60,0,0
37839,-100,4,2,2,70,0,0
62613,-100,4,2,2,80,0,1
68419,-100,4,2,2,80,0,0
68807,-100,4,2,2,80,0,1
74613,-100,4,2,2,80,0,0
75000,-100,4,2,2,80,0,1
80807,-100,4,2,2,80,0,0
81194,-100,4,2,2,80,0,1
90484,-100,4,2,2,70,0,0
112161,-100,4,2,2,40,0,0
115258,-100,4,2,2,70,0,0
140032,-100,4,2,2,80,0,1
145839,-100,4,2,2,80,0,0
146226,-100,4,2,2,80,0,1
152032,-100,4,2,2,80,0,0
152419,-100,4,2,2,80,0,1
158226,-100,4,2,2,80,0,0
158613,-100,4,2,2,80,0,1
167903,-100,4,2,2,70,0,0
176613,-100,4,2,2,40,0,0
177000,-100,4,2,2,70,0,0
180290,-100,4,2,2,70,0,1
192677,-100,4,2,2,70,0,0
203516,-100,4,2,2,60,0,0
205065,-100,4,2,2,70,0,0
217452,-100,4,2,2,80,0,1
223258,-100,4,2,2,80,0,0
223645,-100,4,2,2,80,0,1
229452,-100,4,2,2,80,0,0
229839,-100,4,2,2,80,0,1
235645,-100,4,2,2,80,0,0
236032,-100,4,2,2,80,0,1
245323,-100,4,2,2,70,0,0
258097,-100,4,2,2,60,0,0
258484,-100,4,2,2,50,0,0
258871,-100,4,2,2,40,0,0
259258,-100,4,2,3,30,0,0

[Colours]
Combo1 : 255,236,0
Combo2 : 174,255,255
Combo3 : 196,255,136
Combo4 : 255,146,36

[HitObjects]
256,192,678,5,6,0:0:0:0:
302,164,871,2,0,L|374:166,2,60,0|2|0,0:0|0:0|0:0,0:0:0:0:
199,131,1645,2,0,L|156:63,2,60,0|2|0,0:0|0:0|0:0,0:0:0:0:
223,236,2419,2,0,L|185:297,2,60,0|2|0,0:0|0:0|0:0,0:0:0:0:
304,164,3194,2,0,L|376:166,1,60,0|2,0:0|0:0,0:0:0:0:
407,197,3581,6,0,P|422:255|400:330,2,120,0|0|0,0:0|0:0|0:0,0:0:0:0:
317,256,4742,2,0,P|267:250|217:193,1,120
245,96,5516,1,0,0:0:0:0:
161,27,5903,2,0,P|128:15|46:31,1,120
13,73,6484,1,6,0:0:0:0:
107,125,6871,38,0,L|113:309,1,180,6|2,0:0|0:3,0:0:0:0:
221,304,7839,2,0,L|224:373,2,60,2|2|2,0:3|0:0|0:3,0:0:0:0:
328,293,8613,2,0,L|325:224,2,60,2|2|2,0:3|0:0|0:3,0:0:0:0:
435,288,9387,2,0,L|433:224,1,60,2|2,0:3|0:0,0:0:0:0:
436,173,9774,6,0,P|376:121|221:161,1,240,6|2,0:0|0:3,0:0:0:0:
172,243,10936,1,2,0:3:0:0:
226,335,11323,38,0,P|177:350|103:321,1,120,4|4,0:0|0:0,0:0:0:0:
51,240,12097,2,0,L|55:111,1,120,4|2,0:0|0:0,0:0:0:0:
56,66,12677,1,4,0:0:0:0:
158,102,13065,6,0,P|220:118|282:97,1,120,4|0,0:1|0:0,0:0:0:0:
311,65,13645,2,0,B|354:63|354:63|405:77|405:77|444:78,2,120,2|2|2,0:3|0:3|0:3,0:0:0:0:
345,167,14807,2,0,P|362:225|343:291,1,120,2|2,0:3|0:3,0:0:0:0:
262,346,15581,2,0,L|200:343,1,60,2|2,0:3|0:0,0:0:0:0:
137,256,16161,38,0,B|130:219|135:197|135:197|126:168|126:168|135:140|135:140|133:73,1,180,6|2,0:0|0:3,0:0:0:0:
229,29,17129,2,0,L|359:33,1,120,2|2,0:3|0:3,0:0:0:0:
429,104,17903,2,0,L|425:223,1,120,2|2,0:3|0:3,0:0:0:0:
322,259,18677,2,0,L|324:187,1,60,2|6,0:3|0:0,0:0:0:0:
241,128,19258,6,0,P|176:100|63:137,1,180,6|2,0:0|0:3,0:0:0:0:
51,233,20226,2,0,L|57:357,1,120,2|2,0:3|0:3,0:0:0:0:
159,319,21000,2,0,L|154:189,1,120,2|2,0:3|0:3,0:0:0:0:
257,232,21774,2,0,L|261:307,1,60,2|2,0:3|0:0,0:0:0:0:
353,347,22355,38,0,P|407:361|470:344,1,120,6|2,0:0|0:0,0:0:0:0:
497,299,22936,2,0,L|488:175,1,120,2|2,0:3|0:3,0:0:0:0:
468,74,23710,1,4,0:0:0:0:
373,125,24097,2,0,P|361:183|382:250,1,120,2|2,0:3|0:3,0:0:0:0:
353,346,24871,2,0,L|293:343,1,60,2|4,0:3|0:1,0:0:0:0:
203,281,25452,5,6,0:0:0:0:
114,342,25839,2,0,P|81:347|52:343,1,60,2|2,0:0|0:3,0:0:0:0:
26,297,26226,2,0,L|32:166,1,120,2|2,0:0|0:0,0:0:0:0:
83,82,27000,38,0,P|140:69|198:86,1,120,2|2,0:0|0:0,0:0:0:0:
257,175,27774,1,2,0:0:0:0:
316,85,28161,1,2,0:0:0:0:
405,145,28548,6,0,P|417:186|394:260,1,120,2|2,0:0|0:0,0:0:0:0:
316,332,29323,2,0,L|197:330,1,120,2|2,0:0|0:0,0:0:0:0:
146,308,29903,1,0,0:0:0:0:
118,261,30097,38,0,P|103:200|122:136,1,120,2|2,0:0|0:0,0:0:0:0:
186,63,30871,1,2,0:0:0:0:
291,38,31258,2,0,L|365:44,1,60,2|2,0:0|0:0,0:0:0:0:
398,68,31645,6,0,P|414:126|400:187,1,120,6|2,0:0|0:0,0:0:0:0:
340,272,32419,1,2,0:0:0:0:
400,361,32807,2,0,P|432:367|461:359,1,60,2|0,0:0|0:0,0:0:0:0:
506,335,33194,38,0,L|502:199,1,120,2|2,0:0|0:0,0:0:0:0:
499,107,33968,1,2,0:0:0:0:
398,67,34355,1,2,0:0:0:0:
312,132,34742,6,0,P|257:148|190:132,1,120,2|0,0:0|0:0,0:0:0:0:
162,93,35323,2,0,L|167:25,1,60,0|2,0:0|0:0,0:0:0:0:
60,55,35903,2,0,L|54:122,1,60,2|0,0:0|0:0,0:0:0:0:
48,168,36290,38,0,B|55:209|55:209|52:249|52:249|63:300,1,120,2|8,0:0|0:0,0:0:0:0:
166,306,37065,2,0,L|157:246,2,60,2|8|8,0:0|0:0|0:0,0:0:0:0:
267,342,37839,6,0,B|294:347|314:344|314:344|332:351|332:351|348:345|348:345|389:345,1,120,6|2,0:0|0:0,0:0:0:0:
430,247,38613,2,0,P|401:174|426:75,1,180,2|0,0:0|0:0,0:0:0:0:
439,26,39387,38,0,L|317:32,1,120,2|2,0:0|0:0,0:0:0:0:
255,119,40161,2,0,L|270:241,1,120,2|8,0:0|0:0,0:0:0:0:
161,232,40936,6,0,L|144:99,2,120,2|2|2,0:0|0:0|0:0,0:0:0:0:
111,327,42097,2,0,P|79:332|42:324,1,60,8|0,0:0|0:0,0:0:0:0:
22,282,42484,38,0,L|30:146,1,120,2|2,0:0|0:0,0:0:0:0:
65,60,43258,2,0,P|38:53|2:59,2,60,2|8|8,0:0|0:0|0:0,0:0:0:0:
150,125,44032,6,0,P|211:138|279:118,1,120,6|2,0:0|0:0,0:0:0:0:
346,52,44807,1,2,0:0:0:0:
435,111,45194,2,0,L|430:175,1,60,8|0,0:0|0:0,0:0:0:0:
429,224,45581,38,0,L|446:355,1,120,2|2,0:0|0:0,0:0:0:0:
343,305,46355,2,0,P|278:290|223:308,1,120,2|8,0:0|0:0,0:0:0:0:
136,361,47129,6,0,P|120:300|137:241,1,120,6|8,0:0|0:0,0:0:0:0:
213,172,47903,2,0,L|341:177,1,120,6|8,0:0|0:0,0:0:0:0:
307,71,48677,38,0,L|183:66,1,120,6|8,0:0|0:0,0:0:0:0:
109,142,49452,2,0,P|91:124|82:86,2,60,6|8|8,0:0|0:0|0:0,0:0:0:0:
213,172,50226,6,0,P|227:233|211:294,1,120,6|2,0:0|0:0,0:0:0:0:
304,347,51000,2,0,L|424:340,1,120,2|8,0:0|0:0,0:0:0:0:
467,308,51581,1,0,0:0:0:0:
491,259,51774,38,0,P|503:195|483:134,1,120,2|2,0:0|0:0,0:0:0:0:
409,68,52548,2,0,L|404:9,2,60,2|8|8,0:0|0:0|0:0,0:0:0:0:
335,147,53323,6,0,P|275:162|211:148,1,120,6|2,0:0|0:0,0:0:0:0:
129,91,54097,1,2,0:0:0:0:
39,151,54484,2,0,P|35:181|42:217,1,60,8|0,0:0|0:0,0:0:0:0:
74,251,54871,38,6,L|199:245,1,120,6|2,0:0|0:0,0:0:0:0:
203,352,55645,2,0,L|144:357,2,60,2|8|8,0:0|0:0|0:0,0:0:0:0:
292,290,56419,6,0,P|344:283|413:309,1,120,6|2,0:0|0:0,0:0:0:0:
489,234,57194,2,0,L|479:107,1,120,2|8,0:0|0:0,0:0:0:0:
457,65,57774,1,0,0:0:0:0:
412,33,57968,38,0,P|353:20|286:38,1,120,6|6,0:0|0:0,0:0:0:0:
216,106,58742,2,0,L|226:232,1,120,6|6,0:0|0:0,0:0:0:0:
176,322,59516,6,0,P|134:337|56:320,1,120,6|2,0:0|0:0,0:0:0:0:
9,228,60290,2,0,L|23:109,1,120,2|2,0:0|0:0,0:0:0:0:
89,23,61065,38,0,L|197:31,2,90,6|6|6,0:0|0:0|0:0,0:0:0:0:
340,122,62613,22,0,P|352:184|335:250,1,120,4|10,0:1|0:0,0:0:0:0:
312,285,63194,1,0,0:0:0:0:
263,308,63387,1,2,0:0:0:0:
156,324,63774,1,10,0:0:0:0:
67,261,64161,6,0,P|50:202|65:144,1,120,6|10,0:0|0:0,0:0:0:0:
150,81,64936,1,2,0:0:0:0:
235,146,65323,2,0,L|299:146,1,60,10|2,0:0|0:0,0:0:0:0:
349,144,65710,38,0,P|340:211|358:262,1,120,6|10,0:0|0:0,0:0:0:0:
445,197,66484,1,2,0:0:0:0:
442,89,66871,1,10,0:0:0:0:
349,33,67258,6,0,L|224:40,1,120,6|6,0:0|0:0,0:0:0:0:
235,147,68032,2,0,P|250:208|236:267,1,120,6|6,0:0|0:0,0:0:0:0:
143,210,68807,37,6,0:0:0:0:
50,266,69194,2,0,L|56:331,2,60,10|0|2,0:0|0:0|0:0,0:0:0:0:
40,158,69968,1,10,0:0:0:0:
30,50,70355,6,0,P|92:35|152:54,1,120,6|10,0:0|0:0,0:0:0:0:
201,141,71129,2,0,P|260:155|320:137,1,120,2|10,0:0|0:0,0:0:0:0:
356,103,71710,1,0,0:0:0:0:
396,68,71903,38,0,P|453:52|510:66,1,120,6|10,0:0|0:0,0:0:0:0:
457,160,72677,2,0,L|465:286,1,120,2|10,0:0|0:0,0:0:0:0:
399,366,73452,5,6,0:0:0:0:
340,274,73839,2,0,P|324:210|343:152,1,120,6|6,0:0|0:0,0:0:0:0:
396,68,74613,1,6,0:0:0:0:
290,45,75000,38,0,L|167:49,1,120,4|8,0:1|0:0,0:0:0:0:
120,71,75581,1,0,0:0:0:0:
94,118,75774,2,0,P|83:188|107:242,1,120,0|8,0:0|0:0,0:0:0:0:
161,321,76548,6,0,P|108:339|36:315,2,120,6|10|2,0:0|0:0|0:0,0:0:0:0:
247,255,77710,2,0,P|281:251|319:261,1,60,10|0,0:0|0:0,0:0:0:0:
355,277,78097,38,0,L|356:149,1,120,6|10,0:0|0:0,0:0:0:0:
305,61,78871,2,0,P|368:50|426:72,1,120,2|10,0:0|0:0,0:0:0:0:
486,152,79645,5,6,0:0:0:0:
477,259,80032,2,0,P|472:323|437:371,1,120,6|6,0:0|0:0,0:0:0:0:
333,383,80807,1,6,0:0:0:0:
258,304,81194,38,0,P|263:240|298:192,1,120,6|8,0:0|0:0,0:0:0:0:
342,171,81774,1,0,0:0:0:0:
393,187,81968,2,0,P|454:202|511:186,1,120,2|10,0:0|0:0,0:0:0:0:
450,96,82742,5,6,0:0:0:0:
346,65,83129,2,0,L|276:71,1,60,10|0,0:0|0:0,0:0:0:0:
232,76,83516,2,0,L|107:69,1,120,2|10,0:0|0:0,0:0:0:0:
41,150,84290,38,0,P|29:215|50:277,2,120,6|10|2,0:0|0:0|0:0,0:0:0:0:
135,203,85452,1,10,0:0:0:0:
224,142,85839,6,0,P|239:199|227:258,2,120,6|6|6,0:0|0:0|0:0,0:0:0:0:
135,203,87000,1,6,0:0:0:0:
130,310,87387,38,0,P|175:351|244:357,1,120,6|10,0:0|0:0,0:0:0:0:
329,313,88161,2,0,L|449:318,1,120,6|10,0:0|0:0,0:0:0:0:
420,213,88936,6,0,P|403:153|421:91,1,120,6|6,0:0|0:0,0:0:0:0:
314,62,89710,2,0,P|259:75|194:64,1,120,6|6,0:0|0:0,0:0:0:0:
100,16,90484,6,0,P|89:77|116:135,1,120,4|2,0:1|0:0,0:0:0:0:
153,162,91065,1,2,0:3:0:0:
119,264,91452,2,0,L|-6:268,2,120,2|2|2,0:3|0:3|0:3,0:0:0:0:
213,316,92613,2,0,L|337:320,1,120,2|2,0:3|0:3,0:0:0:0:
387,320,93194,1,2,0:0:0:0:
445,229,93581,6,0,P|456:170|435:106,1,120,6|2,0:0|0:0,0:0:0:0:
399,77,94161,2,0,L|272:82,1,120,2|2,0:3|0:3,0:0:0:0:
190,144,94936,2,0,L|65:138,2,120,2|2|2,0:3|0:3|0:3,0:0:0:0:
260,225,96097,2,0,P|263:248|260:286,1,60,2|6,0:3|0:0,0:0:0:0:
165,337,96677,38,0,B|116:325|77:349|77:349|70:299|21:282,1,180,6|2,0:0|0:3,0:0:0:0:
61,181,97645,2,0,P|73:120|51:57,1,120,2|2,0:3|0:3,0:0:0:0:
159,34,98419,2,0,L|289:37,1,120,2|2,0:3|0:3,0:0:0:0:
374,88,99194,2,0,L|441:81,1,60,2|6,0:3|0:0,0:0:0:0:
456,187,99774,6,0,L|326:198,1,120,6|2,0:0|0:0,0:0:0:0:
305,241,100355,2,0,B|318:298|318:298|305:360,2,120,2|2|4,0:3|0:3|0:0,0:0:0:0:
215,301,101516,2,0,L|93:302,1,120,2|2,0:3|0:3,0:0:0:0:
33,213,102290,1,2,0:3:0:0:
56,164,102484,2,0,P|68:113|52:46,1,120,4|6,0:1|0:0,0:0:0:0:
112,69,112161,37,2,0:0:0:0:
199,266,112936,1,2,0:0:0:0:
309,147,113516,2,0,L|374:153,1,60,2|2,0:0|0:0,0:0:0:0:
452,221,114097,1,8,0:0:0:0:
361,279,114484,2,0,L|296:273,2,60,2|8|8,0:0|0:0|0:0,0:0:0:0:
309,374,115258,6,0,L|179:364,1,120,6|2,0:0|0:0,0:0:0:0:
120,281,116032,2,0,P|105:224|124:155,1,120,2|8,0:0|0:0,0:0:0:0:
154,125,116613,1,0,0:0:0:0:
204,105,116807,38,0,L|333:115,1,120,2|2,0:0|0:0,0:0:0:0:
393,196,117581,2,0,L|405:326,1,120,2|8,0:0|0:0,0:0:0:0:
501,269,118355,6,0,L|488:138,1,120,2|2,0:0|0:0,0:0:0:0:
412,73,119129,2,0,L|292:63,1,120,2|8,0:0|0:0,0:0:0:0:
242,85,119710,1,0,0:0:0:0:
216,132,119903,38,0,P|205:192|229:255,1,120,2|2,0:0|0:0,0:0:0:0:
297,324,120677,2,0,L|359:320,2,60,2|8|8,0:0|0:0|0:0,0:0:0:0:
192,353,121452,6,0,L|71:343,1,120,6|2,0:0|0:0,0:0:0:0:
94,237,122226,2,0,P|104:178|87:117,1,120,2|8,0:0|0:0,0:0:0:0:
33,27,123000,38,0,L|165:34,1,120,2|2,0:0|0:0,0:0:0:0:
194,67,123581,1,0,0:0:0:0:
237,98,123774,2,0,L|369:105,1,120,2|8,0:0|0:0,0:0:0:0:
437,176,124548,6,0,P|454:236|437:303,1,120,6|8,0:0|0:0,0:0:0:0:
357,357,125323,2,0,P|340:297|357:230,1,120,6|8,0:0|0:0,0:0:0:0:
253,286,126097,38,0,P|197:299|125:283,1,120,6|8,0:0|0:0,0:0:0:0:
139,180,126871,2,0,P|195:167|267:183,1,120,6|8,0:0|0:0,0:0:0:0:
348,232,127645,6,0,P|359:172|339:111,1,120,6|2,0:0|0:0,0:0:0:0:
248,63,128419,2,0,L|128:68,1,120,2|8,0:0|0:0,0:0:0:0:
80,93,129000,1,0,0:0:0:0:
52,139,129194,38,0,P|41:204|60:267,1,120,2|2,0:0|0:0,0:0:0:0:
157,224,129968,2,0,L|159:158,2,60,2|8|8,0:0|0:0|0:0,0:0:0:0:
261,251,130742,6,0,P|272:186|253:123,1,120,6|2,0:0|0:0,0:0:0:0:
280,28,131516,2,0,L|401:32,1,120,2|2,0:0|0:0,0:0:0:0:
449,54,132097,1,0,0:0:0:0:
482,96,132290,38,0,P|497:157|482:223,1,120,6|2,0:0|0:0,0:0:0:0:
419,297,133065,2,0,L|420:362,2,60,2|8|8,0:0|0:0|0:0,0:0:0:0:
348,215,133839,6,0,P|333:154|348:88,1,120,6|2,0:0|0:0,0:0:0:0:
236,117,134613,2,0,P|179:132|121:120,1,120,2|8,0:0|0:0,0:0:0:0:
74,91,135194,1,0,0:0:0:0:
27,63,135387,38,0,P|11:124|34:187,1,120,6|8,0:0|0:0,0:0:0:0:
101,254,136161,2,0,L|228:250,1,120,6|8,0:0|0:0,0:0:0:0:
305,317,136936,6,0,L|430:323,1,120,6|2,0:0|0:0,0:0:0:0:
439,215,137710,2,0,L|310:206,1,120,2|2,0:0|0:0,0:0:0:0:
223,156,138484,38,0,L|110:161,2,90,6|6|6,0:0|0:0|0:0,0:0:0:0:
485,218,140032,22,0,P|496:153|481:100,1,120,4|10,0:1|0:0,0:0:0:0:
451,57,140613,1,0,0:0:0:0:
399,41,140807,1,2,0:0:0:0:
314,108,141194,1,10,0:0:0:0:
228,42,141581,6,0,P|176:29|103:49,1,120,6|2,0:0|0:0,0:0:0:0:
65,69,142161,1,0,0:0:0:0:
47,120,142355,2,0,L|59:248,1,120,2|10,0:0|0:0,0:0:0:0:
161,270,143129,38,0,L|149:150,1,120,6|10,0:0|0:0,0:0:0:0:
255,166,143903,1,0,0:0:0:0:
267,273,144290,2,0,L|275:334,1,60,10|0,0:0|0:0,0:0:0:0:
316,367,144677,6,0,P|373:378|441:360,1,120,6|6,0:0|0:0,0:0:0:0:
500,280,145452,1,6,0:0:0:0:
500,172,145839,2,0,L|500:108,1,60,6|2,0:0|0:0,0:0:0:0:
454,82,146226,38,0,P|397:71|329:89,1,120,6|8,0:0|0:0,0:0:0:0:
262,161,147000,2,0,P|204:174|145:163,1,120,2|10,0:0|0:0,0:0:0:0:
53,107,147774,6,0,L|60:229,1,120,6|10,0:0|0:0,0:0:0:0:
63,280,148355,1,0,0:0:0:0:
67,333,148548,1,2,0:0:0:0:
159,275,148936,1,10,0:0:0:0:
253,327,149323,38,0,P|310:343|374:320,1,120,6|10,0:0|0:0,0:0:0:0:
390,276,149903,2,0,L|384:209,1,60,0|2,0:0|0:0,0:0:0:0:
302,146,150484,1,10,0:0:0:0:
381,73,150871,6,0,P|435:57|504:80,1,120,6|6,0:0|0:0,0:0:0:0:
509,125,151452,2,0,L|506:191,1,60,0|6,0:0|0:0,0:0:0:0:
498,292,152032,1,6,0:0:0:0:
391,276,152419,38,0,P|345:261|275:279,1,120,4|10,0:1|0:0,0:0:0:0:
183,332,153194,2,0,P|126:349|69:333,1,120,2|10,0:0|0:0,0:0:0:0:
26,300,153774,1,0,0:0:0:0:
7,249,153968,6,0,L|14:116,1,120,6|10,0:0|0:0,0:0:0:0:
95,59,154742,2,0,L|225:65,1,120,2|10,0:0|0:0,0:0:0:0:
245,168,155516,38,0,L|120:163,1,120,6|10,0:0|0:0,0:0:0:0:
120,271,156290,2,0,P|175:287|246:272,1,120,2|10,0:0|0:0,0:0:0:0:
333,229,157065,6,0,P|342:282|318:347,2,120,6|6|6,0:0|0:0|0:0,0:0:0:0:
244,167,158226,2,0,P|240:133|247:97,1,60,6|0,0:0|0:0,0:0:0:0:
280,67,158613,38,0,L|401:71,1,120,6|10,0:0|0:0,0:0:0:0:
467,155,159387,2,0,B|472:193|472:193|465:244|465:244|471:282,1,120,2|10,0:0|0:0,0:0:0:0:
382,337,160161,6,0,P|329:353|263:335,1,120,6|10,0:0|0:0,0:0:0:0:
230,298,160742,1,0,0:0:0:0:
219,244,160936,1,2,0:0:0:0:
283,157,161323,1,10,0:0:0:0:
219,69,161710,38,0,P|160:56|100:71,1,120,6|10,0:0|0:0,0:0:0:0:
50,164,162484,2,0,L|58:292,1,120,2|10,0:0|0:0,0:0:0:0:
151,336,163258,5,6,0:0:0:0:
234,267,163645,2,0,L|228:201,2,60,6|0|6,0:0|0:0|0:0,0:0:0:0:
326,323,164419,1,6,0:0:0:0:
405,249,164807,38,0,L|392:123,1,120,6|2,0:0|0:0,0:0:0:0:
311,58,165581,2,0,L|188:65,1,120,6|2,0:0|0:0,0:0:0:0:
145,162,166355,6,0,L|76:168,2,60,6|2|6,0:0|0:0|0:0,0:0:0:0:
208,249,167129,2,0,L|277:243,2,60,6|2|6,0:0|0:0|0:0,0:0:0:0:
147,338,167903,6,0,P|79:318|155:163,1,300,6|0,0:0|0:0,0:0:0:0:
200,161,169065,1,2,0:0:0:0:
302,125,169452,6,0,P|317:67|296:4,1,120,2|2,0:0|0:0,0:0:0:0:
207,66,170226,2,0,L|79:67,1,120,2|2,0:0|0:0,0:0:0:0:
45,166,171000,38,0,L|-14:166,2,60,2|0|2,0:0|0:0|0:0,0:0:0:0:
88,198,171581,2,0,P|103:253|85:326,1,120
191,274,172355,2,0,B|265:272|265:272|316:300,2,120,0|0|0,0:0|0:0|0:0,0:0:0:0:
210,167,173516,2,0,P|212:141|206:104,1,60,2|6,0:3|0:0,0:0:0:0:
290,38,174097,6,0,L|412:40,1,120,6|2,0:0|0:0,0:0:0:0:
453,71,174677,2,0,P|468:128|448:200,1,120,2|2,0:3|0:3,0:0:0:0:
362,131,175452,2,0,P|349:189|364:246,2,120,2|2|2,0:3|0:3|0:3,0:0:0:0:
455,186,176613,38,0,L|521:186,2,60,2|2|6,0:3|0:0|0:0,0:0:0:0:
451,294,177387,2,0,L|512:306,2,60,2|0|2,0:3|0:0|0:3,0:0:0:0:
360,352,178161,1,2,0:3:0:0:
259,313,178548,6,0,P|247:257|260:189,1,120,6|6,0:0|0:0,0:0:0:0:
308,100,179323,2,0,L|183:104,1,120,6|6,0:0|0:0,0:0:0:0:
134,106,179903,1,2,0:0:0:0:
65,189,180290,5,4,0:1:0:0:
135,271,180677,2,0,B|186:249|229:271|229:271|274:291|334:265|334:265|365:271|365:271|394:265|394:265|448:276,1,300,8|0,0:0|0:0,0:0:0:0:
473,244,181839,6,0,P|485:190|465:118,1,120,6|8,0:0|0:0,0:0:0:0:
380,68,182613,2,0,L|380:3,2,60,2|0|8,0:0|0:0|0:0,0:0:0:0:
300,141,183387,38,0,P|240:153|175:140,1,120,6|8,0:0|0:0,0:0:0:0:
109,64,184161,2,0,L|97:189,1,120,2|8,0:0|0:0,0:0:0:0:
162,269,184936,6,0,L|288:262,1,120,2|12,0:0|0:0,0:0:0:0:
312,365,185710,2,0,L|121:374,1,180,2|2,0:0|0:0,0:0:0:0:
78,377,186484,37,4,0:1:0:0:
33,278,186871,2,0,P|-4:192|43:46,1,240,8|8,0:0|0:0,0:0:0:0:
131,103,188032,6,0,P|192:115|251:96,1,120,6|8,0:0|0:0,0:0:0:0:
297,80,188613,1,0,0:0:0:0:
345,55,188807,2,0,P|362:117|340:187,1,120,6|8,0:0|0:0,0:0:0:0:
298,265,189581,38,0,L|173:263,1,120,6|8,0:0|0:0,0:0:0:0:
124,263,190161,1,0,0:0:0:0:
166,362,190548,2,0,L|228:364,1,60,2|8,0:0|0:0,0:0:0:0:
334,363,191129,6,0,L|430:363,2,90,6|6|6,0:0|0:0|0:0,0:0:0:0:
256,192,198871,5,6,0:0:0:0:
256,192,203516,12,6,205065,0:0:0:0:
256,192,205839,5,2,0:0:0:0:
196,281,206226,1,2,0:0:0:0:
145,299,206419,1,0,0:0:0:0:
94,280,206613,38,0,P|76:220|99:149,1,120,6|2,0:0|0:0,0:0:0:0:
183,113,207387,1,2,0:0:0:0:
255,192,207774,2,0,P|286:195|323:186,1,60,2|2,0:0|0:0,0:0:0:0:
361,162,208161,6,0,L|361:282,1,120,6|2,0:0|0:0,0:0:0:0:
464,249,208936,2,0,L|462:128,1,120,2|2,0:0|0:0,0:0:0:0:
384,53,209710,37,6,0:0:0:0:
285,96,210097,2,0,P|252:100|221:95,1,60,6|0,0:0|0:0,0:0:0:0:
179,67,210484,2,0,P|121:53|59:71,1,120,6|6,0:0|0:0,0:0:0:0:
123,158,211258,6,0,L|126:281,1,120,6|2,0:0|0:0,0:0:0:0:
210,345,212032,2,0,L|335:337,1,120,2|2,0:0|0:0,0:0:0:0:
374,307,212613,1,0,0:0:0:0:
398,258,212807,38,0,P|409:196|388:128,1,120,6|2,0:0|0:0,0:0:0:0:
309,76,213581,1,2,0:0:0:0:
227,146,213968,2,0,P|198:152|157:146,1,60,2|2,0:0|0:0,0:0:0:0:
117,130,214355,6,0,P|104:87|120:3,1,120,6|2,0:0|0:0,0:0:0:0:
222,15,215129,1,2,0:0:0:0:
310,76,215516,2,0,P|345:82|373:74,1,60,2|2,0:0|0:0,0:0:0:0:
419,57,215903,38,0,P|434:113|421:177,2,120,6|2|4,0:0|0:0|0:0,0:0:0:0:
206,17,217452,22,0,L|80:25,1,120,4|8,0:1|0:0,0:0:0:0:
45,59,218032,1,0,0:0:0:0:
35,112,218226,1,2,0:0:0:0:
111,187,218613,1,10,0:0:0:0:
35,264,219000,6,0,P|25:326|38:382,2,120,6|10|2,0:0|0:0|0:0,0:0:0:0:
111,187,220161,1,10,0:0:0:0:
199,249,220548,38,0,P|264:264|315:248,1,120,6|10,0:0|0:0,0:0:0:0:
354,212,221129,2,0,L|348:147,1,60,0|2,0:0|0:0,0:0:0:0:
393,53,221710,1,10,0:0:0:0:
477,119,222097,6,0,L|486:248,1,120,6|6,0:0|0:0,0:0:0:0:
403,309,222871,2,0,L|409:368,2,60,6|0|6,0:0|0:0|0:0,0:0:0:0:
354,212,223645,38,0,P|298:201|238:215,1,120,6|10,0:0|0:0,0:0:0:0:
203,257,224226,1,0,0:0:0:0:
194,310,224419,1,2,0:0:0:0:
101,253,224807,1,10,0:0:0:0:
8,309,225194,6,0,P|-9:250|14:188,1,120,6|10,0:0|0:0,0:0:0:0:
96,134,225968,1,2,0:0:0:0:
13,64,226355,1,10,0:0:0:0:
113,24,226742,38,0,L|234:31,1,120,6|10,0:0|0:0,0:0:0:0:
276,62,227323,1,0,0:0:0:0:
321,90,227516,2,0,L|442:79,1,120,2|10,0:0|0:0,0:0:0:0:
494,172,228290,6,0,L|365:181,1,120,6|14,0:0|0:0,0:0:0:0:
432,271,229065,2,0,L|494:266,2,60,6|0|14,0:0|0:0|0:0,0:0:0:0:
490,361,229839,38,0,L|371:369,1,120,4|10,0:1|0:0,0:0:0:0:
323,343,230419,1,0,0:0:0:0:
275,317,230613,2,0,L|150:309,1,120,2|10,0:0|0:0,0:0:0:0:
165,201,231387,6,0,P|177:140|158:75,1,120,6|10,0:0|0:0,0:0:0:0:
77,21,232161,1,2,0:0:0:0:
11,106,232548,2,0,L|6:167,1,60,10|0,0:0|0:0,0:0:0:0:
19,218,232936,38,0,L|31:348,1,120,6|8,0:0|0:0,0:0:0:0:
134,312,233710,2,0,P|193:300|253:315,1,120,2|10,0:0|0:0,0:0:0:0:
341,370,234484,6,0,P|354:313|333:248,1,120,6|14,0:0|0:0,0:0:0:0:
263,176,235258,2,0,L|136:182,1,120,6|14,0:0|0:0,0:0:0:0:
141,73,236032,38,0,L|272:69,1,120,6|10,0:0|0:0,0:0:0:0:
315,68,236613,2,0,L|381:75,1,60,0|2,0:0|0:0,0:0:0:0:
458,142,237194,2,0,P|455:172|464:210,1,60,10|0,0:0|0:0,0:0:0:0:
491,245,237581,6,0,P|506:299|491:364,1,120,6|10,0:0|0:0,0:0:0:0:
398,306,238355,2,0,L|275:303,1,120,2|10,0:0|0:0,0:0:0:0:
235,269,238936,1,0,0:0:0:0:
214,219,239129,38,0,P|197:164|216:96,1,120,6|10,0:0|0:0,0:0:0:0:
132,30,239903,2,0,L|9:35,1,120,2|10,0:0|0:0,0:0:0:0:
52,135,240677,6,0,P|64:194|54:253,1,120,6|6,0:0|0:0,0:0:0:0:
96,352,241452,2,0,L|217:346,1,120,6|6,0:0|0:0,0:0:0:0:
316,306,242226,38,0,L|440:312,1,120,6|2,0:0|0:0,0:0:0:0:
397,210,243000,2,0,P|382:155|397:90,1,120,6|2,0:0|0:0,0:0:0:0:
295,52,243774,6,0,L|231:53,2,60,2|2|2,0:0|0:0|0:0,0:0:0:0:
266,156,244548,2,0,L|202:157,2,60,2|2|2,0:0|0:0|0:0,0:0:0:0:
237,260,245323,6,0,B|116:263|116:263|52:211,1,180,4|2,0:1|0:3,0:0:0:0:
30,125,246290,2,0,P|13:66|32:11,1,120,2|2,0:3|0:3,0:0:0:0:
123,69,247065,2,0,L|253:71,1,120,2|2,0:3|0:3,0:0:0:0:
346,40,247839,2,0,L|414:37,1,60,2|2,0:3|0:0,0:0:0:0:
474,120,248419,6,0,P|497:191|469:298,1,180,6|2,0:0|0:3,0:0:0:0:
376,339,249387,2,0,L|257:335,1,120,2|2,0:3|0:3,0:0:0:0:
308,240,250161,2,0,P|321:173|301:118,1,120,2|2,0:3|0:3,0:0:0:0:
231,45,250936,2,0,L|161:48,1,60,2|6,0:3|0:0,0:0:0:0:
75,98,251516,38,0,B|85:154|85:154|69:221|69:221|79:281,1,180,6|2,0:0|0:3,0:0:0:0:
173,223,252484,2,0,P|234:208|301:231,1,120,2|2,0:3|0:3,0:0:0:0:
373,288,253258,2,0,P|430:302|487:287,1,120,2|2,0:3|0:3,0:0:0:0:
429,197,254032,2,0,L|429:121,1,60,2|2,0:3|0:0,0:0:0:0:
360,53,254613,5,6,0:0:0:0:
306,45,254807,2,0,L|222:37,2,60,2|2|2,0:3|0:0|0:3,0:0:0:0:
243,133,255581,1,2,0:3:0:0:
244,240,255968,37,4,0:0:0:0:
300,332,256355,2,0,L|432:327,2,120,2|2|2,0:3|0:3|0:3,0:0:0:0:
246,336,257323,1,4,0:1:0:0:
256,192,257710,12,0,259258,0:0:0:0:
