osu file format v14

[General]
AudioFilename: 01. black bullet.mp3
AudioLeadIn: 1000
PreviewTime: 139452
Countdown: 1
SampleSet: Soft
StackLeniency: 0.4
Mode: 0
LetterboxInBreaks: 1
WidescreenStoryboard: 1

[Editor]
DistanceSpacing: 1.2
BeatDivisor: 8
GridSize: 4
TimelineZoom: 2.5

[Metadata]
Title:black bullet
TitleUnicode:black bullet
Artist:fripSide
ArtistUnicode:fripSide
Creator:P A N
Version:Hard
Source:ブラック・ブレット
Tags:Burakku Buretto black bullet p_a_n opening pan
BeatmapID:536904
BeatmapSetID:230498

[Difficulty]
HPDrainRate:4.5
CircleSize:4
OverallDifficulty:5.5
ApproachRate:7
SliderMultiplier:1.6
SliderTickRate:2

[Events]
//Background and Video events
0,0,"cxvsd.jpg",0,0
//Break Periods
2,192877,197971
2,199071,202616
//Storyboard Layer 0 (Background)
//Storyboard Layer 1 (Fail)
//Storyboard Layer 2 (Pass)
//Storyboard Layer 3 (Foreground)
//Storyboard Sound Samples

[TimingPoints]
678,387.096774193548,4,2,2,70,1,0
25452,-133.333333333333,4,2,1,60,0,0
37839,-100,4,2,1,70,0,0
41323,-100,4,2,2,70,0,0
41419,-100,4,2,1,70,0,0
45968,-100,4,2,2,70,0,0
46065,-100,4,2,1,70,0,0
47129,-100,4,2,1,70,0,0
61065,-100,4,2,2,70,0,0
62613,-90.9090909090909,4,2,2,80,0,1
62613,-90.9090909090909,4,2,2,80,0,1
68419,-90.9090909090909,4,2,1,80,0,0
68807,-90.9090909090909,4,2,2,80,0,1
74613,-90.9090909090909,4,2,1,80,0,0
75000,-90.9090909090909,4,2,2,80,0,1
80807,-90.9090909090909,4,2,1,80,0,0
81194,-90.9090909090909,4,2,2,80,0,1
84484,-90.9090909090909,4,2,1,80,0,1
84677,-90.9090909090909,4,2,2,80,0,1
85258,-90.9090909090909,4,2,1,80,0,1
90484,-100,4,2,1,70,0,0
92419,-100,4,2,2,70,0,0
92516,-100,4,2,1,70,0,0
92807,-100,4,2,1,30,0,0
93000,-100,4,2,1,70,0,0
93097,-100,4,2,1,30,0,0
93387,-100,4,2,1,70,0,0
93484,-100,4,2,1,30,0,0
93581,-100,4,2,1,70,0,0
95516,-100,4,2,2,70,0,0
95613,-100,4,2,1,70,0,0
96000,-100,4,2,1,30,0,0
96097,-100,4,2,1,70,0,0
96194,-100,4,2,1,30,0,0
96484,-100,4,2,1,70,0,0
96581,-100,4,2,1,30,0,0
96677,-100,4,2,1,70,0,0
99000,-100,4,2,2,70,0,0
99097,-100,4,2,1,70,0,0
102871,-133.333333333333,4,2,1,40,0,0
103355,-133.333333333333,4,2,2,40,0,0
103452,-133.333333333333,4,2,1,40,0,0
104903,-133.333333333333,4,2,2,40,0,0
105000,-133.333333333333,4,2,1,40,0,0
105194,-133.333333333333,4,2,1,40,0,0
105484,-133.333333333333,4,2,0,40,0,0
105774,-133.333333333333,4,2,1,40,0,0
105968,-133.333333333333,4,2,1,40,0,0
106355,-133.333333333333,4,2,2,40,0,0
106452,-133.333333333333,4,2,1,40,0,0
106742,-133.333333333333,4,2,0,40,0,0
106936,-133.333333333333,4,2,1,40,0,0
107032,-133.333333333333,4,2,0,40,0,0
107516,-133.333333333333,4,2,1,40,0,0
108290,-133.333333333333,4,2,1,20,0,0
108677,-133.333333333333,4,2,2,20,0,0
109065,-133.333333333333,4,2,1,40,0,0
110226,-133.333333333333,4,2,2,40,0,0
110807,-133.333333333333,4,2,1,40,0,0
111000,-133.333333333333,4,2,2,40,0,0
111387,-133.333333333333,4,2,0,40,0,0
111581,-133.333333333333,4,2,1,40,0,0
111677,-133.333333333333,4,2,0,40,0,0
111968,-133.333333333333,4,2,1,40,0,0
112161,-133.333333333333,4,2,1,40,0,0
112548,-133.333333333333,4,2,2,40,0,0
113129,-133.333333333333,4,2,1,40,0,0
113323,-133.333333333333,4,2,2,40,0,0
113903,-133.333333333333,4,2,1,40,0,0
114484,-100,4,2,1,40,0,0
115258,-100,4,2,1,70,0,0
129581,-100,4,2,2,70,0,0
129677,-100,4,2,1,70,0,0
132677,-100,4,2,2,70,0,0
132774,-100,4,2,1,70,0,0
138677,-100,4,2,2,70,0,0
139065,-133.333333333333,4,2,1,70,0,0
140032,-90.9090909090909,4,2,1,80,0,1
140226,-90.9090909090909,4,2,2,80,0,1
145839,-90.9090909090909,4,2,1,80,0,0
146226,-90.9090909090909,4,2,1,80,0,1
146419,-90.9090909090909,4,2,2,80,0,1
146516,-90.9090909090909,4,2,1,80,0,1
152032,-90.9090909090909,4,2,1,80,0,0
152419,-90.9090909090909,4,2,1,80,0,1
152613,-90.9090909090909,4,2,2,80,0,1
152710,-90.9090909090909,4,2,1,80,0,1
158226,-90.9090909090909,4,2,1,80,0,0
158613,-90.9090909090909,4,2,1,80,0,1
158807,-90.9090909090909,4,2,2,80,0,1
158903,-90.9090909090909,4,2,1,80,0,1
167903,-100,4,2,1,70,0,0
171774,-100,4,2,2,70,0,0
176613,-100,4,2,1,40,0,0
177000,-100,4,2,1,70,0,0
177194,-100,4,2,2,70,0,0
177290,-100,4,2,1,70,0,0
177968,-100,4,2,2,70,0,0
178065,-100,4,2,1,70,0,0
180290,-100,4,2,1,70,0,1
181065,-100,4,2,2,70,0,1
181161,-100,4,2,1,70,0,1
192677,-100,4,2,1,70,0,0
203516,-100,4,2,1,60,0,0
205065,-90.9090909090909,4,2,2,70,0,0
217452,-90.9090909090909,4,2,2,80,0,1
223258,-90.9090909090909,4,2,2,80,0,0
223645,-90.9090909090909,4,2,2,80,0,1
227710,-90.9090909090909,4,2,1,80,0,1
227807,-90.9090909090909,4,2,2,80,0,1
229452,-90.9090909090909,4,2,2,80,0,0
229839,-90.9090909090909,4,2,2,80,0,1
235645,-90.9090909090909,4,2,2,80,0,0
236032,-90.9090909090909,4,2,2,80,0,1
245323,-100,4,2,1,70,0,0
247258,-100,4,2,2,70,0,0
247355,-100,4,2,1,70,0,0
250355,-100,4,2,2,70,0,0
250452,-100,4,2,1,70,0,0
253452,-100,4,2,2,70,0,0
253548,-100,4,2,1,70,0,0
258097,-100,4,2,1,60,0,0
258484,-100,4,2,1,50,0,0
258871,-100,4,2,1,40,0,0
259258,-100,4,2,3,30,0,0

[Colours]
Combo1 : 255,236,0
Combo2 : 174,255,255
Combo3 : 196,255,136
Combo4 : 255,146,36

[HitObjects]
285,104,678,5,6,0:0:0:0:
334,185,871,1,0,0:0:0:0:
237,180,1065,1,2,0:0:0:0:
378,104,1258,6,0,P|413:137|404:245,1,160
316,275,1839,1,2,0:0:0:0:
237,180,2032,38,0,P|157:157|85:188,1,160
45,270,2613,1,2,0:0:0:0:
168,243,2807,6,0,L|153:77,1,160
226,21,3387,1,2,0:0:0:0:
329,102,3581,38,0,P|394:125|478:93,1,160
511,5,4161,1,2,0:0:0:0:
397,42,4355,6,0,L|411:207,1,160
460,283,4936,1,2,0:0:0:0:
393,352,5129,38,0,P|353:360|310:351,1,80,0|2,0:0|0:0,0:0:0:0:
235,298,5516,2,0,P|198:291|148:302,1,80,0|2,0:0|0:0,0:0:0:0:
82,360,5903,1,0,0:0:0:0:
29,279,6097,2,0,L|25:233,2,40,2|0|0,0:0|0:0|0:0,0:0:0:0:
132,190,6484,2,0,L|135:65,1,120,6|0,0:0|0:0,0:0:0:0:
136,21,6871,5,6,0:0:0:0:
224,59,7065,1,2,0:3:0:0:
312,22,7258,1,2,0:0:0:0:
397,65,7452,2,0,L|381:235,1,160,2|2,0:3|0:3,0:0:0:0:
442,298,8032,1,2,0:0:0:0:
461,171,8226,38,0,P|394:139|309:163,1,160,2|2,0:3|0:3,0:0:0:0:
268,244,8807,1,2,0:0:0:0:
162,331,9000,6,0,P|106:349|17:298,1,160,2|2,0:3|0:3,0:0:0:0:
13,208,9581,1,2,0:0:0:0:
94,106,9774,38,0,L|258:117,1,160,6|2,0:0|0:3,0:0:0:0:
341,78,10355,1,2,0:0:0:0:
341,78,10548,1,2,0:3:0:0:
436,89,10742,1,2,0:0:0:0:
436,89,10936,1,2,0:3:0:0:
498,161,11129,1,2,0:0:0:0:
498,161,11323,5,4,0:0:0:0:
431,341,11710,1,4,0:0:0:0:
376,156,12097,1,4,0:0:0:0:
311,336,12484,1,4,0:0:0:0:
250,262,12677,2,0,L|206:267,3,40,4|0|0|0,0:0|0:0|0:0|0:0,0:0:0:0:
166,288,13065,38,0,P|172:246|159:199,1,80,4|0,0:1|0:0,0:0:0:0:
110,129,13452,1,2,0:0:0:0:
110,129,13645,2,0,L|204:134,1,80,2|2,0:3|0:0,0:0:0:0:
111,129,14032,2,0,L|74:57,1,80,2|2,0:3|0:0,0:0:0:0:
111,129,14419,2,0,L|67:196,1,80,2|2,0:3|0:0,0:0:0:0:
10,276,14807,2,0,B|59:285|59:285|119:277|119:277|172:290,1,160,2|2,0:3|0:3,0:0:0:0:
355,328,15581,1,2,0:3:0:0:
425,262,15774,2,0,L|418:208,3,40,2|2|2|2,0:0|0:0|0:0|0:0,0:0:0:0:
398,179,16161,6,0,L|410:94,1,80,6|2,0:0|0:3,0:0:0:0:
349,24,16548,1,2,0:0:0:0:
271,81,16742,2,0,P|229:90|179:80,1,80,2|2,0:3|0:0,0:0:0:0:
150,19,17129,2,0,P|177:48|192:84,1,80,2|2,0:3|0:0,0:0:0:0:
157,155,17516,2,0,P|168:116|192:85,1,80,2|2,0:3|0:0,0:0:0:0:
252,169,17903,2,0,P|228:218|128:242,1,160,2|2,0:3|0:3,0:0:0:0:
64,63,18677,1,2,0:3:0:0:
149,19,18871,2,0,L|200:23,3,40,6|2|2|2,0:0|0:0|0:0|0:0,0:0:0:0:
236,26,19258,38,0,L|319:22,1,80,6|2,0:0|0:3,0:0:0:0:
411,14,19645,1,2,0:0:0:0:
436,106,19839,2,0,P|437:149|421:186,1,80,2|2,0:3|0:0,0:0:0:0:
483,232,20226,2,0,P|445:211|421:179,1,80,2|2,0:3|0:0,0:0:0:0:
351,211,20613,2,0,P|387:188|427:183,1,80,2|2,0:3|0:0,0:0:0:0:
407,289,21000,2,0,L|236:280,1,160,2|2,0:3|0:3,0:0:0:0:
55,264,21774,1,2,0:3:0:0:
96,177,21968,2,0,L|92:130,3,40,2|2|2|2,0:0|0:0|0:0|0:0,0:0:0:0:
70,94,22355,6,0,P|110:101|154:91,1,80,6|2,0:0|0:3,0:0:0:0:
232,48,22742,1,2,0:0:0:0:
146,7,22936,1,2,0:0:0:0:
214,186,23323,1,2,0:0:0:0:
392,120,23710,1,6,0:3:0:0:
214,186,24097,1,2,0:3:0:0:
344,326,24484,1,2,0:3:0:0:
152,341,24871,1,2,0:3:0:0:
87,269,25065,2,0,L|48:273,3,40,4|0|0|0,0:1|0:0|0:0|0:0,0:0:0:0:
15,289,25452,38,0,P|18:255|7:218,1,60.0000022888184,6|0,0:0|0:0,0:0:0:0:
5,140,25839,1,2,0:0:0:0:
50,62,26032,1,2,0:3:0:0:
135,33,26226,2,0,L|275:42,1,120.000004577637,2|2,0:0|0:0,0:0:0:0:
342,19,26807,1,2,0:3:0:0:
328,108,27000,6,0,L|317:210,1,90.0000034332277,2|0,0:0|0:0,0:0:0:0:
313,241,27387,1,2,0:0:0:0:
385,294,27581,1,2,0:3:0:0:
302,328,27774,2,0,P|253:306|224:231,1,120.000004577637,2|2,0:0|0:0,0:0:0:0:
328,108,28548,38,0,L|436:114,1,90.0000034332277,2|0,0:0|0:0,0:0:0:0:
465,114,28936,1,2,0:0:0:0:
434,29,29129,1,2,0:3:0:0:
465,114,29323,2,0,P|470:182|444:231,1,120.000004577637,2|2,0:0|0:0,0:0:0:0:
386,293,29903,1,2,0:3:0:0:
310,244,30097,6,0,L|213:250,1,90.0000034332277,2|0,0:0|0:0,0:0:0:0:
175,251,30484,1,2,0:0:0:0:
141,334,30677,1,2,0:3:0:0:
230,327,30871,1,2,0:0:0:0:
246,147,31258,1,2,0:0:0:0:
158,126,31452,1,2,0:0:0:0:
219,60,31645,38,0,P|267:58|314:87,1,90.0000034332277,6|0,0:0|0:0,0:0:0:0:
331,112,32032,1,2,0:0:0:0:
319,201,32226,1,2,0:3:0:0:
235,233,32419,2,0,P|190:216|156:146,1,120.000004577637,2|2,0:0|0:0,0:0:0:0:
246,147,33000,1,2,0:3:0:0:
319,201,33194,6,0,P|361:202|406:173,1,90.0000034332277,2|0,0:0|0:0,0:0:0:0:
423,139,33581,1,2,0:0:0:0:
399,52,33774,1,2,0:3:0:0:
484,79,33968,2,0,P|509:124|486:202,1,120.000004577637,2|2,0:0|0:0,0:0:0:0:
455,268,34548,1,2,0:3:0:0:
504,343,34742,2,0,P|459:355|411:342,1,90.0000034332277,2|0,0:0|0:0,0:0:0:0:
382,317,35129,1,2,0:0:0:0:
299,354,35323,1,2,0:3:0:0:
220,311,35516,38,0,P|178:300|126:315,1,90.0000034332277,2|0,0:0|0:0,0:0:0:0:
94,332,35903,1,2,0:0:0:0:
35,263,36097,1,2,0:3:0:0:
91,193,36290,2,0,P|99:148|83:96,1,90.0000034332277,2|0,0:0|0:0,0:0:0:0:
50,80,36677,2,0,L|132:76,1,60.0000022888184,8|2,0:0|0:3,0:0:0:0:
195,107,37065,1,2,0:0:0:0:
195,107,37161,1,8,0:0:0:0:
195,107,37258,2,0,L|257:112,1,60.0000022888184,8|8,0:0|0:0,0:0:0:0:
337,75,37645,1,2,0:3:0:0:
330,200,37839,6,0,L|203:189,1,120,6|0,0:0|0:0,0:0:0:0:
162,186,38226,1,2,0:0:0:0:
184,279,38419,1,2,0:3:0:0:
91,253,38613,2,0,P|66:186|114:98,1,160,2|8,0:0|0:0,0:0:0:0:
164,36,39194,1,2,0:3:0:0:
164,36,39387,38,0,L|326:42,1,160,2|2,0:0|0:0,0:0:0:0:
420,44,39968,1,2,0:3:0:0:
376,129,40161,2,0,P|363:192|391:259,1,120,2|0,0:0|0:0,0:0:0:0:
412,279,40548,2,0,P|356:260|289:285,1,120,8|0,0:0|0:0,0:0:0:0:
265,311,40936,6,0,L|250:191,2,120,2|0|2,0:0|0:0|0:3,0:0:0:0:
172,283,41710,2,0,L|163:202,2,80,2|2|8,0:0|0:3|0:0,0:0:0:0:
78,260,42290,1,2,0:3:0:0:
78,260,42484,2,0,L|68:138,1,120,2|0,0:0|0:0,0:0:0:0:
61,92,42871,1,2,0:0:0:0:
122,18,43065,1,2,0:3:0:0:
210,54,43258,2,0,L|256:46,2,40,2|8|8,0:0|0:0|0:0,0:0:0:0:
150,129,43645,1,8,0:0:0:0:
150,129,43839,1,2,0:3:0:0:
244,142,44032,38,0,L|363:127,1,120,6|0,0:0|0:0,0:0:0:0:
410,120,44419,1,2,0:0:0:0:
420,215,44613,1,2,0:3:0:0:
420,215,44807,2,0,L|260:237,1,160,2|8,0:0|0:0,0:0:0:0:
199,309,45387,1,2,0:3:0:0:
199,309,45581,6,0,L|79:300,2,120,2|0|2,0:0|0:0|0:3,0:0:0:0:
290,339,46355,2,0,L|419:324,1,120,2|0,0:0|0:0,0:0:0:0:
443,336,46742,2,0,P|436:302|445:251,1,80,8|0,0:0|0:0,0:0:0:0:
500,181,47129,38,0,P|510:118|489:62,1,120,6|0,0:0|0:0,0:0:0:0:
461,28,47516,1,8,0:0:0:0:
410,110,47710,1,2,0:0:0:0:
343,40,47903,6,0,L|219:46,1,120,6|0,0:0|0:0,0:0:0:0:
175,48,48290,1,8,0:0:0:0:
131,133,48484,1,2,0:0:0:0:
208,188,48677,38,0,P|223:244|203:313,1,120,6|0,0:0|0:0,0:0:0:0:
176,339,49065,1,8,0:0:0:0:
135,252,49258,1,2,0:0:0:0:
76,328,49452,2,0,L|68:372,2,40,2|2|8,0:0|0:0|0:0,0:0:0:0:
39,239,49839,2,0,L|32:158,1,80,8|0,0:0|0:3,0:0:0:0:
89,57,50226,6,0,P|130:49|174:61,1,80,6|2,0:0|0:3,0:0:0:0:
227,132,50613,2,0,L|221:223,1,80,2|2,0:0|0:3,0:0:0:0:
265,297,51000,2,0,L|276:378,1,80,2|2,0:0|0:3,0:0:0:0:
358,326,51387,2,0,P|401:318|440:327,1,80,8|2,0:0|0:3,0:0:0:0:
398,236,51774,38,0,P|383:178|402:114,1,120,2|0,0:0|0:0,0:0:0:0:
428,84,52161,1,2,0:0:0:0:
367,9,52355,1,2,0:3:0:0:
306,82,52548,2,0,P|296:104|292:140,2,40,0|8|8,0:0|0:0|0:0,0:0:0:0:
367,9,52936,2,0,L|280:9,1,80,8|2,0:0|0:3,0:0:0:0:
206,61,53323,6,0,B|157:61|157:61|106:82|106:82|50:82,1,160,6|2,0:0|0:0,0:0:0:0:
213,183,54097,2,0,P|228:239|212:302,1,120,2|0,0:0|0:0,0:0:0:0:
173,324,54484,1,2,0:0:0:0:
108,253,54677,1,2,0:3:0:0:
49,329,54871,38,0,P|15:271|49:179,1,160,6|2,0:0|0:0,0:0:0:0:
135,169,55452,2,0,P|140:128|130:88,1,80,2|2,0:3|0:0,0:0:0:0:
55,31,55839,2,0,L|14:38,2,40,8|2|8,0:0|0:0|0:0,0:0:0:0:
148,6,56226,1,8,0:0:0:0:
148,6,56419,6,0,L|231:13,1,80,6|2,0:0|0:3,0:0:0:0:
313,58,56807,2,0,L|394:51,1,80,2|2,0:0|0:3,0:0:0:0:
448,128,57194,2,0,P|464:189|450:246,1,120,2|0,0:0|0:0,0:0:0:0:
416,274,57581,1,2,0:0:0:0:
367,191,57774,1,2,0:3:0:0:
314,271,57968,38,0,L|267:340,1,80,6|2,0:0|0:3,0:0:0:0:
259,203,58355,2,0,L|181:235,1,80,6|2,0:0|0:3,0:0:0:0:
253,118,58742,2,0,L|171:111,1,80,6|2,0:0|0:3,0:0:0:0:
145,108,59032,1,2,0:0:0:0:
117,105,59129,1,6,0:0:0:0:
47,38,59323,1,0,0:0:0:0:
12,127,59516,6,0,P|5:183|35:248,1,120,6|0,0:0|0:0,0:0:0:0:
68,267,59903,1,0,0:0:0:0:
132,196,60097,1,2,0:3:0:0:
181,277,60290,2,0,L|225:274,3,40,2|2|2|2,0:3|0:3|0:3|0:3,0:0:0:0:
268,272,60677,2,0,L|312:280,3,40,2|2|2|2,0:3|0:3|0:3|0:3,0:0:0:0:
354,287,61065,38,0,P|337:229|358:157,2,120,4|4|6,0:0|0:0|0:0,0:0:0:0:
458,66,62226,6,0,L|376:71,1,80
284,44,62613,6,0,L|152:40,1,132.00000402832,4|2,0:1|0:3,0:0:0:0:
103,37,63000,1,10,0:0:0:0:
46,116,63194,1,2,0:3:0:0:
99,196,63387,2,0,P|103:224|96:259,2,44.0000013427735,2|2|0,0:0|0:3|0:0,0:0:0:0:
168,127,63774,2,0,L|263:130,1,88.000002685547,10|2,0:0|0:3,0:0:0:0:
352,132,64161,5,6,0:0:0:0:
432,78,64355,2,0,L|428:27,2,44.0000013427735,2|2|10,0:3|0:3|0:0,0:0:0:0:
502,144,64742,2,0,L|498:239,1,88.000002685547,2|2,0:3|0:0,0:0:0:0:
468,324,65129,2,0,P|492:329|524:323,2,44.0000013427735,2|2|10,0:3|0:3|0:0,0:0:0:0:
411,245,65516,1,2,0:3:0:0:
357,325,65710,38,0,L|221:313,1,132.00000402832,6|2,0:0|0:3,0:0:0:0:
177,307,66097,1,10,0:0:0:0:
143,216,66290,1,2,0:3:0:0:
82,292,66484,2,0,P|79:317|86:344,2,44.0000013427735,2|2|0,0:0|0:3|0:0,0:0:0:0:
143,216,66871,2,0,P|150:177|139:124,1,88.000002685547,10|2,0:0|0:3,0:0:0:0:
78,56,67258,5,2,0:0:0:0:
170,28,67452,2,0,L|222:32,1,44.0000013427735,2|2,0:3|0:3,0:0:0:0:
258,51,67645,2,0,L|350:44,1,88.000002685547,6|2,0:0|0:3,0:0:0:0:
442,36,68032,1,6,0:0:0:0:
426,82,68129,2,0,P|419:127|434:175,1,88.000002685547,2|0,0:3|0:0,0:0:0:0:
460,204,68419,2,0,L|372:200,1,88.000002685547,6|2,0:0|0:3,0:0:0:0:
295,139,68807,38,0,P|275:206|300:266,1,132.00000402832,6|2,0:0|0:3,0:0:0:0:
335,291,69194,1,10,0:0:0:0:
419,337,69387,1,2,0:3:0:0:
459,248,69581,2,0,L|461:201,2,44.0000013427735,2|2|0,0:0|0:3|0:0,0:0:0:0:
502,337,69968,2,0,P|460:349|419:337,1,88.000002685547,10|2,0:0|0:3,0:0:0:0:
335,291,70355,5,6,0:0:0:0:
375,203,70548,2,0,L|393:162,2,44.0000013427735,2|2|10,0:3|0:3|0:0,0:0:0:0:
335,291,70936,2,0,L|298:375,1,88.000002685547,2|2,0:3|0:0,0:0:0:0:
238,295,71323,2,0,L|260:249,2,44.0000013427735,2|2|10,0:3|0:3|0:0,0:0:0:0:
166,360,71710,1,2,0:3:0:0:
141,266,71903,38,0,L|191:143,1,132.00000402832,6|2,0:0|0:3,0:0:0:0:
210,99,72290,1,10,0:0:0:0:
113,89,72484,1,2,0:3:0:0:
113,89,72677,2,0,L|92:138,2,44.0000013427735,2|2|0,0:0|0:3|0:0,0:0:0:0:
174,13,73065,2,8,P|227:6|299:54,1,132.00000402832,2|0,0:0|0:0,0:0:0:0:
313,88,73452,6,0,P|371:109|436:85,1,132.00000402832,6|0,0:0|0:0,0:0:0:0:
462,46,73839,1,6,0:0:0:0:
495,136,74032,1,2,0:3:0:0:
463,227,74226,2,0,L|372:221,1,88.000002685547,6|0,0:0|0:0,0:0:0:0:
278,213,74613,2,0,L|187:220,1,88.000002685547,6|0,0:0|0:0,0:0:0:0:
102,178,75000,38,0,P|96:242|143:304,1,132.00000402832,4|2,0:1|0:3,0:0:0:0:
175,318,75387,1,10,0:0:0:0:
248,380,75581,1,2,0:3:0:0:
320,316,75774,2,0,L|372:320,1,44.0000013427735,2|2,0:0|0:3,0:0:0:0:
412,324,75968,2,0,L|508:316,1,88.000002685547,0|10,0:0|0:0,0:0:0:0:
462,227,76355,6,0,P|452:186|466:132,1,88.000002685547,2|6,0:3|0:0,0:0:0:0:
393,71,76742,1,2,0:3:0:0:
393,71,76839,1,2,0:3:0:0:
393,71,76936,2,0,L|304:75,1,88.000002685547,10|2,0:0|0:3,0:0:0:0:
208,77,77323,1,2,0:0:0:0:
261,157,77516,2,0,L|308:156,2,44.0000013427735,2|2|10,0:3|0:3|0:0,0:0:0:0:
165,171,77903,1,2,0:3:0:0:
110,90,78097,38,0,P|74:128|76:208,1,132.00000402832,6|2,0:0|0:3,0:0:0:0:
101,244,78484,1,10,0:0:0:0:
195,262,78677,1,2,0:3:0:0:
132,336,78871,2,0,L|67:338,2,44.0000013427735,2|2|0,0:0|0:3|0:0,0:0:0:0:
228,349,79258,2,0,L|325:345,1,88.000002685547,10|2,0:0|0:3,0:0:0:0:
398,299,79645,6,0,P|409:348|400:388,1,88.000002685547,6|2,0:0|0:3,0:0:0:0:
315,255,80032,2,0,P|304:206|313:166,1,88.000002685547,6|2,0:0|0:3,0:0:0:0:
384,106,80419,2,0,P|317:127|249:103,1,132.00000402832,6|2,0:0|0:0,0:0:0:0:
232,69,80807,1,6,0:0:0:0:
156,129,81000,1,2,0:3:0:0:
83,64,81194,38,0,P|61:137|92:198,1,132.00000402832,6|2,0:0|0:3,0:0:0:0:
117,218,81581,1,10,0:0:0:0:
188,282,81774,1,2,0:3:0:0:
114,344,81968,2,0,P|88:346|54:340,2,44.0000013427735,2|2|0,0:0|0:3|0:0,0:0:0:0:
188,282,82355,2,0,P|232:269|282:285,1,88.000002685547,10|2,0:0|0:3,0:0:0:0:
341,346,82742,5,6,0:0:0:0:
401,270,82936,2,0,L|396:226,2,44.0000013427735,2|2|10,0:3|0:3|0:0,0:0:0:0:
467,340,83323,1,2,0:3:0:0:
467,340,83516,2,0,P|491:306|490:240,1,88.000002685547,2|2,0:0|0:3,0:0:0:0:
490,230,83807,1,2,0:3:0:0:
475,203,83903,1,10,0:0:0:0:
404,123,84097,1,2,0:3:0:0:
325,178,84290,38,0,P|266:197|183:169,2,132.00000402832,6|0|2,0:0|0:0|0:3,0:0:0:0:
318,80,85065,2,0,P|379:29|469:50,1,176.000005371094,2|10,0:0|0:0,0:0:0:0:
509,135,85645,1,2,0:3:0:0:
490,230,85839,6,0,L|482:324,1,88.000002685547,6|0,0:0|0:0,0:0:0:0:
464,342,86129,1,0,0:0:0:0:
437,358,86226,2,0,P|393:367|341:354,1,88.000002685547,6|0,0:0|0:0,0:0:0:0:
289,283,86613,2,0,L|296:229,3,44.0000013427735,6|2|2|2,0:0|0:0|0:0|0:0,0:0:0:0:
294,190,87000,2,0,L|288:140,3,44.0000013427735,6|2|2|2,0:0|0:0|0:0|0:0,0:0:0:0:
287,97,87387,38,0,P|233:115|161:98,1,132.00000402832,6|0,0:0|0:0,0:0:0:0:
137,56,87774,1,10,0:0:0:0:
43,29,87968,1,2,0:3:0:0:
50,125,88161,6,0,P|63:172|45:266,1,132.00000402832,6|0,0:0|0:0,0:0:0:0:
22,292,88548,1,10,0:0:0:0:
100,349,88742,1,2,0:3:0:0:
158,271,88936,38,0,L|210:195,1,88.000002685547,6|2,0:0|0:0,0:0:0:0:
304,198,89323,2,0,L|354:271,1,88.000002685547,2|2,0:0|0:0,0:0:0:0:
416,345,89710,2,0,P|432:330|445:304,3,44.0000013427735,6|2|2|2,0:0|0:0|0:0|0:0,0:0:0:0:
462,266,90097,2,0,P|470:239|464:210,3,44.0000013427735,6|2|2|2,0:0|0:0|0:0|0:0,0:0:0:0:
454,181,90484,22,0,P|432:111|471:21,1,160,4|2,0:1|0:0,0:0:0:0:
372,29,91065,2,0,L|286:31,1,80,2|2,0:3|0:0,0:0:0:0:
223,85,91452,2,0,P|218:130|228:173,1,80,2|2,0:3|0:0,0:0:0:0:
305,198,91839,2,0,P|311:237|306:276,1,80,2|2,0:3|0:0,0:0:0:0:
252,344,92226,2,0,B|205:340|205:340|140:349|140:349|86:338,1,160,2|2,0:3|0:3,0:0:0:0:
34,173,93000,1,2,0:3:0:0:
49,86,93194,2,0,P|51:64|48:39,3,40,4|2|2|2,0:0|0:3|0:3|0:3,0:0:0:0:
22,11,93581,6,0,L|191:20,1,160,6|2,0:0|0:0,0:0:0:0:
256,64,94161,2,0,P|265:103|252:151,1,80,2|2,0:3|0:0,0:0:0:0:
324,180,94548,2,0,P|285:168|250:133,1,80,2|2,0:3|0:0,0:0:0:0:
190,182,94936,2,0,P|219:154|267:141,1,80,2|2,0:3|0:0,0:0:0:0:
249,247,95323,2,0,P|151:263|107:211,1,160,2|2,0:3|0:3,0:0:0:0:
135,51,96097,1,2,0:3:0:0:
220,30,96290,2,0,L|266:35,3,40,4|2|2|2,0:0|0:3|0:3|0:3,0:0:0:0:
303,40,96677,38,0,P|340:36|387:44,1,80,6|2,0:0|0:3,0:0:0:0:
446,102,97065,1,2,0:0:0:0:
446,189,97258,2,0,P|446:232|426:269,1,80,2|2,0:3|0:0,0:0:0:0:
505,281,97645,2,0,P|465:281|430:265,1,80,2|2,0:3|0:0,0:0:0:0:
412,339,98032,2,0,P|412:299|429:264,1,80,2|2,0:3|0:0,0:0:0:0:
353,246,98419,2,0,P|393:246|429:263,1,80,2|2,0:3|0:0,0:0:0:0:
316,328,98807,2,0,P|276:295|289:186,1,160,2|2,0:3|0:3,0:0:0:0:
346,135,99387,2,0,L|335:93,3,40,4|2|2|2,0:0|0:3|0:3|0:3,0:0:0:0:
326,53,99774,6,0,B|279:60|279:60|221:47|221:47|150:57,1,160,6|2,0:0|0:0,0:0:0:0:
83,77,100355,1,2,0:3:0:0:
91,249,100742,1,2,0:3:0:0:
219,131,101129,1,4,0:0:0:0:
47,170,101516,1,2,0:3:0:0:
214,224,101903,1,2,0:3:0:0:
76,333,102290,1,2,0:3:0:0:
9,275,102484,2,0,P|8:222|61:164,1,120,4|0,0:1|0:0,0:0:0:0:
85,146,102871,38,0,L|152:151,1,60.0000022888184,6|2,0:0|0:3,0:0:0:0:
182,125,103161,2,0,P|191:85|180:34,1,90.0000034332277,0|2,0:0|0:3,0:0:0:0:
268,62,103645,2,0,P|327:76|389:54,1,120.000004577637
464,20,104226,1,2,0:3:0:0:
464,20,104419,6,0,L|461:93,1,60.0000022888184,0|2,0:0|0:3,0:0:0:0:
454,125,104710,2,0,L|471:224,1,90.0000034332277,0|2,0:0|0:3,0:0:0:0:
447,301,105194,2,0,P|370:331|280:289,1,180.000006866455,0|2,0:0|0:3,0:0:0:0:
240,215,105968,38,0,L|243:121,2,90.0000034332277,0|0|2,0:0|0:0|0:3,0:0:0:0:
151,195,106742,2,0,L|153:61,1,120.000004577637
65,54,107323,1,2,0:3:0:0:
62,143,107516,6,0,L|59:235,1,90.0000034332277
57,278,107903,1,0,0:0:0:0:
131,328,108097,1,2,0:3:0:0:
206,278,108290,2,0,B|263:276|263:276|329:296|329:296|396:293,1,180.000006866455,0|2,0:0|0:3,0:0:0:0:
341,212,109065,38,0,P|332:169|346:122,1,90.0000034332277,4|0,0:0|0:0,0:0:0:0:
371,89,109452,2,0,L|301:94,1,60.0000022888184,0|2,0:0|0:3,0:0:0:0:
233,138,109839,2,0,B|177:147|154:177|154:177|125:143|59:131,1,180.000006866455,0|2,0:0|0:3,0:0:0:0:
0,89,110613,6,0,P|-12:131|11:191,2,90.0000034332277,0|0|2,0:0|0:0|0:3,0:0:0:0:
72,35,111387,2,0,P|150:42|203:35,1,120.000004577637
277,11,111968,1,2,0:3:0:0:
338,76,112161,38,0,L|330:169,2,90.0000034332277,2|0|2,0:0|0:0|0:3,0:0:0:0:
422,109,112936,2,0,L|413:204,2,90.0000034332277,2|0|2,0:0|0:0|0:3,0:0:0:0:
504,145,113710,2,0,L|496:242,1,90.0000034332277,2|0,0:0|0:0,0:0:0:0:
489,279,114097,2,0,L|502:346,1,60.0000022888184,8|2,0:0|0:3,0:0:0:0:
404,342,114484,6,0,L|392:291,1,40,2|2,0:0|0:0,0:0:0:0:
308,345,114774,2,0,L|304:385,1,40,2|2,0:0|0:0,0:0:0:0:
216,343,115065,1,2,0:0:0:0:
120,340,115258,38,0,P|104:291|127:218,1,120,6|0,0:0|0:0,0:0:0:0:
152,190,115645,1,2,0:0:0:0:
81,124,115839,1,2,0:3:0:0:
156,65,116032,2,0,B|191:60|214:67|214:67|241:61|241:61|265:69|265:69|316:62,1,160,2|8,0:0|0:0,0:0:0:0:
397,15,116613,1,2,0:3:0:0:
469,77,116807,6,0,P|483:126|465:204,1,120,2|0,0:0|0:0,0:0:0:0:
450,236,117194,2,0,L|362:229,1,80,2|2,0:0|0:3,0:0:0:0:
294,289,117581,2,0,B|245:286|245:286|188:302|188:302|128:296,1,160,2|8,0:0|0:0,0:0:0:0:
182,213,118161,1,2,0:3:0:0:
136,128,118355,38,0,P|199:117|257:155,1,120,2|0,0:0|0:0,0:0:0:0:
276,179,118742,2,0,L|286:85,1,80,2|2,0:0|0:3,0:0:0:0:
376,71,119129,2,0,L|385:235,1,160,2|8,0:0|0:0,0:0:0:0:
479,247,119710,1,2,0:3:0:0:
479,247,119903,6,0,L|470:73,1,160,2|2,0:0|0:0,0:0:0:0:
375,71,120484,1,2,0:3:0:0:
280,53,120677,2,0,L|244:24,2,40,2|8|2,0:0|0:0|0:3,0:0:0:0:
317,142,121065,2,0,P|330:212|314:262,1,120,8|0,0:0|0:0,0:0:0:0:
293,299,121452,38,0,L|133:293,1,160,6|2,0:0|0:0,0:0:0:0:
37,292,122032,1,2,0:3:0:0:
42,195,122226,2,0,L|207:201,1,160,2|8,0:0|0:0,0:0:0:0:
271,133,122807,1,2,0:3:0:0:
219,51,123000,6,0,P|264:37|340:63,1,120,2|0,0:0|0:0,0:0:0:0:
364,92,123387,2,0,L|364:182,1,80,2|2,0:0|0:3,0:0:0:0:
460,169,123774,2,0,B|459:61|459:61|433:13,1,160,2|8,0:0|0:0,0:0:0:0:
271,133,124548,38,0,P|207:144|157:120,1,120,6|0,0:0|0:0,0:0:0:0:
133,80,124936,1,8,0:0:0:0:
39,61,125129,1,2,0:3:0:0:
54,155,125323,6,0,B|61:179|55:200|55:200|59:228|59:228|52:247|52:247|55:282,1,120,6|0,0:0|0:0,0:0:0:0:
52,320,125710,1,8,0:0:0:0:
131,266,125903,1,0,0:3:0:0:
210,319,126097,38,0,B|245:318|265:335|265:335|288:320|332:318,1,120,6|0,0:0|0:0,0:0:0:0:
371,317,126484,1,8,0:0:0:0:
458,356,126677,1,0,0:3:0:0:
446,260,126871,1,2,0:0:0:0:
446,260,126968,1,8,0:0:0:0:
446,260,127065,1,8,0:0:0:0:
431,165,127258,2,0,L|421:86,1,80,8|2,0:0|0:0,0:0:0:0:
339,34,127645,6,0,L|332:116,1,80,6|2,0:0|0:3,0:0:0:0:
289,199,128032,2,0,L|297:242,2,40,2|0|2,0:0|0:0|0:3,0:0:0:0:
240,115,128419,2,0,L|244:70,2,40,2|0|2,0:0|0:0|0:3,0:0:0:0:
183,193,128807,2,0,P|144:201|100:193,1,80,8|2,0:0|0:3,0:0:0:0:
36,126,129194,38,0,B|40:42|40:42|64:11,2,120,2|0|2,0:0|0:0|0:3,0:0:0:0:
28,221,129968,1,2,0:0:0:0:
28,221,130065,1,8,0:0:0:0:
28,221,130161,1,10,0:3:0:0:
69,308,130355,2,0,P|108:316|150:305,1,80,12|2,0:0|0:3,0:0:0:0:
236,273,130742,6,0,B|231:213|231:213|243:175|243:175|240:106,1,160,6|2,0:0|0:0,0:0:0:0:
237,18,131323,1,2,0:3:0:0:
318,68,131516,2,0,P|389:84|437:62,1,120,2|0,0:0|0:0,0:0:0:0:
474,48,131903,2,0,L|464:147,1,80,8|2,0:0|0:3,0:0:0:0:
428,216,132290,38,0,B|432:258|432:258|426:297|426:297|436:342,2,120,6|0|2,0:0|0:0|0:3,0:0:0:0:
338,253,133065,2,0,L|333:208,2,40,2|8|8,0:0|0:0|0:0,0:0:0:0:
286,334,133452,2,0,P|248:344|195:328,1,80,8|2,0:0|0:0,0:0:0:0:
137,270,133839,6,0,L|148:103,1,160,6|2,0:0|0:0,0:0:0:0:
55,135,134419,1,2,0:3:0:0:
55,135,134613,2,0,L|46:262,1,120,2|0,0:0|0:0,0:0:0:0:
50,302,135000,2,0,P|74:340|119:359,1,80,8|2,0:0|0:3,0:0:0:0:
198,340,135387,38,0,L|318:326,1,120,6|0,0:0|0:0,0:0:0:0:
364,320,135774,1,8,0:0:0:0:
304,244,135968,1,2,0:0:0:0:
366,171,136161,6,0,P|410:159|490:175,1,120,6|0,0:0|0:0,0:0:0:0:
511,209,136548,1,8,0:0:0:0:
423,249,136742,1,2,0:0:0:0:
365,171,136936,38,0,B|367:127|367:127|356:92|356:92|361:48,1,120,6|0,0:0|0:0,0:0:0:0:
376,7,137323,1,8,0:0:0:0:
280,4,137516,1,2,0:0:0:0:
275,100,137710,6,0,L|232:106,3,40,2|2|2|2,0:3|0:3|0:3|0:3,0:0:0:0:
195,132,138097,2,0,L|151:126,3,40,2|2|2|2,0:3|0:3|0:3|0:3,0:0:0:0:
116,97,138484,38,0,B|38:108|38:108|-13:92,2,120,6|6|6,0:0|0:0|0:0,0:0:0:0:
116,191,139258,2,0,L|120:222,3,30.0000011444092,2|2|2|2,0:0|0:0|0:0|0:0,0:0:0:0:
120,256,139645,2,0,L|116:305,3,30.0000011444092,2|2|2|2,0:0|0:0|0:0|0:0,0:0:0:0:
116,338,140032,22,0,P|178:316|245:334,1,132.00000402832,4|2,0:1|0:3,0:0:0:0:
281,364,140419,1,10,0:0:0:0:
331,281,140613,1,2,0:3:0:0:
284,195,140807,2,0,P|259:193|235:198,2,44.0000013427735,2|2|0,0:0|0:3|0:0,0:0:0:0:
381,193,141194,2,0,P|389:151|374:95,1,88.000002685547,10|2,0:0|0:3,0:0:0:0:
315,34,141581,5,6,0:0:0:0:
411,27,141774,2,0,L|454:23,2,44.0000013427735,2|2|10,0:3|0:3|0:0,0:0:0:0:
315,34,142161,2,0,L|216:41,1,88.000002685547,2|2,0:3|0:0,0:0:0:0:
130,46,142548,2,0,L|74:51,2,44.0000013427735,2|2|10,0:3|0:3|0:0,0:0:0:0:
184,126,142936,1,2,0:3:0:0:
184,126,143129,38,0,P|205:186|174:271,1,132.00000402832,6|2,0:0|0:3,0:0:0:0:
151,281,143516,1,10,0:0:0:0:
109,193,143710,1,2,0:3:0:0:
39,259,143903,2,0,L|29:307,2,44.0000013427735,2|2|0,0:0|0:3|0:0,0:0:0:0:
10,166,144290,2,0,L|25:73,1,88.000002685547,10|2,0:0|0:3,0:0:0:0:
109,33,144677,5,6,0:0:0:0:
191,83,144871,2,0,L|183:131,2,44.0000013427735,2|2|6,0:3|0:3|0:0,0:0:0:0:
271,28,145258,1,2,0:3:0:0:
352,81,145452,1,6,0:0:0:0:
384,115,145548,2,0,P|434:125|474:109,1,88.000002685547,2|2,0:3|0:0,0:0:0:0:
510,88,145839,2,0,L|504:186,1,88.000002685547,6|2,0:0|0:3,0:0:0:0:
470,266,146226,38,0,B|416:242|371:266|371:266|311:266,1,132.00000402832,6|2,0:0|0:3,0:0:0:0:
293,267,146613,1,10,0:0:0:0:
211,319,146807,1,2,0:3:0:0:
208,222,147000,2,0,L|208:167,2,44.0000013427735,2|2|0,0:0|0:3|0:0,0:0:0:0:
127,275,147387,2,0,P|117:324|131:368,1,88.000002685547,10|2,0:0|0:3,0:0:0:0:
211,319,147774,5,6,0:0:0:0:
293,267,147968,2,0,L|343:269,2,44.0000013427735,2|2|10,0:3|0:3|0:0,0:0:0:0:
208,223,148355,1,2,0:3:0:0:
290,172,148548,1,2,0:0:0:0:
205,124,148742,2,0,L|151:126,2,44.0000013427735,2|2|10,0:3|0:3|0:0,0:0:0:0:
286,70,149129,1,2,0:3:0:0:
198,28,149323,38,0,L|108:31,1,88.000002685547,6|2,0:0|0:3,0:0:0:0:
79,31,149613,1,0,0:0:0:0:
48,32,149710,1,10,0:0:0:0:
16,123,149903,1,2,0:3:0:0:
61,208,150097,2,0,P|63:237|58:257,2,44.0000013427735,2|2|0,0:0|0:3|0:0,0:0:0:0:
117,128,150484,2,0,L|211:124,1,88.000002685547,10|2,0:0|0:3,0:0:0:0:
280,184,150871,6,0,P|301:235|274:318,1,132.00000402832,6|0,0:0|0:0,0:0:0:0:
265,352,151258,2,0,L|362:347,1,88.000002685547,6|2,0:0|0:3,0:0:0:0:
430,289,151645,2,0,L|424:240,3,44.0000013427735,6|2|2|2,0:0|0:0|0:0|0:0,0:0:0:0:
421,196,152032,2,0,L|429:149,3,44.0000013427735,6|2|2|2,0:0|0:0|0:0|0:0,0:0:0:0:
429,104,152419,38,0,B|376:125|332:107|332:107|286:107,1,132.00000402832,4|2,0:1|0:3,0:0:0:0:
250,106,152807,1,10,0:0:0:0:
169,159,153000,1,2,0:3:0:0:
163,62,153194,2,0,P|161:34|167:3,2,44.0000013427735,2|2|0,0:0|0:3|0:0,0:0:0:0:
169,159,153581,2,0,P|178:202|168:253,1,88.000002685547,10|2,0:0|0:3,0:0:0:0:
83,202,153968,5,6,0:0:0:0:
95,297,154161,2,0,L|99:340,2,44.0000013427735,2|2|10,0:3|0:3|0:0,0:0:0:0:
83,202,154548,2,0,L|74:108,1,88.000002685547,2|2,0:3|0:0,0:0:0:0:
79,17,154936,2,0,P|57:17|27:27,2,44.0000013427735,2|2|10,0:3|0:3|0:0,0:0:0:0:
164,62,155323,1,2,0:3:0:0:
251,21,155516,38,0,P|302:13|370:50,1,132.00000402832,6|2,0:0|0:3,0:0:0:0:
392,93,155903,1,10,0:0:0:0:
386,189,156097,1,2,0:3:0:0:
302,140,156290,2,0,P|292:103|296:75,2,44.0000013427735,2|2|0,0:0|0:3|0:0,0:0:0:0:
386,189,156677,2,0,L|486:184,1,88.000002685547,10|2,0:0|0:3,0:0:0:0:
451,279,157065,6,0,L|358:284,1,88.000002685547,6|2,0:0|0:3,0:0:0:0:
283,228,157452,2,0,L|190:220,1,88.000002685547,6|2,0:0|0:3,0:0:0:0:
127,290,157839,1,6,0:0:0:0:
102,248,157936,2,0,P|99:195|124:150,1,88.000002685547,2|2,0:0|0:0,0:0:0:0:
145,127,158226,2,0,L|54:129,1,88.000002685547,6|0,0:0|0:0,0:0:0:0:
3,209,158613,38,0,P|4:265|53:338,1,132.00000402832,6|2,0:0|0:3,0:0:0:0:
82,355,159000,1,10,0:0:0:0:
179,354,159194,1,2,0:3:0:0:
202,260,159387,2,0,P|188:233|172:220,2,44.0000013427735,2|2|0,0:0|0:3|0:0,0:0:0:0:
279,318,159774,2,0,L|370:312,1,88.000002685547,10|2,0:0|0:3,0:0:0:0:
427,236,160161,5,6,0:0:0:0:
491,308,160355,2,0,P|491:331|484:354,2,44.0000013427735,2|2|10,0:3|0:3|0:0,0:0:0:0:
427,236,160742,2,0,P|418:192|428:145,1,88.000002685547,2|2,0:3|0:0,0:0:0:0:
468,63,161129,2,0,L|516:68,2,44.0000013427735,2|2|10,0:3|0:3|0:0,0:0:0:0:
379,22,161516,1,2,0:3:0:0:
305,85,161710,38,0,P|251:102|174:76,1,132.00000402832,6|0,0:0|0:0,0:0:0:0:
152,41,162097,2,0,L|159:142,2,88.000002685547,10|2|2,0:0|0:3|0:0,0:0:0:0:
56,25,162677,1,2,0:3:0:0:
56,25,162871,2,0,L|65:166,1,132.00000402832,10|0,0:0|0:0,0:0:0:0:
66,205,163258,6,0,B|114:200|114:200|152:210|152:210|201:205,1,132.00000402832,6|0,0:0|0:0,0:0:0:0:
244,199,163645,1,6,0:0:0:0:
303,275,163839,1,2,0:3:0:0:
356,194,164032,2,0,L|345:152,3,44.0000013427735,6|2|2|2,0:0|0:0|0:0|0:0,0:0:0:0:
340,103,164419,2,0,L|344:57,3,44.0000013427735,6|2|2|2,0:0|0:0|0:0|0:0,0:0:0:0:
339,10,164807,38,0,P|390:34|467:26,1,132.00000402832,6|0,0:0|0:0,0:0:0:0:
508,9,165194,2,0,L|504:102,1,88.000002685547,10|2,0:0|0:3,0:0:0:0:
461,183,165581,2,0,L|472:319,1,132.00000402832,2|0,0:0|0:0,0:0:0:0:
498,355,165968,2,0,P|459:345|403:364,1,88.000002685547,10|2,0:0|0:3,0:0:0:0:
317,370,166355,5,6,0:0:0:0:
317,370,166548,1,2,0:3:0:0:
223,342,166742,1,6,0:0:0:0:
223,342,166936,1,2,0:3:0:0:
191,250,167129,2,0,P|188:224|190:203,3,44.0000013427735,6|0|0|0,0:0|0:0|0:0|0:0,0:0:0:0:
193,157,167516,2,0,P|194:134|188:105,3,44.0000013427735,6|0|0|0,0:0|0:0|0:0|0:0,0:0:0:0:
189,69,167903,6,0,L|104:71,1,80,6|2,0:0|0:3,0:0:0:0:
21,111,168290,2,0,L|24:191,1,80,2|2,0:0|0:3,0:0:0:0:
30,286,168677,1,2,0:0:0:0:
108,230,168871,1,2,0:3:0:0:
182,291,169065,6,0,L|189:349,2,53.3333333333333,2|0|0,0:0|0:0|0:0,0:0:0:0:
239,286,169452,2,0,L|246:344,2,53.3333333333333,2|0|0,0:0|0:0|0:0,0:0:0:0:
296,281,169839,2,0,L|303:339,2,53.3333333333333,2|0|0,0:0|0:0|0:0,0:0:0:0:
352,275,170226,2,0,L|359:333,2,53.3333333333333,2|0|0,0:0|0:0|0:0,0:0:0:0:
410,269,170613,2,0,P|423:200|405:148,1,120,2|0,0:0|0:0,0:0:0:0:
376,117,171000,38,0,L|280:123,1,80,2|2,0:0|0:3,0:0:0:0:
229,52,171387,1,2,0:0:0:0:
170,128,171581,2,0,P|138:188|183:278,1,160,2|2,0:3|0:3,0:0:0:0:
234,197,172161,1,2,0:0:0:0:
234,197,172355,2,0,L|68:205,2,160,2|2|2,0:3|0:3|0:3,0:0:0:0:
312,140,173323,2,0,P|314:109|309:83,2,40,0|2|2,0:0|0:3|0:3,0:0:0:0:
361,222,173710,2,0,P|369:262|363:307,1,80,6|2,0:0|0:3,0:0:0:0:
289,360,174097,6,0,L|201:358,1,80,6|2,0:0|0:3,0:0:0:0:
145,285,174484,1,2,0:0:0:0:
208,213,174677,2,0,P|244:203|288:211,1,80,2|2,0:3|0:0,0:0:0:0:
145,285,175065,2,0,P|109:295|65:287,1,80,2|2,0:3|0:0,0:0:0:0:
28,200,175452,38,0,P|37:161|26:114,1,80,2|2,0:3|0:0,0:0:0:0:
1,30,175839,2,0,P|41:25|81:42,1,80,2|2,0:3|0:0,0:0:0:0:
143,109,176226,2,0,P|180:118|224:104,1,80,2|2,0:3|0:0,0:0:0:0:
312,84,176613,2,0,L|357:87,3,40,2|2|2|2,0:3|0:0|0:0|0:0,0:0:0:0:
392,60,177000,6,0,L|403:231,1,160,6|2,0:0|0:3,0:0:0:0:
496,238,177581,1,0,0:0:0:0:
496,238,177774,2,0,L|485:78,1,160,2|2,0:3|0:3,0:0:0:0:
392,60,178355,1,2,0:0:0:0:
315,160,178548,37,4,0:0:0:0:
130,104,178936,1,4,0:0:0:0:
305,25,179323,1,4,0:0:0:0:
191,179,179710,1,4,0:0:0:0:
130,104,179903,2,0,P|86:89|11:117,1,120,6|0,0:0|0:0,0:0:0:0:
8,157,180290,22,0,L|20:278,1,120,4|0,0:1|0:0,0:0:0:0:
28,323,180677,2,0,P|134:347|186:173,1,320,2|0,0:0|0:0,0:0:0:0:
130,104,181645,1,2,0:3:0:0:
130,104,181742,1,0,0:0:0:0:
130,104,181839,6,0,L|108:42,2,53.3333333333333,6|0|0,0:0|0:0|0:0,0:0:0:0:
187,75,182226,2,0,L|181:20,2,53.3333333333333,8|0|0,0:0|0:0|0:0,0:0:0:0:
250,65,182613,38,0,L|295:58,3,40,2|0|0|0,0:0|0:0|0:0|0:0,0:0:0:0:
337,59,183000,2,0,L|380:66,3,40,8|0|2|0,0:0|0:0|0:0|0:0,0:0:0:0:
424,65,183387,6,0,L|430:152,1,80,6|2,0:0|0:3,0:0:0:0:
438,240,183774,2,0,P|415:246|394:243,3,40,8|0|2|0,0:0|0:0|0:3|0:0,0:0:0:0:
350,245,184161,2,0,P|326:244|302:247,3,40,2|0|2|0,0:0|0:0|0:3|0:0,0:0:0:0:
262,248,184548,2,0,P|239:254|218:251,3,40,8|0|2|0,0:0|0:0|0:3|0:0,0:0:0:0:
174,253,184936,2,0,P|150:252|126:255,3,40,2|0|2|0,0:0|0:0|0:3|0:0,0:0:0:0:
86,248,185323,2,0,P|60:236|49:222,3,40,8|0|2|0,0:0|0:0|0:3|0:0,0:0:0:0:
24,188,185710,38,0,L|26:65,1,120,2|2,0:0|0:0,0:0:0:0:
26,19,186097,1,6,0:0:0:0:
110,63,186290,1,2,0:3:0:0:
196,19,186484,6,0,L|280:16,1,80,4|2,0:1|0:3,0:0:0:0:
349,77,186871,2,0,L|347:163,1,80,8|2,0:0|0:3,0:0:0:0:
308,245,187258,2,0,P|346:254|395:240,1,80,2|2,0:0|0:3,0:0:0:0:
413,337,187645,2,0,P|355:349|277:331,1,120,8|0,0:0|0:0,0:0:0:0:
251,321,188032,38,0,P|221:281|221:203,1,120,6|0,0:0|0:0,0:0:0:0:
244,173,188419,2,0,P|206:183|164:172,1,80,8|2,0:0|0:0,0:0:0:0:
97,106,188807,6,0,P|71:151|81:220,1,120,6|0,0:0|0:0,0:0:0:0:
114,248,189194,1,8,0:0:0:0:
156,333,189387,1,2,0:0:0:0:
251,321,189581,38,0,B|292:311|317:325|317:325|341:319|341:319|365:329|365:329|417:320,1,160,6|8,0:0|0:0,0:0:0:0:
465,247,190161,1,2,0:3:0:0:
401,174,190355,2,0,L|356:180,3,40,2|2|2|2,0:3|0:3|0:3|0:3,0:0:0:0:
313,181,190742,2,0,L|270:176,3,40,2|2|2|2,0:3|0:3|0:3|0:3,0:0:0:0:
225,176,191129,6,0,L|106:187,1,120,6|0,0:0|0:0,0:0:0:0:
57,191,191516,2,0,P|63:146|51:95,2,80,6|2|6,0:0|0:3|0:0,0:0:0:0:
26,282,192097,2,0,P|25:306|32:335,3,40,2|2|2|2,0:0|0:0|0:0|0:0,0:0:0:0:
60,356,192484,2,0,L|148:352,1,80,2|6,0:0|0:0,0:0:0:0:
256,192,198871,21,6,0:0:0:0:
256,192,203516,37,2,0:0:0:0:
208,106,203710,1,2,0:0:0:0:
303,105,203903,2,0,L|345:104,1,40,6|2,0:0|0:0,0:0:0:0:
416,167,204194,1,2,0:0:0:0:
424,262,204387,2,0,P|412:307|376:333,1,80,2|2,0:0|0:0,0:0:0:0:
344,348,204677,1,2,0:0:0:0:
274,280,204871,1,0,0:0:0:0:
274,280,205065,6,0,L|138:284,1,132.00000402832,6|2,0:0|0:3,0:0:0:0:
98,287,205452,1,2,0:0:0:0:
55,210,205645,1,2,0:3:0:0:
99,133,205839,2,0,L|79:93,2,44.0000013427735,2|2|0,0:0|0:3|0:0,0:0:0:0:
187,133,206226,2,0,L|277:132,1,88.000002685547,2|2,0:0|0:3,0:0:0:0:
340,190,206613,37,6,0:0:0:0:
385,114,206807,2,0,L|382:57,2,44.0000013427735,2|2|2,0:3|0:3|0:0,0:0:0:0:
446,176,207194,2,0,L|439:270,1,88.000002685547,2|2,0:3|0:0,0:0:0:0:
427,351,207581,2,0,P|455:354|480:346,2,44.0000013427735,2|2|2,0:3|0:3|0:0,0:0:0:0:
357,297,207968,1,2,0:3:0:0:
280,339,208161,6,0,P|272:279|316:215,1,132.00000402832,6|2,0:0|0:3,0:0:0:0:
340,190,208548,1,2,0:0:0:0:
385,114,208742,1,2,0:3:0:0:
308,70,208936,2,0,L|254:74,2,44.0000013427735,2|2|0,0:0|0:3|0:0,0:0:0:0:
385,27,209323,2,0,L|476:31,1,88.000002685547,2|2,0:0|0:3,0:0:0:0:
476,119,209710,37,6,0:0:0:0:
430,194,209903,2,0,P|464:209|480:207,2,44.0000013427735,2|2|6,0:3|0:3|0:0,0:0:0:0:
341,190,210290,2,0,L|246:197,1,88.000002685547,2|6,0:3|0:0,0:0:0:0:
190,133,210677,2,0,P|193:110|188:84,2,44.0000013427735,2|2|6,0:3|0:0|0:0,0:0:0:0:
145,209,211065,1,2,0:3:0:0:
145,209,211258,6,0,P|83:225|14:191,1,132.00000402832,6|2,0:0|0:3,0:0:0:0:
1,160,211645,2,0,L|9:70,1,88.000002685547,2|2,0:0|0:3,0:0:0:0:
96,60,212032,2,0,L|93:108,2,44.0000013427735,2|2|0,0:0|0:3|0:0,0:0:0:0:
181,38,212419,2,0,P|225:45|271:35,1,88.000002685547,2|2,0:0|0:3,0:0:0:0:
353,15,212807,37,6,0:0:0:0:
337,101,213000,2,0,L|330:146,2,44.0000013427735,2|2|2,0:3|0:3|0:0,0:0:0:0:
422,78,213387,2,0,P|466:84|501:117,1,88.000002685547,2|2,0:3|0:0,0:0:0:0:
504,199,213774,2,0,L|506:266,2,44.0000013427735,2|2|2,0:3|0:3|0:0,0:0:0:0:
424,160,214161,1,2,0:3:0:0:
359,220,214355,6,0,P|310:224|243:174,1,132.00000402832,6|2,0:0|0:3,0:0:0:0:
227,137,214742,1,2,0:0:0:0:
249,51,214936,1,2,0:3:0:0:
163,69,215129,1,2,0:0:0:0:
324,139,215516,1,2,0:0:0:0:
358,220,215710,1,2,0:3:0:0:
321,300,215903,38,0,P|297:304|266:296,3,44.0000013427735,6|2|2|2,0:0|0:0|0:0|0:0,0:0:0:0:
234,292,216290,2,0,P|208:287|183:293,3,44.0000013427735,2|2|2|2,0:0|0:0|0:0|0:0,0:0:0:0:
148,300,216677,1,6,0:0:0:0:
73,139,217065,5,0,0:0:0:0:
73,139,217258,1,0,0:0:0:0:
146,75,217452,6,0,L|279:78,1,132.00000402832,4|2,0:1|0:3,0:0:0:0:
326,80,217839,1,10,0:0:0:0:
412,36,218032,1,2,0:3:0:0:
479,105,218226,2,0,L|485:151,2,44.0000013427735,2|2|0,0:0|0:3|0:0,0:0:0:0:
390,143,218613,2,0,L|370:244,1,88.000002685547,10|2,0:0|0:3,0:0:0:0:
303,297,219000,5,6,0:0:0:0:
273,204,219194,2,0,L|284:154,2,44.0000013427735,2|2|10,0:3|0:3|0:0,0:0:0:0:
195,262,219581,2,0,P|152:271|103:263,1,88.000002685547,2|2,0:3|0:0,0:0:0:0:
33,203,219968,2,0,L|37:151,2,44.0000013427735,2|2|10,0:3|0:3|0:0,0:3:0:0:
26,299,220355,1,2,0:3:0:0:
99,362,220548,38,0,L|244:352,1,132.00000402832,6|2,0:0|0:3,0:0:0:0:
279,348,220936,1,10,0:0:0:0:
346,278,221129,1,2,0:3:0:0:
420,340,221323,2,0,P|437:314|444:289,2,44.0000013427735,2|2|0,0:0|0:3|0:0,0:0:0:0:
346,278,221710,2,8,L|334:185,1,88.000002685547,2|2,0:0|0:3,0:0:0:0:
388,110,222097,6,0,P|429:117|480:104,1,88.000002685547,6|0,0:0|0:3,0:0:0:0:
332,37,222484,2,0,P|291:30|240:43,1,88.000002685547,6|2,0:0|0:3,0:0:0:0:
198,124,222871,1,6,0:0:0:0:
158,151,222968,2,0,P|113:160|54:147,1,88.000002685547,2|2,0:3|0:0,0:0:0:0:
37,120,223258,2,0,L|40:221,1,88.000002685547,6|2,0:0|0:3,0:0:0:0:
121,260,223645,38,0,B|163:255|163:255|211:264|211:264|260:257,1,132.00000402832,6|2,0:0|0:3,0:0:0:0:
298,248,224032,1,10,0:0:0:0:
343,162,224226,1,2,0:3:0:0:
293,79,224419,2,0,P|266:78|239:81,2,44.0000013427735,2|2|0,0:0|0:3|0:0,0:0:0:0:
390,82,224807,2,0,P|430:87|483:77,1,88.000002685547,10|2,0:0|0:3,0:0:0:0:
489,175,225194,5,6,0:0:0:0:
503,270,225387,2,0,L|511:326,2,44.0000013427735,2|2|8,0:3|0:3|0:0,0:0:0:0:
489,175,225774,1,2,0:3:0:0:
405,223,225968,1,2,0:0:0:0:
397,126,226161,2,0,L|388:69,2,44.0000013427735,2|2|10,0:3|0:3|0:0,0:0:0:0:
405,223,226548,1,2,0:3:0:0:
352,304,226742,38,0,P|291:324|219:302,1,132.00000402832,6|2,0:0|0:3,0:0:0:0:
202,265,227129,1,10,0:0:0:0:
130,330,227323,1,2,0:3:0:0:
58,265,227516,2,0,L|65:124,1,132.00000402832,2|0,0:0|0:0,0:0:0:0:
90,91,227903,2,0,P|136:82|181:98,1,88.000002685547,10|2,0:0|0:3,0:0:0:0:
249,155,228290,6,0,B|285:160|305:155|305:155|327:162|327:162|346:157|346:157|393:157,1,132.00000402832,6|0,0:0|0:0,0:0:0:0:
427,154,228677,1,6,0:0:0:0:
468,66,228871,1,2,0:3:0:0:
375,38,229065,2,0,L|328:44,3,44.0000013427735,6|2|2|2,0:0|0:0|0:0|0:0,0:0:0:0:
283,47,229452,2,0,L|234:42,3,44.0000013427735,6|2|2|2,0:0|0:0|0:0|0:0,0:0:0:0:
192,28,229839,38,0,P|210:87|189:164,1,132.00000402832,4|2,0:1|0:3,0:0:0:0:
158,186,230226,1,10,0:0:0:0:
87,251,230419,1,2,0:3:0:0:
13,187,230613,2,0,P|10:160|14:138,2,44.0000013427735,2|2|0,0:0|0:3|0:0,0:0:0:0:
87,251,231000,2,8,P|123:278|168:282,1,88.000002685547,2|2,0:0|0:3,0:0:0:0:
246,230,231387,5,6,0:0:0:0:
274,322,231581,2,0,L|268:370,2,44.0000013427735,2|2|10,0:3|0:3|0:0,0:0:0:0:
337,248,231968,2,0,P|333:200|301:160,1,88.000002685547,2|2,0:3|0:0,0:0:0:0:
218,139,232355,2,0,L|174:143,2,44.0000013427735,2|2|10,0:3|0:3|0:0,0:0:0:0:
285,69,232742,1,2,0:3:0:0:
285,69,232936,38,0,L|428:77,1,132.00000402832,6|2,0:0|0:3,0:0:0:0:
465,78,233323,2,0,P|475:120|468:167,1,88.000002685547,10|2,0:0|0:3,0:0:0:0:
399,231,233710,2,0,L|340:228,2,44.0000013427735,2|2|0,0:0|0:3|0:0,0:0:0:0:
467,299,234097,2,0,B|434:318|434:318|382:317,1,88.000002685547,10|2,0:0|0:3,0:0:0:0:
292,285,234484,6,0,P|272:249|277:195,1,88.000002685547,6|2,0:0|0:3,0:0:0:0:
350,143,234871,1,6,0:0:0:0:
286,69,235065,1,2,0:3:0:0:
209,128,235258,2,0,B|177:138|152:130|152:130|129:138|129:138|107:129|107:129|74:133,1,132.00000402832,6|0,0:0|0:0,0:0:0:0:
32,129,235645,1,6,0:0:0:0:
84,210,235839,1,2,0:3:0:0:
27,288,236032,38,0,P|75:304|152:276,1,132.00000402832,6|2,0:0|0:3,0:0:0:0:
176,237,236419,1,10,0:0:0:0:
262,193,236613,1,2,0:3:0:0:
293,284,236807,1,2,0:0:0:0:
338,298,236903,2,0,P|409:316|471:290,1,132.00000402832,2|10,0:3|0:0,0:0:0:0:
491,204,237387,6,0,L|482:107,1,88.000002685547,2|6,0:3|0:0,0:0:0:0:
418,43,237774,2,0,L|413:-4,2,44.0000013427735,2|2|10,0:3|0:3|0:0,0:0:0:0:
359,120,238161,2,0,L|369:211,1,88.000002685547,2|2,0:3|0:0,0:0:0:0:
338,299,238548,2,0,L|345:346,2,44.0000013427735,2|2|10,0:3|0:3|0:0,0:0:0:0:
262,237,238936,1,2,0:3:0:0:
190,301,239129,38,0,P|128:324|67:303,1,132.00000402832,6|2,0:0|0:3,0:0:0:0:
35,267,239516,1,10,0:0:0:0:
123,226,239710,1,2,0:3:0:0:
123,226,239903,2,0,B|134:191|123:158|123:158|109:129|121:90,1,132.00000402832,2|0,0:0|0:0,0:0:0:0:
144,55,240290,2,0,P|182:46|234:57,1,88.000002685547,10|2,0:0|0:3,0:0:0:0:
303,117,240677,6,0,B|342:126|368:143|368:143|389:128|429:117,1,132.00000402832,6|0,0:0|0:0,0:0:0:0:
468,98,241065,2,0,P|458:141|473:189,1,88.000002685547,6|2,0:0|0:3,0:0:0:0:
498,274,241452,2,0,P|473:277|451:273,3,44.0000013427735,6|2|2|2,0:0|0:0|0:0|0:0,0:0:0:0:
407,261,241839,2,0,P|381:257|355:260,3,44.0000013427735,6|2|2|2,0:0|0:0|0:0|0:0,0:0:0:0:
321,281,242226,38,0,B|279:277|279:277|234:286|234:286|184:278,1,132.00000402832,6|0,0:0|0:0,0:0:0:0:
143,266,242613,1,10,0:0:0:0:
73,334,242807,1,2,0:3:0:0:
37,244,243000,6,0,P|51:182|32:108,1,132.00000402832,6|0,0:0|0:0,0:0:0:0:
8,76,243387,1,10,0:0:0:0:
76,6,243581,1,2,0:3:0:0:
143,75,243774,38,0,P|187:82|236:73,1,88.000002685547,6|2,0:0|0:0,0:0:0:0:
317,34,244161,2,0,P|328:80|317:122,1,88.000002685547,6|2,0:0|0:0,0:0:0:0:
255,192,244548,2,0,P|254:220|258:246,3,44.0000013427735,6|2|2|2,0:0|0:0|0:0|0:0,0:0:0:0:
279,278,244936,2,0,P|283:303|279:335,3,44.0000013427735,6|2|2|2,0:0|0:0|0:0|0:0,0:0:0:0:
259,359,245323,22,0,L|425:342,1,160,4|2,0:1|0:0,0:0:0:0:
448,260,245903,2,0,P|452:220|443:181,1,80,2|2,0:3|0:0,0:0:0:0:
508,137,246290,2,0,P|472:153|443:181,1,80,2|2,0:3|0:0,0:0:0:0:
372,145,246677,2,0,P|404:168|443:180,1,80,2|2,0:3|0:0,0:0:0:0:
428,78,247065,2,0,P|365:58|281:117,1,160,2|2,0:3|0:3,0:0:0:0:
243,273,247839,1,2,0:3:0:0:
165,313,248032,2,0,L|121:310,3,40,6|2|2|2,0:0|0:0|0:0|0:0,0:0:0:0:
85,290,248419,6,0,P|77:253|87:208,1,80,6|2,0:0|0:3,0:0:0:0:
127,134,248807,1,2,0:0:0:0:
202,89,249000,2,0,L|282:97,1,80,2|2,0:3|0:0,0:0:0:0:
314,169,249387,2,0,L|281:96,1,80,2|2,0:3|0:0,0:0:0:0:
327,30,249774,2,0,L|281:96,1,80,2|2,0:3|0:0,0:0:0:0:
223,179,250161,2,0,P|241:222|356:252,1,160,2|2,0:3|0:3,0:0:0:0:
393,88,250936,1,2,0:3:0:0:
327,30,251129,2,0,L|278:35,3,40,6|2|2|2,0:0|0:0|0:0|0:0,0:0:0:0:
243,33,251516,38,0,L|150:27,1,80,6|2,0:0|0:3,0:0:0:0:
82,63,251903,1,2,0:0:0:0:
124,140,252097,2,0,P|133:175|125:226,1,80,2|2,0:3|0:0,0:0:0:0:
153,302,252484,2,0,P|181:274|218:259,1,80,2|2,0:3|0:0,0:0:0:0:
285,202,252871,2,0,P|246:190|215:166,1,80,2|2,0:3|0:0,0:0:0:0:
289,118,253258,2,0,B|336:114|336:114|397:129|397:129|457:124,1,160,2|2,0:3|0:3,0:0:0:0:
439,300,254032,1,2,0:3:0:0:
360,339,254226,2,0,L|318:337,3,40,6|2|2|2,0:0|0:0|0:0|0:0,0:0:0:0:
276,332,254613,6,0,L|190:339,1,80,6|2,0:0|0:3,0:0:0:0:
134,275,255000,1,2,0:0:0:0:
85,348,255194,1,2,0:3:0:0:
184,202,255581,1,2,0:3:0:0:
45,93,255968,1,6,0:0:0:0:
184,202,256355,1,2,0:3:0:0:
296,66,256742,1,2,0:3:0:0:
184,202,257129,1,2,0:3:0:0:
134,275,257323,1,4,0:1:0:0:
256,192,257710,12,0,259258,0:0:0:0:
