osu file format v14

[General]
AudioFilename: Song_black bullet.mp3
AudioLeadIn: 1300
PreviewTime: 139473
Countdown: 0
SampleSet: Soft
StackLeniency: 0.7
Mode: 0
LetterboxInBreaks: 0
WidescreenStoryboard: 0

[Editor]
Bookmarks: 102892,112182,192698,203537
DistanceSpacing: 1
BeatDivisor: 4
GridSize: 4
TimelineZoom: 1.7

[Metadata]
Title:black bullet
TitleUnicode:black bullet
Artist:fripSide
ArtistUnicode:fripSide
Creator:Karia
Version:Hard
Source:ブラック・ブレット
Tags:Full Version Opening Kuro no Juudan 黒の銃弾 Euny Kibbleru 南條 愛乃 Nanjou Yoshino 八木沼 悟志 Yaginuma Satoshi
BeatmapID:706103
BeatmapSetID:311732

[Difficulty]
HPDrainRate:5
CircleSize:4
OverallDifficulty:5.5
ApproachRate:7
SliderMultiplier:1.52
SliderTickRate:1

[Events]
//Background and Video events
0,0,"BG.jpg",0,0
//Break Periods
2,103092,111282
2,192898,202637
//Storyboard Layer 0 (Background)
//Storyboard Layer 1 (Fail)
//Storyboard Layer 2 (Pass)
//Storyboard Layer 3 (Foreground)
//Storyboard Sound Samples

[TimingPoints]
699,387.096774193548,4,2,1,50,1,0
6892,-100,4,2,1,60,0,0
23731,-100,4,2,1,40,0,0
25473,-117.647058823529,4,2,1,50,0,0
37860,-100,4,2,1,60,0,0
62634,-100,4,2,1,70,0,1
74634,-100,4,2,1,70,0,0
75021,-100,4,2,1,70,0,1
90505,-100,4,2,1,60,0,0
101150,-100,4,2,1,40,0,0
102892,-133.333333333333,4,2,1,45,0,0
113731,-100,4,2,1,50,0,0
115279,-100,4,2,1,60,0,0
139279,-100,4,2,1,30,0,0
140053,-100,4,2,1,70,0,1
152053,-100,4,2,1,70,0,0
152440,-100,4,2,1,70,0,1
167924,-117.647058823529,4,2,1,55,0,0
174118,-100,4,2,1,60,0,0
180311,-100,4,2,1,60,0,1
180408,-100,4,2,1,60,0,0
186505,-100,4,2,1,60,0,1
186602,-100,4,2,1,60,0,0
203537,-153.846153846154,4,2,1,40,0,0
205086,-100,4,2,1,60,0,0
217473,-100,4,2,1,70,0,1
229473,-100,4,2,1,70,0,0
229860,-100,4,2,1,70,0,1
245344,-100,4,2,1,60,0,0

[Colours]
Combo1 : 180,180,180
Combo2 : 255,70,70
Combo3 : 255,255,172
Combo4 : 0,0,100

[HitObjects]
68,280,699,6,0,L|60:200,1,76,4|0,0:0|0:0,0:0:0:0:
112,148,1086,1,2,0:0:0:0:
164,200,1279,2,0,B|228:212|272:180|272:180|316:220,1,152
348,268,1860,1,2,0:0:0:0:
348,268,2053,6,0,B|340:212|340:212|352:172|352:172|344:88,1,152
424,120,2634,1,2,0:0:0:0:
424,120,2827,2,0,B|432:176|432:176|420:216|420:216|428:300,1,152
388,336,3408,1,2,0:0:0:0:
336,280,3602,6,0,P|264:280|176:304,1,152
122,339,4182,1,2,0:0:0:0:
84,272,4376,2,0,L|92:108,1,152
136,56,4957,1,2,0:0:0:0:
176,120,5150,6,0,L|272:116,1,76,0|2,0:0|0:0,0:0:0:0:
312,160,5537,2,0,L|408:156,1,76,0|2,0:0|0:0,0:0:0:0:
408,232,5924,2,0,B|282:236|282:236|256:216,1,152
216,160,6505,1,4,0:0:0:0:
216,160,6698,1,2,0:0:0:0:
164,216,6892,6,0,P|168:263|170:300,2,76,4|0|0,0:0|0:0|1:0,0:0:0:0:
92,196,7473,2,0,P|97:269|104:364,1,152
172,376,8053,1,0,1:0:0:0:
236,336,8247,6,0,P|288:344|316:348,1,76,0|2,0:0|0:0,0:0:0:0:
364,292,8634,1,0,0:0:0:0:
364,292,8828,1,0,1:0:0:0:
408,352,9021,2,0,B|396:308|396:308|436:272|424:200,1,152
368,160,9602,1,0,1:0:0:0:
368,160,9795,6,0,B|276:168,1,76,4|2,0:0|0:0,0:0:0:0:
232,212,10182,1,2,0:0:0:0:
176,160,10376,2,0,P|179:118|180:84,1,76,2|2,0:0|0:0,0:0:0:0:
116,40,10763,1,2,0:0:0:0:
116,40,10860,1,2,0:0:0:0:
116,40,10957,2,0,L|76:44,3,38,2|2|2|2,0:0|0:0|0:0|0:0,0:0:0:0:
64,56,11344,6,0,B|248:44,1,152,0|0,1:0|1:0,0:0:0:0:
368,144,12118,2,0,P|376:224|296:216,1,152,0|0,1:0|1:0,0:0:0:0:
260,192,12698,2,0,P|260:151|257:111,1,76,0|0,1:0|1:0,0:0:0:0:
180,116,13086,6,0,P|179:185|184:268,1,152,4|2,0:0|0:0,0:0:0:0:
248,308,13666,2,0,L|344:300,1,76,0|2,0:0|0:0,0:0:0:0:
368,240,14053,2,0,L|464:248,1,76,0|2,0:0|0:0,0:0:0:0:
496,192,14440,6,0,B|516:136|504:80|504:80|464:72,1,152
404,116,15021,1,2,0:0:0:0:
364,52,15215,2,0,P|319:51|280:62,1,76,0|2,0:0|0:0,0:0:0:0:
232,112,15602,1,0,0:0:0:0:
232,112,15795,2,0,L|236:196,1,76,2|0,0:0|0:0,0:0:0:0:
208,260,16182,6,0,B|176:288|176:288|56:276,1,152,4|2,0:0|0:0,0:0:0:0:
8,228,16763,2,0,P|4:188|4:148,1,76,0|2,0:0|0:0,0:0:0:0:
48,92,17150,1,0,0:0:0:0:
104,144,17344,1,2,0:0:0:0:
156,88,17537,6,0,L|232:96,1,76,0|2,0:0|0:0,0:0:0:0:
296,136,17924,2,0,P|340:132|380:124,1,76,0|2,0:0|0:0,0:0:0:0:
408,60,18311,2,0,P|445:63|483:69,1,76,0|2,0:0|0:0,0:0:0:0:
512,140,18698,1,0,0:0:0:0:
472,204,18892,2,0,P|434:200|396:194,1,76,4|0,0:0|0:0,0:0:0:0:
360,128,19279,6,0,B|364:180|364:180|352:224|352:224|356:280,1,152,4|2,0:0|0:0,0:0:0:0:
304,336,19860,2,0,P|251:334|203:321,1,76,0|2,0:0|0:0,0:0:0:0:
164,288,20247,1,0,0:0:0:0:
164,288,20440,1,2,0:0:0:0:
228,248,20634,6,0,P|234:210|234:172,1,76,0|2,0:0|0:0,0:0:0:0:
184,116,21021,2,0,L|100:120,1,76,0|2,0:0|0:0,0:0:0:0:
76,52,21408,2,0,L|-8:56,2,76,0|2|0,0:0|0:0|0:0,0:0:0:0:
152,44,21989,2,0,L|236:40,1,76,2|0,0:0|0:0,0:0:0:0:
296,76,22376,6,0,P|316:136|232:164,1,152,4|2,0:0|0:0,0:0:0:0:
180,144,22957,2,0,L|176:236,1,76,0|2,0:0|0:0,0:0:0:0:
116,268,23344,2,0,L|124:360,1,76,0|2,0:0|0:0,0:0:0:0:
196,368,23731,5,8,0:0:0:0:
196,368,24118,1,0,0:0:0:0:
344,268,24505,1,0,0:0:0:0:
344,268,24892,1,0,0:0:0:0:
392,328,25086,2,0,P|436:328|480:320,1,76
508,256,25473,6,0,L|504:120,1,129.200002464294,4|2,0:0|0:0,0:0:0:0:
456,68,26053,1,0,0:0:0:0:
400,124,26247,2,0,B|356:116|356:116|316:124|316:124|268:116,1,129.200002464294,2|2,0:0|0:0,0:0:0:0:
196,96,26828,1,0,0:0:0:0:
152,160,27021,6,0,B|140:100|140:52|140:52|108:84,1,129.200002464294,2|2,0:0|0:0,0:0:0:0:
68,116,27602,1,0,0:0:0:0:
68,116,27795,2,0,P|72:146|80:196,1,64.6000012321472,2|0,0:0|0:0,0:0:0:0:
128,236,28182,2,0,P|123:266|116:316,1,64.6000012321472,2|0,0:0|0:0,0:0:0:0:
52,340,28569,6,0,B|96:328|96:328|184:348,1,129.200002464294,2|2,0:0|0:0,0:0:0:0:
240,300,29150,1,0,0:0:0:0:
300,348,29344,2,0,P|336:344|372:336,1,64.6000012321472,2|0,0:0|0:0,0:0:0:0:
388,264,29731,2,0,P|424:268|460:276,1,64.6000012321472,2|0,0:0|0:0,0:0:0:0:
496,340,30118,6,0,B|490:295|490:295|496:259|496:259|490:207,1,129.200002464294,2|2,0:0|0:0,0:0:0:0:
420,180,30698,1,0,0:0:0:0:
480,132,30892,2,0,L|488:56,1,64.6000012321472,2|0,0:0|0:0,0:0:0:0:
432,12,31279,1,2,0:0:0:0:
432,12,31473,1,2,0:0:0:0:
372,60,31666,6,0,P|328:56|256:44,1,96.9000018482209,4|0,0:0|0:0,0:0:0:0:
260,36,32053,2,0,L|192:40,1,64.6000012321472,2|0,0:0|0:0,0:0:0:0:
136,92,32440,2,0,B|32:80|32:80|52:116,1,129.200002464294,2|2,0:0|0:0,0:0:0:0:
88,164,33021,1,0,0:0:0:0:
88,164,33215,6,0,P|84:216|76:268,1,96.9000018482209,2|0,0:0|0:0,0:0:0:0:
72,280,33602,2,0,L|140:276,1,64.6000012321472,2|0,0:0|0:0,0:0:0:0:
208,304,33989,2,0,B|236:288|236:288|276:312|340:308,1,129.200002464294,2|2,0:0|0:0,0:0:0:0:
400,276,34569,1,0,0:0:0:0:
360,212,34763,6,0,P|364:168|360:96,2,96.9000018482209,2|0|0,0:0|0:0|0:0,0:0:0:0:
284,232,35537,2,0,B|212:220|212:220|184:232,1,96.9000018482209,2|0,0:0|0:0,0:0:0:0:
172,236,35924,2,0,L|168:156,1,64.6000012321472,2|0,0:0|0:0,0:0:0:0:
96,148,36311,6,0,L|104:32,1,96.9000018482209,2|0,0:0|0:0,0:0:0:0:
120,44,36698,2,0,P|152:52|196:56,1,64.6000012321472,8|0,0:0|0:0,0:0:0:0:
256,24,37086,2,0,L|292:20,2,32.3000006160736,2|8|0,0:0|0:0|0:0,0:0:0:0:
252,100,37473,2,0,L|324:104,1,64.6000012321472,8|0,0:0|0:0,0:0:0:0:
376,184,37860,6,0,L|220:180,1,152,4|2,0:0|0:0,0:0:0:0:
164,132,38440,1,0,0:0:0:0:
104,180,38634,2,0,P|106:224|110:255,1,76,2|0,0:0|0:0,0:0:0:0:
36,280,39021,2,0,P|23:242|15:206,1,76,8|0,0:0|0:0,0:0:0:0:
16,132,39408,6,0,B|28:16|28:16|68:40,1,152,2|2,0:0|0:0,0:0:0:0:
120,80,39989,1,0,0:0:0:0:
172,24,40182,2,0,L|248:32,1,76,2|0,0:0|0:0,0:0:0:0:
320,8,40569,1,8,0:0:0:0:
320,8,40763,1,2,0:0:0:0:
380,52,40957,6,0,B|440:56|484:16|484:16|512:64,1,152,2|2,0:0|0:0,0:0:0:0:
476,120,41537,1,0,0:0:0:0:
476,120,41731,2,0,L|484:208,1,76,2|0,0:0|0:0,0:0:0:0:
412,220,42118,2,0,L|404:140,1,76,8|0,0:0|0:0,0:0:0:0:
328,132,42505,6,0,B|324:184|324:184|336:236|336:236|328:284,1,152,2|2,0:0|0:0,0:0:0:0:
268,332,43086,1,0,0:0:0:0:
204,288,43279,2,0,L|164:296,2,38,2|8|0,0:0|0:0|0:0,0:0:0:0:
220,212,43666,2,0,L|136:204,1,76,8|2,0:0|0:0,0:0:0:0:
68,212,44053,6,0,P|28:272|76:336,2,152,4|2|2,0:0|0:0|0:0,0:0:0:0:
140,188,45021,1,0,0:0:0:0:
210,217,45215,2,0,P|218:177|222:133,1,76,8|0,0:0|0:0,0:0:0:0:
158,98,45602,6,0,L|78:106,1,76,2|0,0:0|0:0,0:0:0:0:
21,60,45989,2,0,B|53:32|53:32|173:20,1,152,2|2,0:0|0:0,0:0:0:0:
237,17,46569,1,0,0:0:0:0:
297,63,46763,2,0,B|305:79|305:79|301:143,1,76,8|2,0:0|0:0,0:0:0:0:
232,168,47150,6,0,P|232:232|252:296,1,114,4|0,0:0|0:0,0:0:0:0:
260,296,47537,2,0,L|344:288,1,76,8|0,0:0|0:0,0:0:0:0:
384,348,47924,2,0,L|468:340,1,76,4|0,0:0|0:0,0:0:0:0:
508,284,48311,2,0,P|512:244|512:204,1,76,8|2,0:0|0:0,0:0:0:0:
444,172,48698,6,0,P|444:134|448:96,1,76,4|0,0:0|0:0,0:0:0:0:
448,96,48989,1,0,0:0:0:0:
448,96,49086,1,8,0:0:0:0:
496,36,49279,2,0,L|544:40,2,38,0|2|2,0:0|0:0|0:0,0:0:0:0:
424,12,49666,1,2,0:0:0:0:
368,64,49860,2,0,P|316:56|284:40,1,76,4|2,0:0|0:0,0:0:0:0:
224,20,50247,6,0,P|186:19|149:28,1,76,4|0,0:0|0:0,0:0:0:0:
88,76,50634,2,0,L|96:172,1,76,2|0,0:0|0:0,0:0:0:0:
156,196,51021,2,0,B|148:316|148:316|112:284,1,152,2|8,0:0|0:0,0:0:0:0:
76,236,51602,1,0,0:0:0:0:
76,236,51795,6,0,P|151:236|226:248,1,152,2|2,0:0|0:0,0:0:0:0:
300,276,52376,1,0,0:0:0:0:
372,248,52569,2,0,L|416:244,2,38,2|8|0,0:0|0:0|0:0,0:0:0:0:
312,200,52957,2,0,P|304:156|300:120,1,76,8|2,0:0|0:0,0:0:0:0:
224,124,53344,6,0,B|216:60|240:8|240:8|280:52,1,152,4|2,0:0|0:0,0:0:0:0:
336,56,53924,1,0,0:0:0:0:
336,56,54118,2,0,P|376:56|412:48,1,76,2|0,0:0|0:0,0:0:0:0:
460,108,54505,2,0,P|424:122|387:128,1,76,8|0,0:0|0:0,0:0:0:0:
356,196,54892,6,0,P|404:204|472:204,1,114,4|0,0:0|0:0,0:0:0:0:
492,200,55279,2,0,L|488:280,1,76,2|0,0:0|0:0,0:0:0:0:
424,316,55666,2,0,L|428:360,2,38,2|8|0,0:0|0:0|0:0,0:0:0:0:
356,284,56053,1,8,0:0:0:0:
356,284,56247,1,2,0:0:0:0:
300,336,56440,6,0,P|248:328|220:320,1,76,4|0,0:0|0:0,0:0:0:0:
156,292,56828,2,0,B|100:300|100:300|72:288,1,76,2|0,0:0|0:0,0:0:0:0:
16,252,57215,2,0,B|24:212|24:212|-12:164|4:100,1,152,2|8,0:0|0:0,0:0:0:0:
56,52,57795,1,0,0:0:0:0:
112,100,57989,6,0,B|200:108|200:108|248:88,1,114,4|0,0:0|0:0,0:0:0:0:
244,88,58376,2,0,L|240:172,1,76,8|0,0:0|0:0,0:0:0:0:
280,228,58763,1,4,0:0:0:0:
300,240,58860,2,0,P|360:252|408:224,1,114,8|8,0:0|0:0,0:0:0:0:
448,168,59344,1,0,0:0:0:0:
404,108,59537,6,0,B|352:104|352:104|304:116|304:116|244:104,1,152,4|8,0:0|0:0,0:0:0:0:
184,136,60118,1,0,0:0:0:0:
112,108,60311,2,0,L|108:160,3,38
92,160,60698,2,0,L|88:212,3,38
72,212,61086,6,0,L|84:332,2,114,0|0|0,1:0|1:0|1:0,0:0:0:0:
428,58,62634,6,0,P|439:136|376:148,1,152,4|8,0:0|0:0,0:0:0:0:
308,128,63215,1,0,0:0:0:0:
252,180,63408,2,0,P|216:180|176:168,1,76,2|0,0:0|0:0,0:0:0:0:
116,124,63795,2,0,P|78:126|42:138,1,76,8|0,0:0|0:0,0:0:0:0:
0,204,64182,5,4,0:0:0:0:
0,204,64376,1,0,0:0:0:0:
44,264,64569,2,0,B|40:356,1,76,8|0,0:0|0:0,0:0:0:0:
116,360,64957,2,0,L|121:206,1,152,2|8,0:0|0:0,0:0:0:0:
184,164,65537,1,2,0:0:0:0:
240,216,65731,6,0,P|283:207|323:207,1,76,4|0,0:0|0:0,0:0:0:0:
384,176,66118,2,0,P|420:184|458:186,1,76,8|0,0:0|0:0,0:0:0:0:
512,132,66505,2,0,B|520:12|520:12|480:64,1,152,2|8,0:0|0:0,0:0:0:0:
432,64,67086,1,0,0:0:0:0:
368,24,67279,6,0,P|328:24|280:40,1,76,2|0,0:0|0:0,0:0:0:0:
296,108,67666,2,0,P|333:108|370:98,1,76,12|0,0:0|0:0,0:0:0:0:
444,80,68053,2,0,B|440:124|440:124|448:184|448:184|440:232,1,152,2|12,0:0|0:0,0:0:0:0:
380,276,68634,1,2,0:0:0:0:
380,276,68828,6,0,B|384:332|384:332|368:360,1,76,4|0,0:0|0:0,0:0:0:0:
300,328,69215,1,8,0:0:0:0:
300,328,69408,1,0,0:0:0:0:
232,360,69602,2,0,B|124:340|124:340|76:356,1,152,2|8,0:0|0:0,0:0:0:0:
20,316,70182,1,0,0:0:0:0:
20,316,70376,6,0,L|16:236,1,76,4|0,0:0|0:0,0:0:0:0:
76,192,70763,2,0,L|72:112,1,76,8|0,0:0|0:0,0:0:0:0:
124,60,71150,2,0,B|156:84|156:84|164:212,1,152,2|8,0:0|0:0,0:0:0:0:
216,252,71731,1,2,0:0:0:0:
260,188,71924,6,0,P|316:176|372:212,1,114,4|0,0:0|0:0,0:0:0:0:
376,220,72311,2,0,B|404:228|404:228|472:216,1,76,8|0,0:0|0:0,0:0:0:0:
504,168,72698,2,0,P|528:116|464:64,2,152,2|8|2,0:0|0:0|0:0,0:0:0:0:
432,148,73666,5,0,0:0:0:0:
364,180,73860,2,0,L|372:264,1,76,4|2,0:0|0:0,0:0:0:0:
320,312,74247,2,0,P|292:312|276:308,3,38,2|2|2|2,0:0|0:0|0:0|0:0,0:0:0:0:
264,296,74634,2,0,L|224:304,3,38,12|2|2|2,0:0|0:0|0:0|0:0,0:0:0:0:
212,320,75021,6,0,P|136:304|44:312,1,152,4|8,0:0|0:0,0:0:0:0:
4,356,75602,1,0,0:0:0:0:
52,296,75795,2,0,L|44:204,1,76,2|0,0:0|0:0,0:0:0:0:
96,164,76182,1,8,0:0:0:0:
96,164,76376,1,0,0:0:0:0:
148,220,76569,6,0,L|236:208,1,76,4|0,0:0|0:0,0:0:0:0:
292,240,76957,2,0,L|380:228,1,76,8|0,0:0|0:0,0:0:0:0:
436,260,77344,2,0,B|464:236|464:236|452:116,1,152,2|8,0:0|0:0,0:0:0:0:
480,52,77924,1,2,0:0:0:0:
412,20,78118,6,0,P|336:36|360:96,1,152,4|8,0:0|0:0,0:0:0:0:
308,152,78698,1,0,0:0:0:0:
308,152,78892,2,0,P|272:152|224:140,1,76,2|0,0:0|0:0,0:0:0:0:
188,84,79279,2,0,P|206:115|219:162,1,76,8|0,0:0|0:0,0:0:0:0:
216,228,79666,6,0,L|208:312,1,76,2|0,0:0|0:0,0:0:0:0:
132,292,80053,1,12,0:0:0:0:
132,292,80247,1,0,0:0:0:0:
204,320,80440,2,0,L|260:316,2,38,2|8|0,0:0|0:0|0:0,0:0:0:0:
132,292,80828,2,0,L|48:296,1,76,12|2,0:0|0:0,0:0:0:0:
44,220,81215,6,0,L|200:212,1,152,4|8,0:0|0:0,0:0:0:0:
256,256,81795,1,0,0:0:0:0:
320,216,81989,2,0,B|328:196|328:196|316:132,1,76,2|0,0:0|0:0,0:0:0:0:
344,72,82376,2,0,P|380:56|428:56,1,76,8|0,0:0|0:0,0:0:0:0:
480,96,82763,5,4,0:0:0:0:
480,96,82957,1,0,0:0:0:0:
456,168,83150,2,0,P|420:184|372:184,1,76,8|0,0:0|0:0,0:0:0:0:
312,164,83537,2,0,B|240:152|200:196|200:196|224:232,1,152,2|8,0:0|0:0,0:0:0:0:
264,280,84118,1,2,0:0:0:0:
264,280,84311,6,0,B|268:336|268:336|244:368,1,76,4|0,0:0|0:0,0:0:0:0:
180,344,84698,2,0,B|172:292|172:292|180:244|180:244|172:176,2,152,8|2|8,0:0|0:0|0:0,0:0:0:0:
252,364,85666,1,2,0:0:0:0:
320,332,85860,6,0,B|376:324|376:324|404:336,1,76,4|2,0:0|0:0,0:0:0:0:
468,356,86247,2,0,P|476:320|476:276,1,76,2|2,0:0|0:0,0:0:0:0:
439,214,86634,2,0,L|431:167,3,38,4|2|2|2,0:0|0:0|0:0|0:0,0:0:0:0:
417,160,87021,2,0,L|425:114,3,38,4|2|2|2,0:0|0:0|0:0|0:0,0:0:0:0:
435,103,87408,6,0,B|327:82|327:82|284:100,1,152,4|8,0:0|0:0,0:0:0:0:
223,138,87989,1,0,0:0:0:0:
162,183,88182,2,0,P|90:155|101:77,1,152,4|2,0:0|0:0,0:0:0:0:
148,40,88763,1,2,0:0:0:0:
148,40,88957,6,0,L|248:44,1,76,4|2,0:0|0:0,0:0:0:0:
288,88,89344,2,0,B|344:84|344:84|364:64,1,76,8|2,0:0|0:0,0:0:0:0:
428,40,89731,2,0,L|436:88,3,38,2|8|2|2,0:0|0:0|0:0|0:0,0:0:0:0:
448,96,90118,2,0,L|444:144,3,38,8|2|2|2,0:0|0:0|0:0|0:0,0:0:0:0:
432,152,90505,6,0,B|444:264|444:264|420:296,1,152,4|2,0:0|0:0,0:0:0:0:
348,320,91086,2,0,L|260:308,1,76,0|2,0:0|0:0,0:0:0:0:
204,276,91473,2,0,P|156:284|120:288,1,76,0|2,0:0|0:0,0:0:0:0:
116,212,91860,6,0,P|164:204|200:200,1,76,0|2,0:0|0:0,0:0:0:0:
264,224,92247,2,0,B|276:204|276:204|272:136,1,76,0|2,0:0|0:0,0:0:0:0:
200,124,92634,2,0,B|196:71|196:71|208:51,1,76,0|2,0:0|0:0,0:0:0:0:
272,8,93021,1,0,0:0:0:0:
324,64,93215,2,0,P|356:64|408:48,1,76,2|0,0:0|0:0,0:0:0:0:
456,4,93602,6,0,B|452:52|452:52|468:108|468:108|464:160,1,152,4|2,0:0|0:0,0:0:0:0:
404,200,94182,2,0,L|412:284,1,76,0|2,0:0|0:0,0:0:0:0:
336,288,94569,2,0,L|328:204,1,76,0|2,0:0|0:0,0:0:0:0:
268,164,94957,5,0,0:0:0:0:
268,164,95150,1,2,0:0:0:0:
208,208,95344,2,0,B|156:216|156:216|124:200,1,76,0|2,0:0|0:0,0:0:0:0:
108,136,95731,2,0,P|76:104|4:172,1,152
0,232,96311,2,0,L|8:312,1,76,4|0,0:0|0:0,0:0:0:0:
76,340,96698,6,0,B|120:328|120:328|236:352,1,152,4|2,0:0|0:0,0:0:0:0:
300,364,97279,2,0,P|344:356|388:332,1,76,0|2,0:0|0:0,0:0:0:0:
448,344,97666,2,0,P|463:301|464:251,1,76,0|2,0:0|0:0,0:0:0:0:
388,268,98053,6,0,P|379:231|379:193,1,76,0|2,0:0|0:0,0:0:0:0:
436,144,98440,1,0,0:0:0:0:
436,144,98634,1,2,0:0:0:0:
384,92,98828,2,0,B|360:84|360:84|292:100,1,76,0|2,0:0|0:0,0:0:0:0:
240,128,99215,1,0,0:0:0:0:
204,60,99408,2,0,P|168:48|124:52,1,76,2|0,0:0|0:0,0:0:0:0:
72,100,99795,6,0,L|80:256,1,152,4|2,0:0|0:0,0:0:0:0:
156,248,100376,2,0,B|151:166,1,76,0|2,0:0|0:0,0:0:0:0:
192,108,100763,1,2,0:0:0:0:
192,108,100957,1,2,0:0:0:0:
256,148,101150,5,8,0:0:0:0:
272,12,101537,1,0,0:0:0:0:
256,148,101924,1,0,0:0:0:0:
272,12,102311,5,0,0:0:0:0:
312,76,102505,2,0,P|404:88|424:36,1,152,0|4,0:0|0:0,0:0:0:0:
84,284,112182,5,2,0:0:0:0:
84,284,112957,2,0,B|68:152|68:152|92:112,1,171.000006523133,2|2,0:0|0:0,0:0:0:0:
148,164,113731,6,0,P|216:184|240:100,1,152,2|8,0:0|0:0,0:0:0:0:
224,52,114311,1,0,0:0:0:0:
224,52,114505,2,0,L|176:56,2,38,2|8|0,0:0|0:0|0:0,0:0:0:0:
296,28,114892,2,0,B|344:36|344:36|384:28,1,76,8|2,0:0|0:0,0:0:0:0:
392,104,115279,6,0,B|496:80|496:80|520:104|508:144,1,152,4|2,0:0|0:0,0:0:0:0:
476,188,115860,1,0,0:0:0:0:
476,188,116053,2,0,B|468:244|492:296|492:296|468:292|440:256,1,152,2|8,0:0|0:0,0:0:0:0:
392,236,116634,1,0,0:0:0:0:
328,276,116828,6,0,P|281:288|242:285,1,76,2|0,0:0|0:0,0:0:0:0:
180,308,117215,2,0,P|208:248|136:204,1,152,2|2,0:0|0:0,0:0:0:0:
80,232,117795,1,0,0:0:0:0:
80,232,117989,2,0,L|76:320,1,76,8|2,0:0|0:0,0:0:0:0:
0,320,118376,6,0,L|8:160,1,152,2|2,0:0|0:0,0:0:0:0:
64,116,118957,1,0,0:0:0:0:
120,168,119150,2,0,P|172:164|212:148,1,76,2|0,0:0|0:0,0:0:0:0:
256,112,119537,2,0,B|311:117|311:117|342:151,1,76,8|0,0:0|0:0,0:0:0:0:
276,192,119924,6,0,L|280:36,1,152,2|2,0:0|0:0,0:0:0:0:
212,8,120505,1,0,0:0:0:0:
152,52,120698,2,0,L|112:44,2,38,2|8|0,0:0|0:0|0:0,0:0:0:0:
196,116,121086,1,8,0:0:0:0:
196,116,121279,1,2,0:0:0:0:
148,172,121473,6,0,B|92:184|52:156|52:156|32:168|36:208,1,152,4|2,0:0|0:0,0:0:0:0:
60,276,122053,1,0,0:0:0:0:
60,276,122247,2,0,P|136:284|232:248,1,152,2|8,0:0|0:0,0:0:0:0:
260,208,122828,1,0,0:0:0:0:
324,248,123021,6,0,B|332:268|332:268|328:328,1,76,2|0,0:0|0:0,0:0:0:0:
404,340,123408,2,0,B|412:220|412:220|432:252,1,152,2|2,0:0|0:0,0:0:0:0:
496,280,123989,1,0,0:0:0:0:
496,280,124182,2,0,P|508:232|508:192,1,76,8|0,0:0|0:0,0:0:0:0:
460,148,124569,6,0,L|340:156,1,114,4|0,0:0|0:0,0:0:0:0:
325,146,124957,2,0,P|313:98|313:58,1,76,8|0,0:0|0:0,0:0:0:0:
251,27,125344,2,0,L|176:34,1,76,4|0,0:0|0:0,0:0:0:0:
176,34,125634,1,0,0:0:0:0:
176,34,125731,1,8,0:0:0:0:
116,84,125924,1,0,0:0:0:0:
68,28,126118,6,0,B|72:80|72:80|60:128|60:128|68:196,1,152,4|8,0:0|0:0,0:0:0:0:
96,248,126698,2,0,L|52:252,2,38,0|0|2,0:0|0:0|0:0,0:0:0:0:
152,196,127086,1,0,0:0:0:0:
204,252,127279,2,0,P|247:240|290:236,1,76,8|2,0:0|0:0,0:0:0:0:
340,284,127666,6,0,B|396:284|456:316|456:316|444:280,1,152,4|2,0:0|0:0,0:0:0:0:
412,220,128247,1,0,0:0:0:0:
412,220,128440,2,0,B|396:184|396:184|412:64,1,152,2|8,0:0|0:0,0:0:0:0:
352,24,129021,1,0,0:0:0:0:
276,16,129215,6,0,P|232:24|192:44,1,76,2|0,0:0|0:0,0:0:0:0:
152,92,129602,2,0,L|160:180,1,76,2|0,0:0|0:0,0:0:0:0:
100,216,129989,2,0,L|56:212,2,38,2|8|0,0:0|0:0|0:0,0:0:0:0:
164,256,130376,2,0,L|204:248|252:240,1,76,8|0,0:0|0:0,0:0:0:0:
256,316,130763,6,0,L|216:324|168:332,1,76,4|0,0:0|0:0,0:0:0:0:
108,348,131150,2,0,L|104:192,1,152,2|2,0:0|0:0,0:0:0:0:
44,148,131731,1,0,0:0:0:0:
84,84,131924,2,0,B|144:76|144:76|176:96,1,76,8|0,0:0|0:0,0:0:0:0:
216,132,132311,6,0,P|204:60|276:48,1,152,4|2,0:0|0:0,0:0:0:0:
328,88,132892,1,0,0:0:0:0:
392,48,133086,2,0,L|396:8,2,38,2|8|0,0:0|0:0|0:0,0:0:0:0:
328,88,133473,2,0,P|332:132|344:176,1,76,8|2,0:0|0:0,0:0:0:0:
396,212,133860,6,0,P|392:256|380:300,1,76,4|0,0:0|0:0,0:0:0:0:
328,340,134247,2,0,L|244:332,1,76,2|0,0:0|0:0,0:0:0:0:
208,272,134634,2,0,B|88:264|88:264|64:288,1,152,2|8,0:0|0:0,0:0:0:0:
116,344,135215,1,0,0:0:0:0:
116,344,135408,6,0,L|124:184,1,152,4|8,0:0|0:0,0:0:0:0:
184,144,135989,1,0,0:0:0:0:
252,180,136182,2,0,L|296:184,2,38,4|8|0,0:0|0:0|0:0,0:0:0:0:
248,104,136569,1,8,0:0:0:0:
248,104,136763,1,2,0:0:0:0:
184,144,136957,6,0,B|196:112|196:112|192:28,1,114,4|0,0:0|0:0,0:0:0:0:
176,16,137344,2,0,P|136:28|88:28,1,76,8|0,0:0|0:0,0:0:0:0:
28,20,137731,2,0,L|24:80,3,38
40,76,138118,2,0,L|36:136,3,38
52,132,138505,6,0,L|44:256,2,114,0|0|0,1:0|1:0|1:0,0:0:0:0:
116,88,139279,2,0,P|136:84|168:84,3,38,2|2|2|2,0:0|0:0|0:0|0:0,0:0:0:0:
172,96,139666,2,0,P|190:94|209:91,3,38,2|2|2|2,0:0|0:0|0:0|0:0,0:0:0:0:
228,76,140053,6,0,B|344:92|344:92|380:64,1,152,4|8,0:0|0:0,0:0:0:0:
424,16,140634,1,0,0:0:0:0:
484,64,140828,2,0,L|492:152,1,76,2|0,0:0|0:0,0:0:0:0:
456,208,141215,2,0,B|460:264|460:264|448:296,1,76,8|0,0:0|0:0,0:0:0:0:
380,260,141602,5,4,0:0:0:0:
380,260,141795,1,0,0:0:0:0:
332,320,141989,2,0,L|244:308,1,76,8|0,0:0|0:0,0:0:0:0:
188,340,142376,2,0,P|136:348|128:264,1,152,2|8,0:0|0:0,0:0:0:0:
200,256,142957,1,2,0:0:0:0:
124,252,143150,6,0,B|4:260|4:260|24:216,1,152,4|8,0:0|0:0,0:0:0:0:
56,168,143731,1,0,0:0:0:0:
56,168,143924,2,0,L|152:164,1,76,2|0,0:0|0:0,0:0:0:0:
208,176,144311,2,0,B|216:152|216:152|208:92,1,76,8|0,0:0|0:0,0:0:0:0:
144,60,144698,5,2,0:0:0:0:
144,60,144892,1,0,0:0:0:0:
200,12,145086,2,0,P|244:8|280:16,1,76,12|0,0:0|0:0,0:0:0:0:
308,84,145473,2,0,B|364:108|412:88|412:88|432:108|420:144,1,152,2|12,0:0|0:0,0:0:0:0:
372,188,146053,1,2,0:0:0:0:
372,188,146247,6,0,P|384:260|464:252,1,152,4|8,0:0|0:0,0:0:0:0:
504,208,146828,1,0,0:0:0:0:
504,208,147021,2,0,L|500:124,1,76,2|0,0:0|0:0,0:0:0:0:
428,104,147408,2,0,B|432:52|432:52|424:28,1,76,8|0,0:0|0:0,0:0:0:0:
352,8,147795,5,4,0:0:0:0:
352,8,147989,1,0,0:0:0:0:
284,40,148182,2,0,B|232:28|232:28|200:44,1,76,8|0,0:0|0:0,0:0:0:0:
156,92,148569,2,0,L|164:264,1,152,2|8,0:0|0:0,0:0:0:0:
112,300,149150,1,2,0:0:0:0:
112,300,149344,6,0,B|156:284|156:284|212:324|280:300,1,152,4|8,0:0|0:0,0:0:0:0:
312,256,149924,1,0,0:0:0:0:
380,292,150118,2,0,P|384:340|392:372,1,76,2|0,0:0|0:0,0:0:0:0:
468,372,150505,2,0,L|476:220,1,152,8|2,0:0|0:0,0:0:0:0:
416,176,151086,5,2,0:0:0:0:
356,220,151279,1,4,0:0:0:0:
356,220,151473,1,2,0:0:0:0:
288,184,151666,2,0,L|240:192,3,38,2|2|2|2,0:0|0:0|0:0|0:0,0:0:0:0:
236,208,152053,2,0,L|188:216,3,38,4|2|2|2,0:0|0:0|0:0|0:0,0:0:0:0:
184,232,152440,6,0,P|128:192|164:112,1,152,4|8,0:0|0:0,0:0:0:0:
224,108,153021,1,0,0:0:0:0:
148,104,153215,2,0,L|64:100,1,76,2|0,0:0|0:0,0:0:0:0:
72,24,153602,2,0,L|156:28,1,76,8|0,0:0|0:0,0:0:0:0:
220,4,153989,6,0,L|304:8,1,76,4|0,0:0|0:0,0:0:0:0:
340,68,154376,1,8,0:0:0:0:
340,68,154569,1,0,0:0:0:0:
408,32,154763,2,0,B|444:28|444:28|480:84|460:148,1,152,2|8,0:0|0:0,0:0:0:0:
424,204,155344,1,2,0:0:0:0:
424,204,155537,6,0,L|344:196,1,76,4|0,0:0|0:0,0:0:0:0:
280,228,155924,2,0,B|284:288|284:288|268:308,1,76,8|0,0:0|0:0,0:0:0:0:
212,344,156311,2,0,P|152:344|164:252,1,152,2|8,0:0|0:0,0:0:0:0:
104,200,156892,1,0,0:0:0:0:
44,248,157086,6,0,B|30:225|30:225|27:173,1,76,2|0,0:0|0:0,0:0:0:0:
64,108,157473,2,0,P|98:93|136:93,1,76,12|0,0:0|0:0,0:0:0:0:
212,108,157860,2,0,L|264:116,2,38,2|8|0,0:0|0:0|0:0,0:0:0:0:
188,36,158247,2,0,L|272:28,1,76,12|2,0:0|0:0,0:0:0:0:
332,64,158634,6,0,B|392:68|436:32|436:32|476:72,1,152,4|8,0:0|0:0,0:0:0:0:
500,128,159215,1,0,0:0:0:0:
500,128,159408,2,0,L|496:220,1,76,2|0,0:0|0:0,0:0:0:0:
420,204,159795,2,0,L|424:112,1,76,8|0,0:0|0:0,0:0:0:0:
368,76,160182,5,4,0:0:0:0:
368,76,160376,1,0,0:0:0:0:
312,128,160569,2,0,B|260:124|260:124|236:108,1,76,8|0,0:0|0:0,0:0:0:0:
180,64,160957,2,0,B|68:72|68:72|48:116,1,152,2|8,0:0|0:0,0:0:0:0:
32,180,161537,1,2,0:0:0:0:
88,232,161731,6,0,P|84:284|72:320,1,76,4|0,0:0|0:0,0:0:0:0:
12,264,162118,2,0,L|180:256,1,152,8|2,0:0|0:0,0:0:0:0:
224,212,162698,1,0,0:0:0:0:
284,256,162892,2,0,B|296:244|296:244|300:172,1,76,8|2,0:0|0:0,0:0:0:0:
240,136,163279,6,0,P|232:96|236:60,1,76,4|2,0:0|0:0,0:0:0:0:
292,8,163666,2,0,L|376:16,1,76,2|2,0:0|0:0,0:0:0:0:
384,88,164053,2,0,L|428:84,3,38,4|2|2|2,0:0|0:0|0:0|0:0,0:0:0:0:
440,72,164440,2,0,L|484:68,3,38,4|2|2|2,0:0|0:0|0:0|0:0,0:0:0:0:
496,56,164828,6,0,L|488:216,1,152,4|8,0:0|0:0,0:0:0:0:
444,268,165408,1,0,0:0:0:0:
388,216,165602,2,0,B|352:236|352:236|300:204|224:216,1,152,4|8,0:0|0:0,0:0:0:0:
180,256,166182,1,2,0:0:0:0:
180,256,166376,6,0,L|188:348,1,76,4|2,0:0|0:0,0:0:0:0:
112,340,166763,2,0,L|104:244,1,76,8|2,0:0|0:0,0:0:0:0:
64,200,167150,1,2,0:0:0:0:
64,200,167247,1,8,0:0:0:0:
64,200,167344,2,0,P|104:184|156:180,1,76,2|8,0:0|0:0,0:0:0:0:
212,188,167731,1,2,0:0:0:0:
288,208,167924,6,0,P|328:168|304:96,2,129.200002464294,4|2|2,0:0|0:0|0:0,0:0:0:0:
212,188,168892,1,0,0:0:0:0:
136,208,169086,2,0,P|128:176|128:132,1,64.6000012321472,2|0,0:0|0:0,0:0:0:0:
60,104,169473,6,0,B|30:131|30:131|28:236,1,129.200002464294,2|2,0:0|0:0,0:0:0:0:
76,284,170053,1,0,0:0:0:0:
76,284,170247,2,0,P|140:304|200:256,1,129.200002464294,2|2,0:0|0:0,0:0:0:0:
240,216,170828,6,0,P|304:196|364:244,1,129.200002464294
420,264,171408,1,2,0:0:0:0:
488,228,171602,2,0,L|496:152,1,64.6000012321472,0|2,0:0|0:0,0:0:0:0:
416,160,171989,2,0,L|408:84,1,64.6000012321472,0|2,0:0|0:0,0:0:0:0:
356,40,172376,6,0,P|316:32|284:36,1,64.6000012321472,0|2,0:0|0:0,0:0:0:0:
236,88,172763,2,0,P|203:89|172:82,1,64.6000012321472,0|2,0:0|0:0,0:0:0:0:
100,52,173150,1,0,0:0:0:0:
32,88,173344,2,0,L|24:48,2,32.3000006160736,2|0|0,0:0|0:0|0:0,0:0:0:0:
96,132,173731,2,0,L|88:208,1,64.6000012321472,4|2,0:0|0:0,0:0:0:0:
28,244,174118,6,0,B|36:304|36:304|52:320,1,76,4|0,0:0|0:0,0:0:0:0:
116,344,174505,1,2,0:0:0:0:
192,328,174698,2,0,B|212:304|212:304|220:164,1,152
184,116,175279,1,2,0:0:0:0:
228,52,175473,6,0,P|304:28|372:84,1,152
424,108,176053,1,2,0:0:0:0:
492,72,176247,1,0,0:0:0:0:
424,108,176440,2,0,L|432:160,4,38,2|0|0|0|2,0:0|0:0|0:0|0:0|0:0,0:0:0:0:
428,32,177021,6,0,P|392:24|348:24,1,76,4|2,0:0|0:0,0:0:0:0:
288,64,177408,1,2,0:0:0:0:
288,64,177602,2,0,L|284:156,1,76,2|2,0:0|0:0,0:0:0:0:
244,204,177989,2,0,L|204:196,4,38,2|2|2|2|2,0:0|0:0|0:0|0:0|0:0,0:0:0:0:
308,244,178569,6,0,L|148:252,1,152,2|2,1:2|1:2,0:0:0:0:
136,100,179344,2,0,L|296:92,1,152,6|2,1:2|1:2,0:0:0:0:
340,148,179924,2,0,L|384:140,3,38,2|2|2|2,0:0|0:0|0:0|0:0,0:0:0:0:
400,148,180311,6,0,B|420:120|420:120|408:0,2,152,4|8|2,0:0|0:0|0:0,0:0:0:0:
328,128,181279,1,0,0:0:0:0:
288,192,181473,2,0,P|250:194|196:176,1,76,8|0,0:0|0:0,0:0:0:0:
172,120,181860,6,0,P|134:120|96:132,1,76,4|0,0:0|0:0,0:0:0:0:
52,72,182247,2,0,P|23:96|1:130,1,76,8|0,0:0|0:0,0:0:0:0:
32,200,182634,1,2,0:0:0:0:
4,272,182828,1,0,0:0:0:0:
64,316,183021,2,0,L|108:308,3,38,8|0|0|0,0:0|0:0|0:0|0:0,0:0:0:0:
120,296,183408,6,0,P|168:304|208:304,1,76,4|0,0:0|0:0,0:0:0:0:
232,240,183795,2,0,P|269:241|307:248,1,76,8|0,0:0|0:0,0:0:0:0:
376,280,184182,2,0,L|368:332,3,38,2|0|0|0,0:0|0:0|0:0|0:0,0:0:0:0:
368,340,184569,2,0,L|456:336,1,76,8|0,0:0|0:0,0:0:0:0:
452,260,184957,6,0,L|288:264,1,152,2|12,0:0|0:0,0:0:0:0:
236,300,185537,1,0,0:0:0:0:
196,236,185731,2,0,P|148:240|112:256,1,76,2|0,0:0|0:0,0:0:0:0:
122,250,186021,1,2,0:0:0:0:
122,250,186118,1,12,0:0:0:0:
52,276,186311,1,2,0:0:0:0:
4,216,186505,6,0,B|-4:188|-4:188|0:136,1,76,4|0,0:0|0:0,0:0:0:0:
48,80,186892,2,0,P|92:76|128:88,1,76,8|0,0:0|0:0,0:0:0:0:
176,136,187279,2,0,P|213:139|249:127,1,76,2|0,0:0|0:0,0:0:0:0:
292,64,187666,2,0,P|336:60|372:72,1,76,8|0,0:0|0:0,0:0:0:0:
424,120,188053,6,0,B|428:232|428:232|412:236|372:216,1,152,4|8,0:0|0:0,0:0:0:0:
328,180,188634,1,0,0:0:0:0:
264,220,188828,2,0,B|244:252|244:252|280:296|264:360,1,152,2|8,0:0|0:0,0:0:0:0:
192,380,189408,2,0,L|112:372,1,76,2|4,0:0|0:0,0:0:0:0:
340,328,189989,6,0,L|392:324,3,38,8|0|0|0,0:0|0:0|0:0|0:0,0:0:0:0:
396,340,190376,2,0,L|448:336,3,38,8|0|0|0,0:0|0:0|0:0|0:0,0:0:0:0:
452,352,190763,2,0,B|456:304|456:304|448:252|448:252|456:188,1,152,2|8,0:0|0:0,0:0:0:0:
376,88,191440,6,0,P|324:72|264:108,1,114,8|8,0:0|0:0,0:0:0:0:
228,160,191924,2,0,L|232:236,1,76,2|2,0:0|0:0,0:0:0:0:
168,276,192311,2,0,L|120:268,3,38,2|2|2|2,0:0|0:0|0:0|0:0,0:0:0:0:
108,264,192698,1,4,0:0:0:0:
256,192,203537,12,4,205086,0:0:0:0:
392,100,205473,5,2,0:0:0:0:
392,100,205860,1,2,0:0:0:0:
392,100,206247,2,0,L|388:184,1,76,2|0,0:0|0:0,0:0:0:0:
332,228,206634,6,0,B|300:208|300:208|180:228,1,152,4|2,0:0|0:0,0:0:0:0:
148,292,207215,1,0,0:0:0:0:
148,292,207408,2,0,P|104:292|68:276,1,76,2|0,0:0|0:0,0:0:0:0:
96,208,207795,2,0,P|140:208|176:224,1,76,2|2,0:0|0:0,0:0:0:0:
224,272,208182,6,0,B|216:144|216:144|244:160,1,152,4|2,0:0|0:0,0:0:0:0:
372,224,208957,2,0,P|424:216|400:120,1,152,2|2,0:0|0:0,0:0:0:0:
360,92,209537,1,0,0:0:0:0:
288,120,209731,6,0,L|280:44,1,76,2|0,0:0|0:0,0:0:0:0:
204,44,210118,2,0,L|196:120,1,76,4|0,0:0|0:0,0:0:0:0:
128,156,210505,1,2,0:0:0:0:
60,120,210698,2,0,L|56:80,2,38,0|2|4,0:0|0:0|0:0,0:0:0:0:
128,156,211086,1,2,0:0:0:0:
64,200,211279,6,0,B|44:228|44:228|60:360,1,152,4|2,0:0|0:0,0:0:0:0:
128,376,211860,1,0,0:0:0:0:
176,316,212053,2,0,P|220:316|264:340,1,76,2|0,0:0|0:0,0:0:0:0:
316,364,212440,2,0,P|353:367|389:356,1,76,2|0,0:0|0:0,0:0:0:0:
436,296,212828,6,0,L|428:212,1,76,4|0,0:0|0:0,0:0:0:0:
372,172,213215,1,2,0:0:0:0:
372,172,213408,1,0,0:0:0:0:
428,120,213602,2,0,L|504:128,1,76,2|0,0:0|0:0,0:0:0:0:
512,52,213989,2,0,L|436:44,1,76,2|2,0:0|0:0,0:0:0:0:
364,68,214376,6,0,B|244:52|244:52|200:80,1,152,4|2,0:0|0:0,0:0:0:0:
184,136,214957,1,0,0:0:0:0:
240,188,215150,2,0,B|349:185|349:185|361:207|353:232,1,152,2|2,0:0|0:0,0:0:0:0:
340,300,215731,1,2,0:0:0:0:
340,300,215924,6,0,L|264:304,1,76,4|2,0:0|0:0,0:0:0:0:
188,288,216311,2,0,L|184:332,3,38,2|2|2|2,0:0|0:0|0:0|0:0,0:0:0:0:
184,325,217473,6,0,L|172:168,1,152,4|8,0:0|0:0,0:0:0:0:
116,112,218053,1,0,0:0:0:0:
160,40,218247,2,0,P|200:28|248:28,1,76,2|0,0:0|0:0,0:0:0:0:
280,96,218634,2,0,P|317:93|354:82,1,76,8|0,0:0|0:0,0:0:0:0:
440,16,219021,6,0,L|444:104,1,76,4|0,0:0|0:0,0:0:0:0:
496,160,219408,1,8,0:0:0:0:
496,160,219602,1,0,0:0:0:0:
420,196,219795,2,0,B|400:228|400:228|416:348,1,152,2|8,0:0|0:0,0:0:0:0:
496,364,220376,1,2,0:0:0:0:
412,356,220569,6,0,B|384:348|384:348|328:356,1,76,4|0,0:0|0:0,0:0:0:0:
260,324,220957,2,0,B|232:332|232:332|176:324,1,76,8|0,0:0|0:0,0:0:0:0:
116,276,221344,2,0,B|88:212|124:160|124:160|172:168,1,152,2|8,0:0|0:0,0:0:0:0:
228,204,221924,1,0,0:0:0:0:
308,176,222118,6,0,P|320:132|320:96,1,76,2|0,0:0|0:0,0:0:0:0:
260,44,222505,2,0,L|180:52,1,76,12|0,0:0|0:0,0:0:0:0:
104,72,222892,2,0,L|96:28,2,38,2|8|0,0:0|0:0|0:0,0:0:0:0:
160,132,223279,2,0,P|156:176|144:220,1,76,12|2,0:0|0:0,0:0:0:0:
68,224,223666,6,0,B|32:220|32:220|-4:276|44:352,1,152,4|8,0:0|0:0,0:0:0:0:
104,376,224247,1,0,0:0:0:0:
168,324,224440,2,0,B|188:316|188:316|260:328,1,76,2|0,0:0|0:0,0:0:0:0:
316,368,224828,2,0,P|364:364|400:348,1,76,8|0,0:0|0:0,0:0:0:0:
468,284,225215,6,0,L|476:372,2,76,4|0|8,0:0|0:0|0:0,0:0:0:0:
396,240,225795,1,0,0:0:0:0:
320,276,225989,2,0,P|264:228|292:152,1,152,2|8,0:0|0:0,0:0:0:0:
344,104,226569,1,2,0:0:0:0:
344,104,226763,6,0,L|436:112,1,76,4|0,0:0|0:0,0:0:0:0:
508,184,227150,2,0,L|352:196,1,152,8|2,0:0|0:0,0:0:0:0:
282,159,227731,1,0,0:0:0:0:
216,208,227924,2,0,B|208:224|208:224|216:288,1,76,8|0,0:0|0:0,0:0:0:0:
140,320,228311,6,0,L|131:244,1,76,2|2,0:0|0:0,0:0:0:0:
60,200,228698,2,0,L|68:108,1,76,4|2,0:0|0:0,0:0:0:0:
132,68,229086,2,0,L|184:76,3,38,2|2|2|2,0:0|0:0|0:0|0:0,0:0:0:0:
190,96,229473,2,0,L|227:90,3,38,4|2|2|2,0:0|0:0|0:0|0:0,0:0:0:0:
244,68,229860,6,0,P|312:96|392:80,1,152,4|8,0:0|0:0,0:0:0:0:
452,32,230440,1,0,0:0:0:0:
508,92,230634,2,0,L|500:168,1,76,2|0,0:0|0:0,0:0:0:0:
432,212,231021,2,0,P|433:249|440:294,1,76,8|0,0:0|0:0,0:0:0:0:
508,336,231408,5,4,0:0:0:0:
508,336,231602,1,0,0:0:0:0:
432,372,231795,2,0,L|356:364,1,76,8|0,0:0|0:0,0:0:0:0:
285,319,232182,2,0,B|228:327|165:327|165:327|185:287,1,152,2|8,0:0|0:0,0:0:0:0:
236,236,232763,1,2,0:0:0:0:
192,164,232957,6,0,P|153:154|116:152,1,76,4|0,0:0|0:0,0:0:0:0:
124,68,233344,2,0,P|84:72|48:82,1,76,8|0,0:0|0:0,0:0:0:0:
4,152,233731,2,0,L|12:308,1,152,2|8,0:0|0:0,0:0:0:0:
84,344,234311,1,0,0:0:0:0:
152,296,234505,6,0,B|176:284|176:284|244:296,1,76,2|0,0:0|0:0,0:0:0:0:
288,344,234892,2,0,L|372:332,1,76,12|0,0:0|0:0,0:0:0:0:
424,276,235279,1,2,0:0:0:0:
496,320,235473,2,0,L|500:368,2,38,0|2|12,0:0|0:0|0:0,0:0:0:0:
424,276,235860,1,2,0:0:0:0:
484,220,236053,6,0,P|496:144|476:64,1,152,4|8,0:0|0:0,0:0:0:0:
408,28,236634,1,0,0:0:0:0:
336,72,236828,2,0,L|332:156,1,76,2|0,0:0|0:0,0:0:0:0:
268,200,237215,2,0,P|224:200|180:180,1,76,8|0,0:0|0:0,0:0:0:0:
124,144,237602,5,4,0:0:0:0:
124,144,237795,1,0,0:0:0:0:
56,196,237989,2,0,L|60:284,1,76,8|0,0:0|0:0,0:0:0:0:
152,336,238376,2,0,B|184:312|184:312|180:192,1,152,2|8,0:0|0:0,0:0:0:0:
232,136,238957,1,2,0:0:0:0:
232,136,239150,6,0,P|276:136|320:152,1,76,4|0,0:0|0:0,0:0:0:0:
380,188,239537,2,0,B|444:188|476:160|476:160|488:188|512:204,2,152,8|2|8,0:0|0:0|0:0,0:0:0:0:
306,145,240505,1,2,0:0:0:0:
252,208,240698,6,0,P|208:204|176:188,1,76,4|2,0:0|0:0,0:0:0:0:
100,164,241086,1,2,0:0:0:0:
100,164,241279,1,2,0:0:0:0:
28,204,241473,2,0,L|24:160,3,38,4|2|2|2,0:0|0:0|0:0|0:0,0:0:0:0:
29,140,241860,2,0,L|25:96,3,38,4|2|2|2,0:0|0:0|0:0|0:0,0:0:0:0:
30,76,242247,6,0,B|80:84|80:84|128:68|128:68|196:76,1,152,4|8,0:0|0:0,0:0:0:0:
244,128,242828,1,0,0:0:0:0:
300,40,243021,2,0,B|328:20|328:20|456:44,1,152,4|8,0:0|0:0,0:0:0:0:
508,96,243602,1,2,0:0:0:0:
424,148,243795,6,0,P|416:191|418:229,1,76,4|2,0:0|0:0,0:0:0:0:
348,272,244182,2,0,P|336:234|334:196,1,76,8|2,0:0|0:0,0:0:0:0:
340,116,244569,2,0,L|300:112,3,38,2|8|2|2,0:0|0:0|0:0|0:0,0:0:0:0:
276,120,244957,2,0,L|236:116,3,38,8|2|2|2,0:0|0:0|0:0|0:0,0:0:0:0:
212,124,245344,6,0,P|228:56|140:44,1,152,4|2,0:0|0:0,0:0:0:0:
96,60,245924,2,0,L|100:144,1,76,0|2,0:0|0:0,0:0:0:0:
48,192,246311,2,0,L|52:276,1,76,0|2,0:0|0:0,0:0:0:0:
108,316,246698,6,0,B|132:324|132:324|196:312,1,76,0|2,0:0|0:0,0:0:0:0:
252,280,247086,2,0,P|304:292|336:296,1,76,0|2,0:0|0:0,0:0:0:0:
388,340,247473,2,0,B|412:308|412:308|404:188,1,152
344,152,248053,1,2,0:0:0:0:
344,152,248247,1,0,0:0:0:0:
412,120,248440,6,0,P|456:80|404:12,1,152,4|2,0:0|0:0,0:0:0:0:
336,12,249021,2,0,L|256:20,1,76,0|2,0:0|0:0,0:0:0:0:
200,64,249408,2,0,B|148:56|148:56|120:68,1,76,0|2,0:0|0:0,0:0:0:0:
84,128,249795,5,0,0:0:0:0:
84,128,249989,1,2,0:0:0:0:
128,192,250182,2,0,B|180:200|180:200|208:188,1,76,0|2,0:0|0:0,0:0:0:0:
272,164,250569,2,0,L|276:76,1,76,0|2,0:0|0:0,0:0:0:0:
324,28,250957,1,0,0:0:0:0:
380,76,251150,2,0,L|456:68,1,76,4|0,0:0|0:0,0:0:0:0:
480,140,251537,6,0,B|356:152|356:152|376:188,1,152,4|2,0:0|0:0,0:0:0:0:
424,228,252118,2,0,P|420:280|412:304,1,76,0|2,0:0|0:0,0:0:0:0:
352,348,252505,2,0,L|256:332,1,76,0|2,0:0|0:0,0:0:0:0:
212,296,252892,5,0,0:0:0:0:
212,296,253086,1,2,0:0:0:0:
148,340,253279,2,0,P|136:300|132:252,1,76,0|2,0:0|0:0,0:0:0:0:
192,220,253666,2,0,B|208:152|172:100|172:100|132:120,1,152
108,176,254247,2,0,B|88:184|88:184|28:176,1,76,2|0,0:0|0:0,0:0:0:0:
20,100,254634,6,0,L|184:88,1,152,4|2,0:0|0:0,0:0:0:0:
236,132,255215,2,0,B|292:128|292:128|316:108,1,76,0|2,0:0|0:0,0:0:0:0:
376,144,255602,2,0,L|372:224,1,76,2|2,0:0|0:0,0:0:0:0:
444,288,255989,6,0,L|452:128,1,152,8|0,0:0|0:0,0:0:0:0:
332,44,256763,2,0,P|260:32|236:116,1,152
256,164,257344,1,0,0:0:0:0:
