osu file format v14

[General]
AudioFilename: black bullet.mp3
AudioLeadIn: 0
PreviewTime: 49537
Countdown: 0
SampleSet: Normal
StackLeniency: 0.7
Mode: 1
LetterboxInBreaks: 0
WidescreenStoryboard: 0

[Editor]
Bookmarks: 6569,12763,25150,32892
DistanceSpacing: 0.5
BeatDivisor: 2
GridSize: 4
TimelineZoom: 0.8

[Metadata]
Title:black bullet
TitleUnicode:black bullet
Artist:fripSide
ArtistUnicode:fripSide
Creator:-Sh1n1-
Version:Kantan
Source:ブラック・ブレット
Tags:opening Akemi_Homura 黒の銃弾
BeatmapID:430839
BeatmapSetID:179224

[Difficulty]
HPDrainRate:4
CircleSize:5
OverallDifficulty:3
ApproachRate:5
SliderMultiplier:1.4
SliderTickRate:1

[Events]
//Background and Video events
0,0,"BG.jpg",0,0
//Break Periods
//Storyboard Layer 0 (Background)
//Storyboard Layer 1 (Fail)
//Storyboard Layer 2 (Pass)
//Storyboard Layer 3 (Foreground)
//Storyboard Sound Samples

[TimingPoints]
376,387.096774193548,4,1,0,80,1,0
49924,-100,4,1,0,80,0,1
77795,-100,4,1,0,80,0,0

[HitObjects]
256,192,376,5,4,0:0:0:0:
256,192,1924,1,0,0:0:0:0:
256,192,3279,1,8,0:0:0:0:
256,192,4827,1,12,0:0:0:0:
256,192,5601,1,4,0:0:0:0:
256,192,6569,1,12,0:0:0:0:
256,192,7924,1,8,0:0:0:0:
256,192,8698,1,8,0:0:0:0:
256,192,9666,1,12,0:0:0:0:
256,192,11021,1,0,0:0:0:0:
256,192,11795,1,8,0:0:0:0:
256,192,12763,1,12,0:0:0:0:
256,192,14311,1,0,0:0:0:0:
256,192,15859,1,8,0:0:0:0:
256,192,17408,1,8,0:0:0:0:
256,192,18182,1,0,0:0:0:0:
256,192,18956,1,0,0:0:0:0:
256,192,20505,1,8,0:0:0:0:
256,192,22053,1,0,0:0:0:0:
256,192,22827,1,8,0:0:0:0:
256,192,23601,1,0,0:0:0:0:
256,192,25150,1,4,0:0:0:0:
256,192,26698,1,8,0:0:0:0:
256,192,27472,1,8,0:0:0:0:
256,192,28246,1,0,0:0:0:0:
256,192,29795,1,8,0:0:0:0:
256,192,30569,1,0,0:0:0:0:
256,192,31343,1,8,0:0:0:0:
256,192,32892,1,8,0:0:0:0:
256,192,33666,1,0,0:0:0:0:
256,192,34440,1,12,0:0:0:0:
256,192,35214,1,12,0:0:0:0:
256,192,35988,1,12,0:0:0:0:
256,192,37537,1,4,0:0:0:0:
256,192,39085,1,8,0:0:0:0:
256,192,39859,1,8,0:0:0:0:
256,192,40634,1,0,0:0:0:0:
256,192,42182,1,8,0:0:0:0:
256,192,42956,1,0,0:0:0:0:
256,192,43730,1,8,0:0:0:0:
256,192,45279,1,0,0:0:0:0:
256,192,46053,1,8,0:0:0:0:
256,192,46827,1,0,0:0:0:0:
256,192,47601,1,8,0:0:0:0:
256,192,48375,1,4,0:0:0:0:
256,192,48956,1,4,0:0:0:0:
256,192,49924,1,12,0:0:0:0:
256,192,51472,1,8,0:0:0:0:
256,192,51859,1,8,0:0:0:0:
256,192,52246,1,8,0:0:0:0:
256,192,53021,1,0,0:0:0:0:
256,192,54569,1,8,0:0:0:0:
256,192,54956,1,8,0:0:0:0:
256,192,55343,1,8,0:0:0:0:
256,192,56117,1,0,0:0:0:0:
256,192,57666,1,8,0:0:0:0:
256,192,58053,1,8,0:0:0:0:
256,192,58440,1,8,0:0:0:0:
256,192,59214,1,0,0:0:0:0:
256,192,59988,1,0,0:0:0:0:
256,192,60763,1,8,0:0:0:0:
256,192,62311,1,4,0:0:0:0:
256,192,63859,1,8,0:0:0:0:
256,192,64246,1,8,0:0:0:0:
256,192,64634,1,8,0:0:0:0:
256,192,65408,1,0,0:0:0:0:
256,192,66956,1,8,0:0:0:0:
256,192,67343,1,8,0:0:0:0:
256,192,67730,1,8,0:0:0:0:
256,192,68505,1,0,0:0:0:0:
256,192,70053,1,8,0:0:0:0:
256,192,70440,1,8,0:0:0:0:
256,192,70827,1,8,0:0:0:0:
256,192,71601,1,0,0:0:0:0:
256,192,72375,1,0,0:0:0:0:
256,192,73150,1,8,0:0:0:0:
256,192,74698,1,0,0:0:0:0:
256,192,75472,1,0,0:0:0:0:
256,192,76246,12,0,77795,0:0:0:0:
256,192,79150,5,8,0:0:0:0:
256,192,79924,1,8,0:0:0:0:
256,192,80892,1,12,0:0:0:0:
256,192,82246,1,0,0:0:0:0:
256,192,83021,1,8,0:0:0:0:
256,192,84375,1,4,0:0:0:0:
