osu file format v14

[General]
AudioFilename: 01 black bullet.mp3
AudioLeadIn: 1500
PreviewTime: 139642
Countdown: 0
SampleSet: Soft
StackLeniency: 0.7
Mode: 0
LetterboxInBreaks: 1
WidescreenStoryboard: 0

[Editor]
DistanceSpacing: 1
BeatDivisor: 4
GridSize: 4
TimelineZoom: 1.899999

[Metadata]
Title:black bullet
TitleUnicode:black bullet
Artist:fripSide
ArtistUnicode:fripSide
Creator:[ -Scarlet- ]
Version:Hard
Source:ブラック・ブレット
Tags:黒の銃弾 Kuro no Juudan Rakuen
BeatmapID:478779
BeatmapSetID:178011

[Difficulty]
HPDrainRate:6
CircleSize:4
OverallDifficulty:6
ApproachRate:7.5
SliderMultiplier:1.6
SliderTickRate:2

[Events]
//Background and Video events
0,0,"fripside - black bullet.jpg",0,0
//Break Periods
2,90681,102043
2,180287,185656
2,192874,198043
//Storyboard Layer 0 (Background)
//Storyboard Layer 1 (Fail)
//Storyboard Layer 2 (Pass)
//Storyboard Layer 3 (Foreground)
//Storyboard Sound Samples

[TimingPoints]
675,387.096774193548,4,2,3,80,1,0
771,-100,4,2,1,60,0,0
6868,-100,4,2,5,60,0,0
6965,-100,4,2,1,60,0,0
9771,-100,4,2,0,60,0,0
9868,-100,4,2,1,60,0,0
11320,-100,4,2,3,60,0,0
12674,-100,4,2,4,60,0,0
13062,-100,4,2,3,60,0,0
25449,-133.333333333333,4,2,2,50,0,0
35126,-133.333333333333,4,2,6,50,0,0
35223,-133.333333333333,4,2,2,50,0,0
35900,-133.333333333333,4,2,6,50,0,0
35997,-133.333333333333,4,2,2,50,0,0
36287,-133.333333333333,4,2,3,50,0,0
36384,-133.333333333333,4,2,2,50,0,0
36674,-133.333333333333,4,2,6,50,0,0
36771,-133.333333333333,4,2,2,50,0,0
37255,-133.333333333333,4,2,6,50,0,0
37352,-133.333333333333,4,2,2,50,0,0
37836,-100,4,2,5,58,0,0
37933,-100,4,2,2,58,0,0
47126,-100,4,2,3,58,0,0
47223,-100,4,2,2,58,0,0
47900,-100,4,2,3,58,0,0
47997,-100,4,2,2,58,0,0
48674,-100,4,2,3,58,0,0
48771,-100,4,2,2,58,0,0
49449,-100,4,2,4,58,0,0
50223,-100,4,2,3,58,0,0
50320,-100,4,2,5,58,0,0
53320,-100,4,2,3,58,0,0
53416,-100,4,2,5,58,0,0
56416,-100,4,2,3,58,0,0
56513,-100,4,2,5,58,0,0
61062,-133.333333333333,4,2,5,58,0,0
62610,-90.9090909090909,4,2,5,80,0,1
71900,-90.9090909090909,4,2,5,80,0,0
72287,-90.9090909090909,4,2,6,80,0,0
72384,-90.9090909090909,4,2,5,80,0,0
74997,-90.9090909090909,4,2,5,80,0,1
84674,-100,4,2,6,80,0,0
84771,-100,4,2,5,80,0,0
87771,-100,4,2,6,80,0,0
87868,-100,4,2,5,80,0,0
88545,-100,4,2,6,80,0,0
88642,-100,4,2,5,80,0,0
102868,-133.333333333333,4,2,2,40,0,0
114094,-133.333333333333,4,2,6,40,0,0
114191,-133.333333333333,4,2,2,40,0,0
115255,-100,4,2,5,58,0,0
115352,-100,4,2,2,58,0,0
124545,-100,4,2,3,58,0,0
124642,-100,4,2,2,58,0,0
125320,-100,4,2,3,58,0,0
125416,-100,4,2,2,58,0,0
126094,-100,4,2,5,58,0,0
126191,-100,4,2,2,58,0,0
126868,-100,4,2,4,58,0,0
127642,-100,4,2,3,58,0,0
127739,-100,4,2,5,58,0,0
128804,-100,4,2,6,58,0,0
128900,-100,4,2,5,58,0,0
129578,-100,4,2,6,58,0,0
129674,-100,4,2,5,58,0,0
140029,-90.9090909090909,4,2,5,80,0,1
149319,-90.9090909090909,4,2,5,80,0,0
149707,-90.9090909090909,4,2,6,80,0,0
149804,-90.9090909090909,4,2,5,80,0,0
152416,-90.9090909090909,4,2,5,80,0,1
161707,-100,4,2,5,80,0,0
162094,-100,4,2,6,80,0,0
162191,-100,4,2,5,80,0,0
165191,-100,4,2,6,80,0,0
165287,-100,4,2,5,80,0,0
165965,-100,4,2,6,80,0,0
166062,-100,4,2,5,80,0,0
167900,-133.333333333333,4,2,2,40,0,0
173707,-133.333333333333,4,2,5,40,0,0
174094,-100,4,2,5,50,0,0
186481,-90.9090909090909,4,2,4,70,0,0
186578,-90.9090909090909,4,2,2,70,0,0
192287,-200,4,2,2,40,0,0
192674,-200,4,2,2,30,0,0
205062,-133.333333333333,4,2,5,50,0,0
214739,-133.333333333333,4,2,6,50,0,0
214836,-133.333333333333,4,2,5,50,0,0
216384,-133.333333333333,4,2,5,40,0,0
216481,-133.333333333333,4,2,5,30,0,0
216578,-133.333333333333,4,2,5,20,0,0
216674,-133.333333333333,4,2,5,10,0,0
217449,-83.3333333333333,4,2,5,80,0,1
226739,-100,4,2,5,80,0,0
227126,-100,4,2,6,80,0,0
227223,-100,4,2,5,80,0,0
229836,-83.3333333333333,4,2,5,80,0,1
239125,-100,4,2,5,80,0,0
239513,-100,4,2,6,80,0,0
239610,-100,4,2,5,80,0,0
242610,-100,4,2,6,80,0,0
242707,-100,4,2,5,80,0,0
243384,-100,4,2,6,80,0,0
243481,-100,4,2,5,80,0,0
245320,-100,4,2,3,60,0,0
257320,-142.857142857143,4,2,3,30,0,0
257707,-142.857142857143,4,2,3,5,0,0

[Colours]
Combo1 : 27,230,245
Combo2 : 158,194,243
Combo3 : 237,221,143
Combo4 : 254,180,222

[HitObjects]
184,240,675,5,4,0:0:0:0:
184,240,868,1,0,0:0:0:0:
216,304,1062,1,8,0:0:0:0:
172,360,1255,1,0,0:0:0:0:
120,184,1642,5,0,0:0:0:0:
56,216,1836,1,8,0:0:0:0:
0,172,2029,1,0,0:0:0:0:
180,136,2416,5,0,0:0:0:0:
148,72,2610,1,8,0:0:0:0:
192,16,2803,1,0,0:0:0:0:
240,188,3191,5,0,0:0:0:0:
304,156,3385,1,8,0:0:0:0:
360,200,3578,1,0,0:0:0:0:
92,224,3965,5,0,0:0:0:0:
180,260,4158,1,8,0:0:0:0:
240,188,4352,2,0,L|260:92,1,80,0|0,0:0|0:0,0:0:0:0:
316,36,4739,1,0,0:0:0:0:
220,20,4933,1,0,0:0:0:0:
324,140,5126,5,2,0:0:0:0:
368,208,5513,1,2,0:0:0:0:
448,192,5900,1,2,0:0:0:0:
456,108,6094,1,0,0:0:0:0:
456,108,6191,1,0,0:0:0:0:
456,108,6287,1,2,0:0:0:0:
376,76,6481,2,0,L|272:84,1,80,2|0,0:0|0:0,0:0:0:0:
192,48,6868,6,0,L|168:152,1,80,4|0,0:0|0:0,0:0:0:0:
160,204,7255,1,8,0:0:0:0:
208,268,7449,2,0,P|176:284|108:256,1,80,2|8,0:0|0:0,0:0:0:0:
72,212,7836,5,0,0:0:0:0:
160,204,8029,1,8,0:0:0:0:
208,268,8223,2,0,P|244:292|304:272,1,80,2|8,0:0|0:0,0:0:0:0:
348,236,8610,5,0,0:0:0:0:
268,200,8804,1,8,0:0:0:0:
208,268,8997,2,0,P|180:232|180:192,1,80,2|8,0:0|0:0,0:0:0:0:
188,184,9287,1,0,0:0:0:0:
196,168,9384,1,0,0:0:0:0:
204,156,9481,1,0,0:0:0:0:
212,144,9578,1,8,0:0:0:0:
296,76,9771,6,0,L|388:84,1,80,4|0,0:0|0:0,0:0:0:0:
488,180,10158,2,0,L|396:172,1,80,8|8,0:0|0:0,0:0:0:0:
320,168,10545,2,0,P|276:184|244:224,1,80,8|8,0:0|0:0,0:0:0:0:
264,296,10933,2,0,P|308:280|340:240,1,80,8|8,0:0|0:0,0:0:0:0:
320,168,11320,5,4,0:0:0:0:
320,144,11707,1,4,0:0:0:0:
320,120,12094,1,4,0:0:0:0:
320,96,12481,1,4,0:0:0:0:
320,96,12674,1,4,0:0:0:0:
176,52,13062,6,0,P|108:72|96:176,1,160,12|8,0:0|0:0,0:0:0:0:
143,212,13642,2,0,P|166:179|172:140,1,80,2|8,0:0|0:0,0:0:0:0:
200,279,14029,2,0,P|177:312|172:352,1,80,2|8,0:0|0:0,0:0:0:0:
144,211,14416,6,0,P|111:188|72:184,1,80,0|8,0:0|0:0,0:0:0:0:
199,279,14804,2,0,P|232:302|272:308,1,80,0|8,0:0|0:0,0:0:0:0:
144,212,15191,2,0,L|148:116,1,80,2|8,0:0|0:0,0:0:0:0:
152,28,15578,1,2,0:0:0:0:
244,88,15771,2,0,P|300:112|360:96,1,120,10|0,0:0|0:0,0:0:0:0:
372,76,16158,6,0,L|368:184,1,80,12|0,0:0|0:0,0:0:0:0:
420,228,16545,2,0,P|376:240|324:224,1,80,8|2,0:0|0:0,0:0:0:0:
268,188,16933,1,8,0:0:0:0:
208,252,17126,6,0,L|220:336,1,80,2|8,0:0|0:0,0:0:0:0:
132,236,17513,2,0,L|144:320,1,80,0|8,0:0|0:0,0:0:0:0:
56,220,17900,2,0,L|68:304,1,80,0|8,0:0|0:0,0:0:0:0:
112,168,18287,2,0,L|100:84,1,80,0|8,0:0|0:0,0:0:0:0:
88,8,18674,1,2,0:0:0:0:
168,12,18868,2,0,P|220:12|260:36,1,80,10|0,0:0|0:0,0:0:0:0:
296,96,19255,6,0,P|336:168|424:164,1,160,12|8,0:0|0:0,0:0:0:0:
384,88,19836,1,2,0:0:0:0:
296,96,20029,1,8,0:0:0:0:
208,104,20223,6,0,P|164:88|144:32,1,80,2|8,0:0|0:0,0:0:0:0:
60,80,20610,2,0,P|44:124|-12:144,1,80,0|8,0:0|0:0,0:0:0:0:
40,228,20997,2,0,P|84:244|104:300,1,80,2|8,0:0|0:0,0:0:0:0:
180,236,21384,2,0,P|203:195|262:185,1,80,2|8,0:0|0:0,0:0:0:0:
320,172,21771,1,2,0:0:0:0:
404,144,21965,2,0,P|428:72|388:32,1,120,10|0,0:0|0:0,0:0:0:0:
380,28,22352,6,0,L|292:36,1,80,12|0,0:0|0:0,0:0:0:0:
232,92,22739,2,0,L|132:100,1,80,8|2,0:0|0:0,0:0:0:0:
96,164,23126,1,8,0:0:0:0:
144,240,23320,2,0,P|176:212|184:175,1,80,2|8,0:0|0:0,0:0:0:0:
152,100,23707,6,0,P|164:48|204:24,1,80,0|0,0:0|0:0,0:0:0:0:
272,24,24094,2,0,P|316:68|312:112,1,80,0|0,0:0|0:0,0:0:0:0:
284,164,24481,2,0,P|248:180|192:164,1,80,0|0,0:0|0:0,0:0:0:0:
236,92,24868,1,0,0:0:0:0:
236,92,25062,1,0,0:0:0:0:
236,92,25449,6,0,L|240:216,1,120.000004577637,4|10,0:0|0:0,0:0:0:0:
248,288,26029,1,0,0:0:0:0:
312,236,26223,2,0,L|388:248,1,60.0000022888184,8|0,0:0|0:0,0:0:0:0:
484,192,26610,2,0,L|408:180,1,60.0000022888184,10|0,0:0|0:0,0:0:0:0:
324,152,26997,6,0,P|260:164|232:224,1,120.000004577637,8|2,0:0|0:0,0:0:0:0:
248,288,27578,1,0,0:0:0:0:
312,236,27771,2,0,P|368:232|408:172,1,120.000004577637,8|2,0:0|0:0,0:0:0:0:
408,108,28352,1,0,0:0:0:0:
408,108,28449,1,0,0:0:0:0:
408,108,28545,6,0,P|360:68|288:76,1,120.000004577637,12|10,0:0|0:0,0:0:0:0:
240,112,29126,1,0,0:0:0:0:
176,160,29320,2,0,P|112:168|64:128,1,120.000004577637,8|10,0:0|0:0,0:0:0:0:
64,64,29900,1,0,0:0:0:0:
240,112,30094,6,0,P|256:160|224:224,1,120.000004577637,8|10,0:0|0:0,0:0:0:0:
148,232,30674,1,0,0:0:0:0:
176,160,30868,2,0,P|240:144|296:180,1,120.000004577637,8|10,0:0|0:0,0:0:0:0:
316,240,31449,1,2,0:0:0:0:
352,116,31642,6,0,L|368:48,2,60.0000022888184,4|0|10,0:0|0:0|0:0,0:0:0:0:
280,160,32223,1,0,0:0:0:0:
280,80,32416,2,0,P|224:104|200:176,1,120.000004577637,8|10,0:0|0:0,0:0:0:0:
240,224,32997,1,0,0:0:0:0:
240,224,33094,1,0,0:0:0:0:
240,224,33191,6,0,P|208:272|144:284,1,120.000004577637,8|10,0:0|0:0,0:0:0:0:
96,240,33771,1,0,0:0:0:0:
160,200,33965,2,0,L|176:128,1,60.0000022888184,8|0,0:0|0:0,0:0:0:0:
240,104,34352,2,0,L|252:40,1,60.0000022888184,10|0,0:0|0:0,0:0:0:0:
344,72,34739,6,0,P|396:92|444:80,2,90.0000034332277,12|0|0,0:0|0:0|0:0,0:0:0:0:
288,124,35513,2,0,P|328:160|384:172,2,90.0000034332277,8|0|0,0:0|0:0|0:0,0:0:0:0:
212,128,36287,2,0,P|228:180|272:216,2,90.0000034332277,4|0|0,0:0|0:0|0:0,0:0:0:0:
228,52,37062,2,0,P|164:60|128:120,1,120.000004577637,0|2,0:0|0:0,0:0:0:0:
131,101,37836,6,0,L|148:272,1,160,4|10,0:0|0:0,0:0:0:0:
156,340,38416,1,0,0:0:0:0:
220,288,38610,2,0,P|280:240|368:260,1,160,8|10,0:0|0:0,0:0:0:0:
396,324,39191,1,0,0:0:0:0:
440,256,39384,6,0,L|472:176,2,80,8|0|10,0:0|0:0|0:0,0:0:0:0:
396,324,39965,1,0,0:0:0:0:
356,256,40158,2,0,P|308:200|220:200,1,160,8|10,0:0|0:0,0:0:0:0:
156,236,40739,1,2,0:0:0:0:
156,156,40933,6,0,P|200:120|296:156,1,160,12|10,0:0|0:0,0:0:0:0:
312,224,41513,1,0,0:0:0:0:
368,280,41707,2,0,P|448:280|488:192,1,160,8|10,0:0|0:0,0:0:0:0:
484,140,42287,1,0,0:0:0:0:
444,75,42481,6,0,P|371:51|312:100,1,160,8|10,0:0|0:0,0:0:0:0:
316,176,43062,1,0,0:0:0:0:
388,208,43255,2,0,P|398:170|386:133,1,80,8|0,0:0|0:0,0:0:0:0:
312,100,43642,1,10,0:0:0:0:
316,176,43836,1,2,0:0:0:0:
324,252,44029,6,0,L|332:360,2,80,12|0|8,0:0|0:0|0:0,0:0:0:0:
316,176,44610,1,0,0:0:0:0:
252,132,44804,2,0,P|208:128|164:148,1,80,8|0,0:0|0:0,0:0:0:0:
136,208,45191,2,0,P|98:220|58:216,1,80,10|0,0:0|0:0,0:0:0:0:
92,136,45578,6,0,B|112:92|80:52|80:52|112:68|160:56,1,160,8|10,0:0|0:0,0:0:0:0:
180,132,46158,1,0,0:0:0:0:
260,136,46352,2,0,P|252:96|220:68,1,80,8|0,0:0|0:0,0:0:0:0:
148,60,46739,1,10,0:0:0:0:
180,132,46933,1,0,0:0:0:0:
208,208,47126,6,0,P|284:224|340:168,1,160,12|10,0:0|0:0,0:0:0:0:
260,136,47707,1,0,0:0:0:0:
208,208,47900,2,0,P|156:265|176:342,1,160,12|10,0:0|0:0,0:0:0:0:
244,288,48481,1,0,0:0:0:0:
208,208,48674,2,0,P|183:134|107:113,1,160,12|10,0:0|0:0,0:0:0:0:
120,204,49255,1,0,0:0:0:0:
120,204,49449,1,12,0:0:0:0:
148,98,50223,5,12,0:0:0:0:
156,176,50610,1,10,0:0:0:0:
236,192,50997,1,8,0:0:0:0:
276,124,51384,1,10,0:0:0:0:
220,64,51771,1,8,0:0:0:0:
148,96,52158,6,0,P|112:112|48:104,1,80,10|0,0:0|0:0,0:0:0:0:
32,192,52545,2,0,L|80:216,3,40,8|2|0|0,0:0|0:0|0:0|0:0,0:0:0:0:
56,252,52933,2,0,L|112:272,3,40,10|0|0|0,0:0|0:0|0:0|0:0,0:0:0:0:
80,308,53320,6,0,L|240:352,1,160,12|10,0:0|0:0,0:0:0:0:
344,208,54094,2,0,P|312:144|360:72,1,160,8|10,0:0|0:0,0:0:0:0:
392,144,54674,1,0,0:0:0:0:
432,72,54868,2,0,P|408:16|304:16,1,160,8|10,0:0|0:0,0:0:0:0:
248,48,55449,1,0,0:0:0:0:
192,104,55642,2,0,L|184:164,3,40,8|2|0|0,0:0|0:0|0:0|0:0,0:0:0:0:
152,160,56029,2,0,L|156:224,3,40,2|0|0|0,0:0|0:0|0:0|0:0,0:0:0:0:
120,216,56416,6,0,B|144:268|112:316|112:316|140:292|192:300,1,160,12|10,0:0|0:0,0:0:0:0:
292,240,57191,2,0,P|368:272|384:360,1,160,8|10,0:0|0:0,0:0:0:0:
296,336,57771,1,0,0:0:0:0:
292,240,57965,2,0,L|280:80,1,160,12|14,0:0|0:0,0:0:0:0:
216,24,58545,1,0,0:0:0:0:
128,24,58739,2,0,B|128:64|156:100|204:108|204:108|208:160,1,160,12|10,0:0|0:0,0:0:0:0:
204,232,59320,1,0,0:0:0:0:
292,240,59513,6,0,P|372:252|420:312,1,160,12|10,0:0|0:0,0:0:0:0:
419,310,60094,1,0,0:0:0:0:
464,216,60287,2,0,L|468:160,3,40,8|8|8|8,0:0|0:0|0:0|0:0,0:0:0:0:
416,160,60674,2,0,L|416:112,3,40,8|8|8|8,0:0|0:0|0:0|0:0,0:0:0:0:
452,104,61062,2,0,L|456:8,2,90.0000034332277,6|2|2,0:0|0:0|0:0,0:0:0:0:
316,64,62610,6,0,L|336:152,1,88.000002685547,12|0,0:0|0:0,0:0:0:0:
352,228,62997,1,10,0:0:0:0:
352,228,63191,1,0,0:0:0:0:
248,146,63384,2,0,L|268:232,1,88.000002685547,8|0,0:0|0:0,0:0:0:0:
316,296,63771,5,10,0:0:0:0:
352,228,63965,1,0,0:0:0:0:
396,292,64158,1,12,0:0:0:0:
364,364,64352,1,0,0:0:0:0:
284,368,64545,1,14,0:0:0:0:
236,304,64739,1,0,0:0:0:0:
268,232,64933,1,8,0:0:0:0:
316,296,65320,1,10,0:0:0:0:
316,296,65513,1,8,0:0:0:0:
316,296,65707,6,0,P|348:236|280:156,1,176.000005371094,12|10,0:0|0:0,0:0:0:0:
212,172,66287,1,0,0:0:0:0:
268,232,66481,2,0,P|192:252|128:168,1,176.000005371094,8|2,0:0|0:0,0:0:0:0:
144,108,67062,1,0,0:0:0:0:
196,48,67255,6,0,L|284:44,1,88.000002685547,12|0,0:0|0:0,0:0:0:0:
344,116,67642,2,0,L|256:120,1,88.000002685547,14|0,0:0|0:0,0:0:0:0:
316,192,68029,2,0,L|404:188,1,88.000002685547,8|0,0:0|0:0,0:0:0:0:
484,184,68416,1,12,0:0:0:0:
484,184,68610,1,8,0:0:0:0:
484,184,68804,6,0,L|472:304,1,88.000002685547,4|0,0:0|0:0,0:0:0:0:
400,212,69191,1,10,0:0:0:0:
400,212,69385,1,0,0:0:0:0:
400,212,69579,2,0,L|388:332,1,88.000002685547,8|0,0:0|0:0,0:0:0:0:
316,272,69965,6,0,P|264:292|212:276,1,88.000002685547,10|0,0:0|0:0,0:0:0:0:
108,236,70352,2,0,P|160:216|212:232,1,88.000002685547,12|0,0:0|0:0,0:0:0:0:
160,296,70739,1,14,0:0:0:0:
108,236,70933,1,0,0:0:0:0:
120,156,71126,1,8,0:0:0:0:
128,84,71513,5,10,0:0:0:0:
128,84,71707,1,8,0:0:0:0:
128,84,71900,2,0,P|96:40|8:40,2,132.00000402832,12|0|0,0:0|0:0|0:0,0:0:0:0:
188,128,72674,1,8,0:0:0:0:
256,192,73062,12,0,74223,0:0:0:0:
220,128,74610,5,8,0:0:0:0:
288,164,74804,1,8,0:0:0:0:
224,208,74997,6,0,P|160:184|156:80,1,176.000005371094,12|10,0:0|0:0,0:0:0:0:
220,128,75578,1,0,0:0:0:0:
288,164,75771,2,0,P|300:232|204:284,1,176.000005371094,8|10,0:0|0:0,0:0:0:0:
224,208,76352,5,0,0:0:0:0:
220,128,76545,1,12,0:0:0:0:
288,164,76739,1,0,0:0:0:0:
308,88,76933,1,14,0:0:0:0:
360,148,77126,1,0,0:0:0:0:
400,80,77320,2,0,P|372:20|268:4,1,176.000005371094,8|10,0:0|0:0,0:0:0:0:
212,56,77900,1,0,0:0:0:0:
212,56,78094,6,0,L|216:184,1,88.000002685547,12|0,0:0|0:0,0:0:0:0:
284,184,78481,2,0,L|268:296,1,88.000002685547,10|0,0:0|0:0,0:0:0:0:
208,320,78868,2,0,P|128:340|64:260,1,176.000005371094,8|10,0:0|0:0,0:0:0:0:
92,204,79449,5,0,0:0:0:0:
152,256,79642,1,12,0:0:0:0:
228,240,79836,1,0,0:0:0:0:
280,180,80029,1,14,0:0:0:0:
356,156,80223,1,0,0:0:0:0:
420,204,80416,1,8,0:0:0:0:
420,204,80804,5,10,0:0:0:0:
420,204,80997,1,8,0:0:0:0:
420,204,81191,2,0,P|436:136|352:76,1,176.000005371094,4|10,0:0|0:0,0:0:0:0:
296,120,81771,1,0,0:0:0:0:
224,152,81965,2,0,L|124:144,1,88.000002685547,8|0,0:0|0:0,0:0:0:0:
64,108,82352,6,0,P|28:72|24:28,1,88.000002685547,10|0,0:0|0:0,0:0:0:0:
68,184,82739,2,0,P|54:233|18:258,1,88.000002685547,12|0,0:0|0:0,0:0:0:0:
136,144,83126,2,0,P|185:130|225:149,1,88.000002685547,14|0,0:0|0:0,0:0:0:0:
264,208,83513,1,8,0:0:0:0:
368,88,83900,5,10,0:0:0:0:
428,140,84094,1,8,0:0:0:0:
448,64,84287,2,0,P|416:20|340:8,2,132.00000402832,4|0|0,0:0|0:0|0:0,0:0:0:0:
428,140,85062,1,8,0:0:0:0:
256,192,85449,12,8,86997,0:0:0:0:
256,192,87191,5,8,0:0:0:0:
200,240,87384,2,0,P|144:260|72:228,2,120,12|0|0,0:0|0:0|0:0,0:0:0:0:
256,192,88158,2,0,P|312:172|384:204,2,120,12|0|0,0:0|0:0|0:0,0:0:0:0:
200,240,88933,1,8,0:0:0:0:
256,192,89029,12,4,90481,0:0:0:0:
296,80,102868,6,0,L|376:88,1,60.0000022888184,12|0,0:0|0:0,0:0:0:0:
399,169,103255,2,0,L|340:164,1,60.0000022888184,8|0,0:0|0:0,0:0:0:0:
260,160,103642,1,8,0:0:0:0:
184,232,104029,1,8,0:0:0:0:
184,232,104223,1,0,0:0:0:0:
184,232,104416,6,0,L|180:308,1,60.0000022888184,8|0,0:0|0:0,0:0:0:0:
100,324,104804,2,0,L|104:248,1,60.0000022888184,8|0,0:0|0:0,0:0:0:0:
108,188,105191,1,8,0:0:0:0:
248,120,105578,1,8,0:0:0:0:
248,120,105771,1,8,0:0:0:0:
248,120,105965,6,0,P|292:96|304:68,1,60.0000022888184,12|0,0:0|0:0,0:0:0:0:
280,12,106352,2,0,P|236:36|224:64,1,60.0000022888184,8|0,0:0|0:0,0:0:0:0:
248,120,106739,1,8,0:0:0:0:
356,232,107126,1,8,0:0:0:0:
356,232,107320,1,0,0:0:0:0:
356,232,107513,6,0,L|344:300,1,60.0000022888184,8|0,0:0|0:0,0:0:0:0:
260,328,107900,2,0,L|272:260,1,60.0000022888184,8|0,0:0|0:0,0:0:0:0:
284,192,108287,1,8,0:0:0:0:
172,84,108674,1,8,0:0:0:0:
172,84,108868,1,8,0:0:0:0:
172,84,109062,6,0,P|136:92|112:112,1,60.0000022888184,12|0,0:0|0:0,0:0:0:0:
136,180,109449,2,0,P|104:208|92:240,1,60.0000022888184,8|0,0:0|0:0,0:0:0:0:
120,296,109836,1,8,0:0:0:0:
232,188,110223,1,8,0:0:0:0:
232,188,110416,1,0,0:0:0:0:
232,188,110610,6,0,P|228:156|204:120,1,60.0000022888184,8|0,0:0|0:0,0:0:0:0:
216,56,110997,2,0,P|192:36|160:28,1,60.0000022888184,8|0,0:0|0:0,0:0:0:0:
92,4,111384,1,8,0:0:0:0:
152,148,111771,1,8,0:0:0:0:
152,148,111965,1,8,0:0:0:0:
232,188,112158,5,8,0:0:0:0:
232,188,112933,1,8,0:0:0:0:
232,188,113513,1,8,0:0:0:0:
232,188,113707,6,0,P|280:196|336:176,2,90.0000034332277,12|0|0,0:0|0:0|0:0,0:0:0:0:
168,140,114481,2,0,L|140:104,2,30.0000011444092,8|2|0,0:0|0:0|0:0,0:0:0:0:
160,216,114868,1,10,0:0:0:0:
220,268,115062,1,8,0:0:0:0:
296,244,115255,6,0,P|364:236|412:320,1,160,12|10,0:0|0:0,0:0:0:0:
336,312,115836,1,0,0:0:0:0:
296,244,116029,2,0,L|296:144,1,80,8|0,0:0|0:0,0:0:0:0:
232,116,116416,2,0,P|280:84|312:88,1,80,10|0,0:0|0:0,0:0:0:0:
232,116,116804,6,0,L|72:124,1,160,8|10,0:0|0:0,0:0:0:0:
72,123,117384,1,0,0:0:0:0:
72,44,117578,2,0,P|136:72|140:164,1,160,8|10,0:0|0:0,0:0:0:0:
80,204,118158,1,8,0:0:0:0:
72,124,118352,6,0,L|76:285,1,160,12|10,0:0|0:0,0:0:0:0:
80,364,118933,1,0,0:0:0:0:
148,320,119126,2,0,P|192:256|280:276,1,160,8|10,0:0|0:0,0:0:0:0:
224,328,119707,1,0,0:0:0:0:
148,320,119900,6,0,L|144:224,1,80,8|0,0:0|0:0,0:0:0:0:
72,208,120287,2,0,L|112:128,1,80,10|0,0:0|0:0,0:0:0:0:
64,68,120674,1,8,0:0:0:0:
64,68,120771,1,2,0:0:0:0:
64,68,120868,1,0,0:0:0:0:
144,64,121062,2,0,P|192:76|244:48,1,80,10|8,0:0|0:0,0:0:0:0:
288,24,121449,6,0,P|364:16|420:92,1,160,4|10,0:0|0:0,0:0:0:0:
456,144,122029,1,0,0:0:0:0:
456,144,122223,2,0,L|440:240,1,80,8|0,0:0|0:0,0:0:0:0:
364,228,122610,2,0,L|336:316,1,80,10|0,0:0|0:0,0:0:0:0:
268,272,122997,6,0,P|204:316|120:280,1,160,8|10,0:0|0:0,0:0:0:0:
108,216,123578,1,0,0:0:0:0:
132,292,123771,1,8,0:0:0:0:
192,236,123965,1,0,0:0:0:0:
164,160,124158,1,10,0:0:0:0:
164,160,124352,1,8,0:0:0:0:
88,144,124545,6,0,P|44:176|68:280,1,160,12|10,0:0|0:0,0:0:0:0:
132,292,125126,1,0,0:0:0:0:
192,236,125320,2,0,P|260:216|348:252,1,160,12|10,0:0|0:0,0:0:0:0:
376,316,125900,1,0,0:0:0:0:
456,296,126094,2,0,P|500:228|480:144,1,160,12|10,0:0|0:0,0:0:0:0:
436,92,126674,1,0,0:0:0:0:
356,88,126868,1,12,0:0:0:0:
152,96,127642,6,0,L|168:200,1,80,12|0,0:0|0:0,0:0:0:0:
176,256,128029,1,10,0:0:0:0:
324,196,128416,2,0,B|384:180|384:180|424:192|472:184,2,120,8|0|0,0:0|0:0|0:0,0:0:0:0:
256,152,129191,2,0,B|196:168|196:168|156:156|108:164,2,120,8|0|0,0:0|0:0|0:0,0:0:0:0:
324,196,129965,2,0,L|320:252,2,40,8|2|0,0:0|0:0|0:0,0:0:0:0:
324,116,130352,2,0,P|296:88|240:84,1,80,10|0,0:0|0:0,0:0:0:0:
164,116,130739,6,0,P|136:164|24:184,1,160,12|10,0:0|0:0,0:0:0:0:
164,116,131513,2,0,L|260:144,1,80,8|0,0:0|0:0,0:0:0:0:
320,156,131900,1,10,0:0:0:0:
396,128,132094,1,0,0:0:0:0:
404,48,132287,6,0,P|364:52|328:88,1,80,8|0,0:0|0:0,0:0:0:0:
320,156,132674,2,0,L|316:248,1,80,10|0,0:0|0:0,0:0:0:0:
312,316,133062,2,0,L|312:356,2,40,8|2|0,0:0|0:0|0:0,0:0:0:0:
244,272,133449,2,0,P|208:244|152:240,1,80,10|8,0:0|0:0,0:0:0:0:
96,300,133836,6,0,L|84:132,1,160,12|10,0:0|0:0,0:0:0:0:
244,112,134610,2,0,P|320:116|364:40,1,160,8|10,0:0|0:0,0:0:0:0:
284,40,135191,1,0,0:0:0:0:
204,44,135384,2,0,P|164:104|204:184,1,160,12|14,0:0|0:0,0:0:0:0:
276,188,135965,1,0,0:0:0:0:
344,148,136158,2,0,P|416:168|436:252,1,160,12|10,0:0|0:0,0:0:0:0:
392,308,136739,1,0,0:0:0:0:
316,284,136933,6,0,L|152:304,1,160,12|10,0:0|0:0,0:0:0:0:
96,252,137513,1,0,0:0:0:0:
96,172,137707,2,0,L|128:136,3,40,8|8|8|8,0:0|0:0|0:0|0:0,0:0:0:0:
112,104,138094,2,0,L|152:84,3,40,8|8|8|8,0:0|0:0|0:0|0:0,0:0:0:0:
144,48,138481,2,0,L|276:48,2,120,10|2|2,0:0|0:0|0:0,0:0:0:0:
196,320,139642,1,8,0:0:0:0:
196,320,139836,1,8,0:0:0:0:
196,320,140029,6,0,L|176:232,1,88.000002685547,12|0,0:0|0:0,0:0:0:0:
160,156,140416,1,10,0:0:0:0:
160,156,140610,1,0,0:0:0:0:
264,236,140803,2,0,L|244:148,1,88.000002685547,8|0,0:0|0:0,0:0:0:0:
196,88,141190,5,10,0:0:0:0:
160,156,141384,1,0,0:0:0:0:
116,92,141577,1,12,0:0:0:0:
148,20,141771,1,0,0:0:0:0:
228,16,141964,1,14,0:0:0:0:
276,80,142158,1,0,0:0:0:0:
244,152,142352,1,8,0:0:0:0:
196,88,142739,1,10,0:0:0:0:
196,88,142932,1,8,0:0:0:0:
196,88,143126,6,0,P|164:148|228:232,1,176.000005371094,12|10,0:0|0:0,0:0:0:0:
300,212,143706,1,0,0:0:0:0:
244,152,143900,2,0,P|320:132|384:216,1,176.000005371094,8|2,0:0|0:0,0:0:0:0:
368,276,144481,1,0,0:0:0:0:
316,336,144674,6,0,L|228:340,1,88.000002685547,12|0,0:0|0:0,0:0:0:0:
168,268,145061,2,0,L|256:264,1,88.000002685547,14|0,0:0|0:0,0:0:0:0:
196,192,145448,2,0,L|108:196,1,88.000002685547,8|0,0:0|0:0,0:0:0:0:
28,200,145835,1,8,0:0:0:0:
28,200,146029,1,8,0:0:0:0:
28,200,146223,6,0,L|40:80,1,88.000002685547,4|0,0:0|0:0,0:0:0:0:
112,172,146610,1,10,0:0:0:0:
112,172,146804,1,0,0:0:0:0:
112,172,146998,2,0,L|124:52,1,88.000002685547,8|0,0:0|0:0,0:0:0:0:
196,112,147384,6,0,P|248:92|300:108,1,88.000002685547,10|0,0:0|0:0,0:0:0:0:
404,148,147771,2,0,P|352:168|300:152,1,88.000002685547,12|0,0:0|0:0,0:0:0:0:
352,88,148158,1,14,0:0:0:0:
404,148,148352,1,0,0:0:0:0:
392,228,148545,1,8,0:0:0:0:
384,300,148933,5,10,0:0:0:0:
384,300,149126,1,8,0:0:0:0:
384,300,149319,2,0,P|416:344|504:344,2,132.00000402832,12|0|0,0:0|0:0|0:0,0:0:0:0:
324,256,150093,1,8,0:0:0:0:
256,192,150481,12,0,151642,0:0:0:0:
292,256,152029,5,8,0:0:0:0:
224,220,152223,1,8,0:0:0:0:
288,176,152416,6,0,P|352:200|356:304,1,176.000005371094,12|10,0:0|0:0,0:0:0:0:
292,256,152997,1,0,0:0:0:0:
224,220,153190,2,0,P|212:152|308:100,1,176.000005371094,8|10,0:0|0:0,0:0:0:0:
288,176,153771,5,0,0:0:0:0:
292,256,153964,1,12,0:0:0:0:
224,220,154158,1,0,0:0:0:0:
204,296,154352,1,14,0:0:0:0:
152,236,154545,1,0,0:0:0:0:
116,308,154739,2,0,P|164:376|256:368,1,176.000005371094,8|10,0:0|0:0,0:0:0:0:
312,328,155319,1,0,0:0:0:0:
312,328,155513,6,0,L|308:200,1,88.000002685547,12|0,0:0|0:0,0:0:0:0:
240,200,155900,2,0,L|256:88,1,88.000002685547,10|0,0:0|0:0,0:0:0:0:
308,56,156287,2,0,P|388:40|452:116,1,176.000005371094,8|10,0:0|0:0,0:0:0:0:
420,180,156868,5,0,0:0:0:0:
360,128,157061,1,12,0:0:0:0:
284,144,157255,1,0,0:0:0:0:
232,204,157448,1,14,0:0:0:0:
156,228,157642,1,0,0:0:0:0:
92,180,157835,1,8,0:0:0:0:
92,180,158223,5,10,0:0:0:0:
92,180,158416,1,8,0:0:0:0:
92,180,158610,2,0,P|76:248|160:308,1,176.000005371094,4|10,0:0|0:0,0:0:0:0:
216,264,159190,1,0,0:0:0:0:
288,232,159384,2,0,L|388:240,1,88.000002685547,8|0,0:0|0:0,0:0:0:0:
448,276,159771,6,0,P|484:312|488:356,1,88.000002685547,10|0,0:0|0:0,0:0:0:0:
444,200,160158,2,0,P|458:151|494:126,1,88.000002685547,12|0,0:0|0:0,0:0:0:0:
376,240,160545,2,0,P|327:254|287:235,1,88.000002685547,14|0,0:0|0:0,0:0:0:0:
248,176,160932,1,8,0:0:0:0:
144,296,161319,5,10,0:0:0:0:
84,244,161513,1,8,0:0:0:0:
64,320,161706,2,0,P|100:368|176:372,2,132.00000402832,4|0|0,0:0|0:0|0:0,0:0:0:0:
84,244,162481,1,8,0:0:0:0:
256,192,162868,12,8,164416,0:0:0:0:
256,192,164610,5,8,0:0:0:0:
312,144,164803,2,0,P|368:124|440:156,2,120,12|0|0,0:0|0:0|0:0,0:0:0:0:
256,192,165577,2,0,P|200:212|128:180,2,120,12|0|0,0:0|0:0|0:0,0:0:0:0:
312,144,166352,1,12,0:0:0:0:
256,192,166449,12,0,167513,0:0:0:0:
140,136,167900,6,0,L|116:64,3,60.0000022888184,12|0|8|0,0:0|0:0|0:0|0:0,0:0:0:0:
228,132,168868,2,0,L|204:60,2,60.0000022888184,0|8|0,0:0|0:0|0:0,0:0:0:0:
312,128,169642,2,0,L|288:56,2,60.0000022888184,0|8|0,0:0|0:0|0:0,0:0:0:0:
392,128,170416,2,0,L|368:56,2,60.0000022888184,0|8|0,0:0|0:0|0:0,0:0:0:0:
352,248,171191,2,0,L|376:320,2,60.0000022888184,0|8|0,0:0|0:0|0:0,0:0:0:0:
296,204,171771,1,8,0:0:0:0:
224,212,171965,1,0,0:0:0:0:
196,280,172158,1,8,0:0:0:0:
268,276,172352,6,0,B|284:340|284:340|332:376,2,120.000004577637,0|0|0,0:0|0:0|0:0,0:0:0:0:
220,208,173320,1,8,0:0:0:0:
220,208,173416,1,0,0:0:0:0:
220,208,173513,1,0,0:0:0:0:
184,276,173707,2,0,P|140:288|96:268,1,90.0000034332277,12|0,0:0|0:0,0:0:0:0:
80,240,174094,5,12,0:0:0:0:
140,176,174287,1,0,0:0:0:0:
220,208,174481,1,8,0:0:0:0:
220,208,174674,2,0,L|332:200,1,80,0|8,0:0|0:0,0:0:0:0:
208,124,175062,5,0,0:0:0:0:
140,176,175255,1,8,0:0:0:0:
228,216,175449,2,0,L|332:208,1,80,0|8,0:0|0:0,0:0:0:0:
140,176,175836,5,0,0:0:0:0:
144,264,176029,1,8,0:0:0:0:
236,224,176223,2,0,L|340:216,1,80,0|8,0:0|0:0,0:0:0:0:
388,196,176610,1,0,0:0:0:0:
388,196,176804,1,8,0:0:0:0:
388,196,176997,2,0,L|376:288,1,80,4|8,0:0|0:0,0:0:0:0:
304,164,177384,5,0,0:0:0:0:
304,164,177578,1,8,0:0:0:0:
304,164,177771,2,0,L|316:72,1,80,0|8,0:0|0:0,0:0:0:0:
220,204,178158,1,8,0:0:0:0:
304,164,178352,1,8,0:0:0:0:
388,192,178545,5,10,0:0:0:0:
464,168,178933,1,2,0:0:0:0:
496,96,179320,1,2,0:0:0:0:
472,20,179707,1,2,0:0:0:0:
472,20,179900,1,6,0:0:0:0:
108,168,186481,5,4,0:0:0:0:
164,100,186674,2,0,P|208:80|276:92,1,88.000002685547,0|10,0:0|0:0,0:0:0:0:
320,132,187062,1,0,0:0:0:0:
400,168,187255,2,0,P|448:156|484:108,1,88.000002685547,8|0,0:0|0:0,0:0:0:0:
476,40,187642,1,10,0:0:0:0:
392,12,187836,1,0,0:0:0:0:
400,168,188029,6,0,P|360:212|284:212,1,132.00000402832,8|0,0:0|0:0,0:0:0:0:
252,192,188416,2,0,P|208:204|172:236,1,88.000002685547,10|0,0:0|0:0,0:0:0:0:
120,352,188804,2,0,L|84:200,1,132.00000402832,8|0,0:0|0:0,0:0:0:0:
60,192,189191,2,0,P|104:160|128:104,1,88.000002685547,10|0,0:0|0:0,0:0:0:0:
120,44,189578,1,12,0:0:0:0:
256,152,189965,6,0,L|316:164,3,44.0000013427735,10|0|0|0,0:0|0:0|0:0|0:0,0:0:0:0:
340,100,190352,6,0,L|408:92,3,44.0000013427735,8|8|8|8,0:0|0:0|0:0|0:0,0:0:0:0:
412,168,190739,6,0,L|460:184,3,44.0000013427735,10|8|8|8,0:0|0:0|0:0|0:0,0:0:0:0:
504,116,191126,6,0,B|513:25|513:25|480:56,2,132.00000402832,10|2|10,0:0|0:0|0:0,0:0:0:0:
504,116,192287,6,0,L|492:200,1,80,8|8,0:0|0:0,0:0:0:0:
120,112,198868,5,12,0:0:0:0:
164,180,199255,1,0,0:0:0:0:
240,160,199642,1,8,0:0:0:0:
244,80,200029,1,0,0:0:0:0:
172,48,200416,5,8,0:0:0:0:
184,88,200610,1,0,0:0:0:0:
196,128,200804,1,0,0:0:0:0:
208,164,200997,1,0,0:0:0:0:
220,204,201191,1,8,0:0:0:0:
144,88,201771,5,0,0:0:0:0:
144,88,201965,2,0,L|124:152,2,60,12|0|0,0:0|0:0|0:0,0:0:0:0:
212,68,202739,2,0,P|292:56|368:96,1,160,8|8,0:0|0:0,0:0:0:0:
400,140,204674,1,8,0:0:0:0:
400,140,204867,1,8,0:0:0:0:
400,140,205062,6,0,L|392:220,1,60.0000022888184,12|0,0:0|0:0,0:0:0:0:
304,256,205449,1,10,0:0:0:0:
304,256,205642,1,0,0:0:0:0:
304,256,205837,2,0,L|312:176,1,60.0000022888184,8|0,0:0|0:0,0:0:0:0:
320,100,206223,6,0,P|284:100|248:124,1,60.0000022888184,10|0,0:0|0:0,0:0:0:0:
184,104,206610,2,0,P|152:124|136:156,1,60.0000022888184,12|0,0:0|0:0,0:0:0:0:
88,204,206997,2,0,P|84:244|100:280,1,60.0000022888184,14|0,0:0|0:0,0:0:0:0:
164,232,207384,2,0,L|296:252,1,120.000004577637,8|10,0:0|0:0,0:0:0:0:
282,249,207965,1,8,0:0:0:0:
282,249,208158,6,0,P|316:208|388:204,1,120.000004577637,12|10,0:0|0:0,0:0:0:0:
356,276,208739,1,0,0:0:0:0:
296,324,208933,2,0,P|232:308|204:248,1,120.000004577637,8|10,0:0|0:0,0:0:0:0:
152,328,209513,1,0,0:0:0:0:
84,280,209707,5,12,0:0:0:0:
84,280,209900,1,0,0:0:0:0:
116,208,210094,1,14,0:0:0:0:
116,208,210287,1,0,0:0:0:0:
72,144,210481,2,0,P|104:92|88:32,1,120.000004577637,8|14,0:0|0:0,0:0:0:0:
91,37,211062,1,8,0:0:0:0:
164,104,211255,6,0,P|220:120|300:88,1,120.000004577637,12|10,0:0|0:0,0:0:0:0:
344,64,211836,1,0,0:0:0:0:
348,140,212029,2,0,L|352:264,1,120.000004577637,8|10,0:0|0:0,0:0:0:0:
356,340,212610,1,0,0:0:0:0:
260,280,212804,5,12,0:0:0:0:
184,260,212997,1,0,0:0:0:0:
136,324,213191,1,14,0:0:0:0:
260,280,213384,1,0,0:0:0:0:
184,260,213578,2,0,P|136:244|72:276,1,120.000004577637,8|10,0:0|0:0,0:0:0:0:
60,348,214158,1,8,0:0:0:0:
204,336,214352,6,0,P|244:316|264:260,2,90.0000034332277,12|0|0,0:0|0:0|0:0,0:0:0:0:
184,260,215126,2,0,P|212:216|336:240,1,180.000006866455,8|0,0:0|0:0,0:0:0:0:
344,308,215900,1,12,0:0:0:0:
416,336,216094,1,8,0:0:0:0:
476,288,216287,1,12,0:0:0:0:
476,276,216384,1,8,0:0:0:0:
476,264,216481,1,8,0:0:0:0:
476,252,216578,1,8,0:0:0:0:
476,240,216674,1,8,0:0:0:0:
476,232,217449,6,0,P|476:188|432:132,1,95.9999970703126,12|0,0:0|0:0,0:0:0:0:
372,136,217836,1,10,0:0:0:0:
372,136,218030,1,0,0:0:0:0:
309,175,218223,2,0,P|344:206|392:208,1,95.9999970703126,8|0,0:0|0:0,0:0:0:0:
372,136,218610,1,10,0:0:0:0:
300,104,218804,1,0,0:0:0:0:
224,72,218997,5,12,0:0:0:0:
220,168,219191,1,0,0:0:0:0:
300,104,219384,1,14,0:0:0:0:
312,8,219578,1,0,0:0:0:0:
372,136,219772,1,8,0:0:0:0:
464,120,220159,1,10,0:0:0:0:
464,120,220352,1,8,0:0:0:0:
464,120,220546,6,0,B|436:180|472:236|472:236|424:240|408:184,1,191.999994140625,12|10,0:0|0:0,0:0:0:0:
384,132,221126,1,0,0:0:0:0:
316,100,221320,2,0,B|284:136|228:120|228:120|184:76|132:88,1,191.999994140625,8|2,0:0|0:0,0:0:0:0:
68,112,221901,1,0,0:0:0:0:
100,184,222094,6,0,L|120:300,1,95.9999970703126,12|0,0:0|0:0,0:0:0:0:
188,252,222481,2,0,L|236:352,1,95.9999970703126,14|0,0:0|0:0,0:0:0:0:
296,300,222868,2,0,L|380:372,1,95.9999970703126,8|0,0:0|0:0,0:0:0:0:
444,344,223255,1,8,0:0:0:0:
444,344,223449,1,8,0:0:0:0:
444,344,223643,6,0,L|456:224,1,95.9999970703126,4|0,0:0|0:0,0:0:0:0:
384,212,224030,1,10,0:0:0:0:
384,212,224224,1,0,0:0:0:0:
384,212,224416,2,0,L|432:112,1,95.9999970703126,8|0,0:0|0:0,0:0:0:0:
344,80,224804,6,0,P|304:104|244:100,1,95.9999970703126,10|0,0:0|0:0,0:0:0:0:
124,64,225191,2,0,P|164:40|224:44,1,95.9999970703126,12|0,0:0|0:0,0:0:0:0:
256,104,225578,2,0,L|236:204,1,95.9999970703126,14|0,0:0|0:0,0:0:0:0:
260,272,225965,2,0,P|304:300|368:292,1,95.9999970703126,8|0,0:0|0:0,0:0:0:0:
416,268,226353,5,10,0:0:0:0:
416,268,226546,1,8,0:0:0:0:
416,268,226739,2,0,L|432:140,2,120,12|0|0,0:0|0:0|0:0,0:0:0:0:
348,312,227513,2,0,P|264:320|208:236,1,160,8|10,0:0|0:0,0:0:0:0:
220,192,228094,1,8,0:0:0:0:
232,112,228287,5,8,0:0:0:0:
232,112,228384,1,0,0:0:0:0:
232,112,228481,1,8,0:0:0:0:
232,112,228578,1,0,0:0:0:0:
232,112,228674,1,10,0:0:0:0:
164,72,228868,1,8,0:0:0:0:
88,92,229062,5,8,0:0:0:0:
84,108,229158,1,0,0:0:0:0:
80,124,229255,1,8,0:0:0:0:
76,140,229352,1,0,0:0:0:0:
72,156,229449,1,12,0:0:0:0:
48,232,229643,1,8,0:0:0:0:
164,216,229836,6,0,B|224:240|276:220|276:220|224:240|220:300,1,191.999994140625,12|10,0:0|0:0,0:0:0:0:
244,348,230417,1,0,0:0:0:0:
304,296,230610,2,0,P|344:260|300:144,1,191.999994140625,8|10,0:0|0:0,0:0:0:0:
228,160,231191,5,0,0:0:0:0:
272,224,231384,1,12,0:0:0:0:
348,216,231578,1,0,0:0:0:0:
376,144,231772,1,14,0:0:0:0:
336,80,231965,1,0,0:0:0:0:
260,84,232159,2,0,B|196:100|144:76|144:76|92:92|72:156,1,191.999994140625,8|10,0:0|0:0,0:0:0:0:
68,196,232739,1,0,0:0:0:0:
68,196,232933,6,0,L|88:308,1,95.9999970703126,12|0,0:0|0:0,0:0:0:0:
160,292,233320,2,0,L|216:208,1,95.9999970703126,10|0,0:0|0:0,0:0:0:0:
268,144,233707,2,0,P|348:124|424:208,1,191.999994140625,8|10,0:0|0:0,0:0:0:0:
432,272,234288,5,0,0:0:0:0:
364,304,234481,1,12,0:0:0:0:
352,228,234675,1,0,0:0:0:0:
276,228,234868,1,14,0:0:0:0:
300,156,235062,1,0,0:0:0:0:
232,120,235255,1,8,0:0:0:0:
232,120,235643,5,10,0:0:0:0:
232,120,235836,1,8,0:0:0:0:
232,120,236030,2,0,P|188:188|84:168,1,191.999994140625,4|10,0:0|0:0,0:0:0:0:
148,112,236610,1,0,0:0:0:0:
312,128,236804,2,0,L|408:136,1,95.9999970703126,8|0,0:0|0:0,0:0:0:0:
316,204,237191,6,0,P|352:240|356:292,1,95.9999970703126,10|0,0:0|0:0,0:0:0:0:
312,128,237578,2,0,P|326:79|368:52,1,95.9999970703126,12|0,0:0|0:0,0:0:0:0:
244,168,237965,2,0,P|195:182|152:160,1,95.9999970703126,14|0,0:0|0:0,0:0:0:0:
316,204,238352,1,8,0:0:0:0:
312,128,238739,5,10,0:0:0:0:
244,168,238933,1,8,0:0:0:0:
316,204,239126,2,0,L|396:312,2,120,4|0|0,0:0|0:0|0:0,0:0:0:0:
316,204,239901,1,8,0:0:0:0:
256,192,240288,12,8,241836,0:0:0:0:
256,192,242029,5,0,0:0:0:0:
256,192,242223,2,0,B|276:152|264:112|264:112|272:84|272:84|280:48,2,120,12|0|0,0:0|0:0|0:0,0:0:0:0:
256,192,242997,2,0,L|256:332,2,120,12|0|0,0:0|0:0|0:0,0:0:0:0:
344,260,243771,2,0,P|256:84|176:268,1,480,4|8,0:0|0:0,0:0:0:0:
172,264,245029,1,8,0:0:0:0:
180,272,245126,1,8,0:0:0:0:
188,280,245223,1,8,0:0:0:0:
196,288,245320,6,0,P|272:284|324:352,1,160,4|0,0:0|0:0,0:0:0:0:
388,296,245900,2,0,P|416:296|456:312,2,40,2|0|8,0:0|0:0|0:0,0:0:0:0:
348,224,246287,2,0,P|380:212|420:220,2,40,2|0|8,0:0|0:0|0:0,0:0:0:0:
280,180,246674,6,0,P|296:160|324:144,2,40,0|0|8,0:0|0:0|0:0,0:0:0:0:
200,180,247062,2,0,P|204:156|224:120,2,40,0|0|8,0:0|0:0|0:0,0:0:0:0:
128,212,247449,2,0,P|120:176|136:144,2,40,2|0|8,0:0|0:0|0:0,0:0:0:0:
192,260,247836,1,2,0:0:0:0:
200,180,248029,2,0,B|200:88|200:88|160:124,1,120,10|0,0:0|0:0,0:0:0:0:
168,120,248416,6,0,P|128:132|68:116,1,80,12|0,0:0|0:0,0:0:0:0:
40,52,248804,2,0,P|80:40|140:56,1,80,8|2,0:0|0:0,0:0:0:0:
168,120,249191,1,8,0:0:0:0:
232,184,249384,6,0,L|244:268,1,80,2|8,0:0|0:0,0:0:0:0:
272,132,249771,2,0,L|268:220,1,80,0|8,0:0|0:0,0:0:0:0:
332,104,250158,2,0,L|304:188,1,80,0|8,0:0|0:0,0:0:0:0:
396,108,250545,2,0,L|324:176,1,80,0|8,0:0|0:0,0:0:0:0:
440,144,250932,1,2,0:0:0:0:
332,104,251126,2,0,B|320:72|328:36|328:36|296:52|292:80,1,120,10|0,0:0|0:0,0:0:0:0:
292,92,251513,6,0,L|288:264,1,160,12|8,0:0|0:0,0:0:0:0:
288,332,252094,1,2,0:0:0:0:
360,296,252287,1,8,0:0:0:0:
224,288,252481,6,0,P|180:272|160:216,1,80,2|8,0:0|0:0,0:0:0:0:
212,108,252868,2,0,P|196:152|140:172,1,80,0|8,0:0|0:0,0:0:0:0:
28,124,253255,2,0,P|72:140|92:196,1,80,2|8,0:0|0:0,0:0:0:0:
32,296,253642,2,0,P|55:255|114:245,1,80,2|8,0:0|0:0,0:0:0:0:
164,232,254029,1,2,0:0:0:0:
244,236,254223,2,0,P|304:236|344:292,1,120,10|0,0:0|0:0,0:0:0:0:
344,296,254610,6,0,L|432:276,1,80,12|0,0:0|0:0,0:0:0:0:
492,216,254997,2,0,L|388:192,1,80,8|2,0:0|0:0,0:0:0:0:
336,180,255384,1,8,0:0:0:0:
260,156,255578,2,0,P|280:120|336:100,1,80,2|8,0:0|0:0,0:0:0:0:
240,236,255965,6,0,P|228:288|188:312,1,80,0|0,0:0|0:0,0:0:0:0:
116,316,256352,2,0,P|72:272|76:228,1,80,0|0,0:0|0:0,0:0:0:0:
104,176,256739,2,0,P|140:160|196:176,1,80,0|0,0:0|0:0,0:0:0:0:
152,244,257126,1,0,0:0:0:0:
152,244,257320,2,0,L|272:244,1,111.999996582031
