osu file format v8

[General]
AudioFilename: fripSide - an evening calm.mp3
AudioLeadIn: 0
PreviewTime: 92089
Countdown: 0
SampleSet: Soft
StackLeniency: 0.6
Mode: 0
LetterboxInBreaks: 1

[Editor]
Bookmarks: 18910,36688,72243,92243,127799,145576,165576
DistanceSpacing: 1
BeatDivisor: 4
GridSize: 8

[Metadata]
Title:an evening calm
Artist:fripSide
Creator:ykcarrot
Version:Normal
Source:
Tags:3rd reflection

[Difficulty]
HPDrainRate:4
CircleSize:4
OverallDifficulty:4
ApproachRate:4
SliderMultiplier:1.3
SliderTickRate:2

[Events]
//Background and Video events
0,0,"AEC_BG.jpg"
//Break Periods
2,110768,126471
//Storyboard Layer 0 (Background)
//Storyboard Layer 1 (Fail)
//Storyboard Layer 2 (Pass)
//Storyboard Layer 3 (Foreground)
//Storyboard Sound Samples
//Background Colour Transformations
3,100,0,0,0

[TimingPoints]
1680,555.555555555556,4,2,1,90,1,0
36402,-100,4,2,1,80,0,0
88207,-100,4,2,1,85,0,0
90430,-100,4,2,1,90,0,0
91957,-100,4,2,1,95,0,0
92791,-100,4,2,1,95,0,1
109457,-100,4,2,1,0,0,1
110568,-100,4,2,1,100,0,0
127513,-100,4,2,1,80,0,0
161541,-100,4,2,1,85,0,0
163763,-100,4,2,1,90,0,0
165291,-100,4,2,1,95,0,0
166124,-100,4,2,1,95,0,1
200568,-100,4,2,1,0,0,1
201680,-100,4,2,1,100,0,0

[Colours]
Combo1 : 221,72,0
Combo2 : 255,150,0
Combo3 : 225,0,0
Combo4 : 85,0,0

[HitObjects]
48,296,18902,1,0
112,296,19180,1,0
176,296,19457,2,0,B|240:360,1,65,4|0
288,344,20013,2,0,B|344:288,1,65
376,248,20568,2,0,B|496:248,2,97.5
336,200,21680,2,0,B|280:144,1,65
224,152,22235,2,0,B|168:208,1,65
136,248,22791,2,0,B|32:248,2,97.5,0|0|0
200,248,23902,6,0,B|280:248|312:184,1,130,0|4
248,80,25013,2,0,B|168:80|136:144,1,130,0|4
72,248,26124,1,0
160,200,26541,1,0
248,152,26957,1,0
248,152,27235,1,0
376,152,27791,5,0
376,152,28068,1,0
408,208,28346,1,4
376,264,28624,1,0
344,320,28902,1,0
312,264,29180,1,0
256,232,29457,2,0,B|256:112,2,97.5
200,264,30568,1,0
168,320,30846,1,0
136,264,31124,1,0
104,208,31402,1,0
128,152,31680,2,0,B|8:152,2,97.5
192,152,32791,6,0,B|344:152,1,130,4|0
320,280,33902,2,0,B|176:280,1,130,4|0
80,216,35013,1,4
176,216,35430,1,0
272,216,35846,1,0
272,216,36124,1,0
400,216,36680,5,2
400,152,36957,1,2
368,96,37235,1,4
248,152,37791,1,0
192,176,38068,2,0,B|144:200|80:168,2,97.5
200,112,39180,1,0
256,88,39457,2,0,B|328:96|344:192,1,130
344,240,40291,2,0,B|344:280,1,32.5
192,336,41124,5,0
136,304,41402,1,0
104,248,41680,1,0
152,128,42235,1,0
208,160,42513,2,0,B|256:160,1,32.5
336,160,43068,2,0,B|424:160,2,65
288,200,43902,1,0
240,160,44180,1,0
192,200,44457,1,0
144,240,44735,2,0,B|112:264,1,32.5
64,104,45568,5,2
120,72,45846,1,2
184,56,46124,2,0,B|264:56|320:120,1,130,4|0
352,144,46957,2,0,B|400:144,1,32.5
456,208,47513,1,0
408,248,47791,1,0
456,288,48068,1,0
408,328,48346,2,0,B|328:328|288:264,1,130
256,224,49180,2,0,B|208:224,1,32.5
128,224,49735,5,0
80,264,50013,1,0
128,304,50291,1,0
176,264,50568,2,0,B|296:264,2,97.5,4|0|0
112,264,51680,1,0
40,192,52096,2,0,B|96:184|128:224,1,97.5
176,264,52791,2,0,B|248:264|280:192,1,130
312,144,53624,2,0,B|328:112,1,32.5
472,192,54457,5,2
472,192,54735,1,2
472,192,55013,2,0,B|472:272|400:288,1,130,4|0
344,312,55846,2,0,B|304:328,1,32.5
216,336,56402,1,0
152,336,56680,1,0
152,272,56957,1,0
216,272,57235,2,0,B|304:272|304:184,1,130
304,128,58068,2,0,B|304:80,1,32.5
144,56,58902,5,0
144,56,59180,1,0
144,56,59457,2,0,B|64:72|64:168,1,130
64,208,60291,2,0,B|64:248,1,32.5
160,248,60846,2,0,B|160:328,2,65
160,184,61680,1,0
200,136,61957,1,0
264,136,62235,1,0
304,184,62513,2,0,B|304:224,1,32.5
448,288,63346,5,2
448,288,63624,1,2
448,288,63902,2,0,B|496:232|448:168,1,130,4|0
408,120,64735,2,0,B|360:120,1,32.5
280,120,65291,2,0,B|192:120,2,65
328,168,66124,2,0,B|376:224|328:288,1,130
288,336,66957,2,0,B|240:336,1,32.5
160,336,67513,6,0,B|80:336,2,65
208,288,68346,2,0,B|320:288,2,97.5,4|0|0
160,240,69457,2,0,B|48:240,2,97.5
208,192,70568,2,0,B|360:192,1,130
400,192,71402,2,0,B|448:192,1,32.5
136,192,72791,6,0,B|16:192,2,97.5
192,160,73902,2,0,B|256:128|330:166,1,130
376,192,74735,1,0
376,192,75013,2,0,B|496:192,2,97.5
320,224,76124,2,0,B|256:256|182:218,1,130,2|2
136,192,76957,5,0
136,192,77235,2,0,B|136:80,2,97.5
72,176,78346,2,0,B|72:56,2,97.5
8,160,79457,2,0,B|8:48,2,97.5
40,216,80568,2,0,B|112:256|184:208,1,130,2|2
296,192,81680,6,0,B|352:176|376:112,2,97.5,4|0|0
256,240,82791,2,0,B|272:296|336:320,2,97.5
216,192,83902,2,0,B|160:208|136:272,2,97.5
256,144,85013,2,0,B|240:88|176:64,2,97.5,2|0|2
304,184,86124,5,4
256,272,86541,1,0
208,184,86957,1,0
208,184,87235,1,0
256,272,87652,1,0
304,184,88068,1,0
256,136,88346,2,0,B|256:24,2,97.5,4|0|0
256,200,89457,2,0,B|256:304,2,97.5,4|0|0
208,160,90568,2,0,B|184:104|208:56|256:40|304:56|336:104|300:168,1,260,4|2
256,280,92235,5,2
256,280,92513,1,2
256,280,92791,2,0,B|176:280,1,65,4|0
256,280,93346,2,0,B|336:280,1,65
384,280,93902,2,0,B|384:240,1,32.5
384,184,94318,2,0,B|384:128|336:96,1,97.5
288,72,95013,1,0
224,72,95291,1,0
184,120,95568,1,0
224,168,95846,1,0
288,168,96124,2,0,B|328:200,1,32.5
360,232,96541,2,0,B|360:296|312:312,1,97.5
256,336,97235,5,0
112,272,97791,1,4
256,208,98346,1,0
112,144,98902,1,4
112,144,99180,1,0
112,144,99457,2,0,B|0:80,2,97.5
112,144,100568,1,2
256,208,101124,6,0,B|328:208,1,65,2|2
256,208,101680,2,0,B|256:120,1,65,4|0
256,208,102235,2,0,B|182:208,1,65,0|0
128,208,102791,2,0,B|128:264,1,32.5
128,304,103207,2,0,B|160:352|224:336,1,97.5
272,320,103902,1,0
304,264,104180,1,0
272,208,104457,1,0
208,208,104735,1,0
176,152,105013,2,0,B|200:104,1,32.5
216,64,105430,2,0,B|264:32|320:72,1,97.5
360,104,106124,5,4
336,256,106680,1,0
176,256,107235,1,4
152,104,107791,1,0
256,224,108346,2,0,B|256:344,2,97.5,4|0|0
256,192,109457,12,4,110568
64,288,127791,5,2
64,224,128068,1,2
80,160,128346,2,0,B|120:96|200:96,1,130,4|0
256,96,129180,2,0,B|296:96,1,32.5
448,96,130013,1,0
448,160,130291,1,0
432,224,130568,2,0,B|392:288|312:288,1,130
256,288,131402,2,0,B|216:288,1,32.5
64,288,132235,5,0
120,256,132513,1,0
120,192,132791,2,0,B|120:112|208:112,1,130
264,112,133624,2,0,B|320:112,1,32.5
392,112,134180,2,0,B|440:40,2,65
360,168,135013,2,0,B|312:240,2,65
424,168,135846,2,0,B|464:192,1,32.5
432,344,136680,5,2
368,344,136957,1,2
328,296,137235,1,4
256,192,137791,1,0
208,232,138068,2,0,B|176:256,1,32.5
104,312,138624,2,0,B|32:312,2,65
168,312,139457,2,0,B|248:312|288:240,1,130
312,200,140291,2,0,B|312:160,1,32.5
312,72,140846,5,0
256,104,141124,1,0
200,136,141402,1,0
144,168,141680,2,0,B|32:168,2,97.5,4|0|0
200,200,142791,2,0,B|304:200,2,97.5
144,232,143902,2,0,B|144:312|224:328,1,130
280,328,144735,2,0,B|320:328,1,32.5
136,96,146124,6,0,B|104:48|32:48,2,97.5,4|0|0
136,160,147235,2,0,B|64:160,1,65
72,224,147791,2,0,B|152:224,1,65
136,288,148346,2,0,B|104:336|32:336,2,97.5,0|0|0
176,240,149457,2,0,B|208:176|288:176,1,130,2|2
344,176,150291,5,0
408,176,150568,2,0,B|432:128|400:64,2,97.5
376,232,151680,2,0,B|400:280|368:344,2,97.5
344,176,152791,2,0,B|368:128|336:64,2,97.5
312,232,153902,2,0,B|248:264|184:232,1,130,2|2
64,176,155013,5,4
120,96,155430,1,0
216,96,155846,1,0
216,96,156124,1,0
272,176,156541,1,0
216,256,156957,1,0
216,256,157235,1,0
120,256,157652,1,0
64,176,158068,1,0
64,176,158346,2,0,B|200:176,1,130,2|2
256,176,159180,5,0
296,224,159457,2,0,B|408:224,2,97.5,4|0|0
288,288,160568,2,0,B|368:368,2,97.5
224,288,161680,2,0,B|144:368,2,97.5,4|0|0
216,224,162791,2,0,B|104:224,2,97.5,4|0|0
208,160,163902,2,0,B|184:104|208:56|256:40|304:56|336:104|300:168,1,260,4|2
256,280,165568,6,0,B|336:280,1,65,2|2
256,280,166124,1,4
192,280,166402,1,0
152,232,166680,1,0
152,168,166957,1,0
192,120,167235,2,0,B|240:120,1,32.5
288,120,167652,2,0,B|344:120|376:80,1,97.5
424,40,168346,1,0
472,80,168624,1,0
424,120,168902,1,0
376,80,169180,1,0
312,80,169457,2,0,B|280:128,1,32.5
256,160,169874,2,0,B|224:200|168:200,1,97.5
104,200,170568,5,0
256,160,171124,1,4
408,200,171680,1,0
256,160,172235,1,4
256,320,172791,2,0,B|256:208,2,97.5
256,320,173902,1,2
224,168,174457,6,0,B|152:168,2,65,2|2|4
288,168,175291,2,0,B|360:168,2,65
256,224,176124,2,0,B|256:280,1,32.5
256,320,176541,2,0,B|320:320|352:272,1,97.5
384,232,177235,1,0
440,200,177513,1,0
440,136,177791,1,0
384,104,178068,1,0
384,168,178346,2,0,B|336:168,1,32.5
288,168,178763,2,0,B|184:168,1,97.5
128,168,179457,5,4
192,312,180013,1,0
256,168,180568,1,4
320,312,181124,1,0
352,240,181402,1,0
384,168,181680,2,0,B|424:72,2,97.5,4|0|0
352,240,182791,1,2
200,240,183346,5,2
136,240,183624,1,2
104,184,183902,1,4
136,128,184180,1,0
200,128,184457,1,0
232,184,184735,1,0
200,240,185013,2,0,B|200:296,1,32.5
200,336,185430,2,0,B|248:360|312:328,1,97.5
352,304,186124,2,0,B|440:304,2,65
304,256,186957,1,0
352,208,187235,2,0,B|328:184,1,32.5
280,144,187652,2,0,B|232:112|176:152,1,97.5
136,184,188346,5,0
272,256,188902,2,0,B|256:328|168:344,2,130,4|0|4
272,256,190291,1,0
272,256,190568,2,0,B|280:200|344:184,2,97.5
272,256,191680,1,2
136,184,192235,6,0,B|208:184,1,65,2|2
256,152,192791,2,0,B|256:64,2,65,4|0|0
312,184,193624,1,0
376,184,193902,2,0,B|432:184,1,32.5
472,184,194318,2,0,B|472:248|424:288,1,97.5
392,320,195013,2,0,B|328:296,1,65
270,320,195568,2,0,B|334:296,1,65
368,240,196124,2,0,B|368:200,1,32.5
304,192,196541,2,0,B|192:192,1,97.5,0|0
144,192,197235,5,4
256,304,197791,1,0
368,192,198346,1,4
256,80,198902,1,0
144,192,199457,1,4
256,192,199874,1,0
256,192,200291,1,0
256,192,200568,12,4,201679
