osu file format v8

[General]
AudioFilename: fripSide - an evening calm.mp3
AudioLeadIn: 0
PreviewTime: 92089
Countdown: 0
SampleSet: Soft
StackLeniency: 0.6
Mode: 0
LetterboxInBreaks: 1

[Editor]
Bookmarks: 18910,36688,72243,92243,127799,145576,165576
DistanceSpacing: 1
BeatDivisor: 4
GridSize: 8

[Metadata]
Title:an evening calm
Artist:fripSide
Creator:ykcarrot
Version:Hard
Source:
Tags:3rd reflection

[Difficulty]
HPDrainRate:7
CircleSize:5
OverallDifficulty:7
ApproachRate:7
SliderMultiplier:2
SliderTickRate:2

[Events]
//Background and Video events
0,0,"AEC_BG.jpg"
//Break Periods
2,110768,126891
//Storyboard Layer 0 (Background)
//Storyboard Layer 1 (Fail)
//Storyboard Layer 2 (Pass)
//Storyboard Layer 3 (Foreground)
//Storyboard Sound Samples
//Background Colour Transformations
3,100,0,0,0

[TimingPoints]
1680,555.555555555556,4,2,1,90,1,0
36402,-100,4,2,1,80,0,0
88207,-100,4,2,1,85,0,0
90430,-100,4,2,1,90,0,0
92096,-100,4,2,1,95,0,0
92791,-100,4,2,1,95,0,1
109457,-200,4,2,1,100,0,1
110568,-200,4,2,1,100,0,0
127513,-100,4,2,1,80,0,0
161541,-100,4,2,1,85,0,0
163763,-100,4,2,1,90,0,0
165430,-100,4,2,1,95,0,0
166124,-100,4,2,1,95,0,1
200568,-200,4,2,1,100,0,1
201680,-200,4,2,1,100,0,0

[Colours]
Combo1 : 221,72,0
Combo2 : 255,150,0
Combo3 : 225,0,0
Combo4 : 85,0,0

[HitObjects]
96,216,18902,1,0
152,304,19180,1,0
152,304,19457,2,0,B|192:344|248:344,1,100,4|0
344,344,20013,2,0,B|408:344|408:272,1,100
408,184,20568,1,0
408,184,20707,2,0,B|496:96,2,100
408,184,21402,1,0
344,264,21680,2,0,B|288:264|240:208,1,100
248,128,22235,2,0,B|184:128|176:192,1,100
176,288,22791,1,0
176,288,22930,2,0,B|96:208,2,100
176,288,23624,1,0
256,352,23902,5,0
512,192,24457,1,4
256,352,25013,1,0
0,192,25568,1,4
256,352,26124,1,0
416,192,26541,1,0
256,32,26957,1,0
168,88,27235,1,0
136,128,27374,1,0
128,176,27513,1,0
144,224,27652,1,0
176,264,27791,1,0
224,288,27930,1,0
272,296,28068,1,0
320,288,28207,1,0
368,272,28346,6,0,B|416:256|416:176,1,100,4|0
480,112,28902,2,0,B|440:80|384:96,1,100
288,120,29457,1,0
288,120,29596,2,0,B|368:200,2,100
288,120,30291,1,0
216,48,30568,2,0,B|160:64|160:136,1,100
160,224,31124,2,0,B|176:280|248:288,1,100
336,288,31680,1,0
336,288,31818,2,0,B|424:200,2,100
336,288,32513,1,0
256,352,32791,5,4
0,192,33346,1,0
256,352,33902,1,4
512,192,34457,1,0
256,352,35013,1,4
96,192,35430,1,0
256,32,35846,1,0
256,32,36124,1,0
400,296,36680,5,2
304,296,36957,1,2
304,296,37096,1,2
304,296,37235,2,0,B|192:296,1,100,4|0
104,296,37791,2,0,B|64:248|112:184,1,100
120,160,38207,2,0,B|248:224|376:152,1,250
440,104,39180,1,0
440,104,39457,2,0,B|512:200|424:312,1,200
376,368,40291,1,0
376,368,40430,2,0,B|480:368,2,100
328,368,41124,5,0
224,368,41402,1,0
128,336,41680,2,0,B|24:296|24:160,1,200
24,80,42513,1,0
24,80,42652,1,0
176,80,43068,1,0
176,184,43346,1,0
264,128,43624,1,0
264,232,43902,1,0
352,176,44180,1,0
352,280,44457,1,0
440,224,44735,1,0
440,224,44874,2,0,B|440:336,2,100
440,176,45568,5,2
432,128,45707,1,2
400,88,45846,1,2
360,64,45985,1,2
312,48,46124,2,0,B|200:8|104:80,1,200,4|0
40,128,46957,1,0
40,128,47096,2,0,B|40:280,1,150
40,278,47791,1,0
40,278,48068,1,0
136,312,48346,2,0,B|240:368|344:304,1,200
400,248,49180,1,0
400,248,49318,1,0
400,96,49735,5,0
328,168,50013,1,0
256,240,50291,1,0
184,312,50568,2,0,B|96:312|80:208,2,150,4|0|0
256,240,51680,2,0,B|344:240|360:344,2,150
184,312,52791,2,0,B|64:312|64:152,1,200
152,128,53624,1,0
152,128,53763,1,0
152,128,53902,2,0,B|224:128,1,50,2|0
248,152,54180,2,0,B|304:152,1,50,2|0
336,176,54457,5,2
368,208,54596,1,2
400,240,54735,1,2
432,272,54874,1,2
464,304,55013,2,0,B|392:384|272:352,1,200,4|0
184,320,55846,1,0
184,320,55985,1,0
104,192,56402,2,0,B|-8:192,2,100
208,192,57235,2,0,B|296:120|400:200,1,200
472,248,58068,1,0
472,248,58207,2,0,B|472:360,2,100
472,200,58902,5,0
456,104,59180,1,0
376,40,59457,2,0,B|256:16|192:120,1,200
144,192,60291,1,0
144,192,60430,1,0
144,344,60846,1,0
248,344,61124,1,0
200,256,61402,1,0
304,256,61680,1,0
256,168,61957,1,0
360,168,62235,1,0
312,80,62513,1,0
312,80,62652,2,0,B|424:80,2,100
264,80,63346,5,2
216,72,63485,1,2
168,80,63624,1,2
120,72,63763,1,2
72,80,63902,2,0,B|8:176|80:280,1,200,4|0
136,344,64735,1,0
136,344,64874,2,0,B|192:272|128:192,1,150
40,208,65568,1,0
40,312,65846,1,0
136,344,66124,2,0,B|352:344,1,200
440,344,66957,1,0
440,344,67096,1,0
440,192,67513,5,0
368,120,67791,1,0
272,80,68068,1,0
168,80,68346,2,0,B|80:80|16:160,2,150,4|0|0
272,80,69457,2,0,B|360:80|424:0,2,150,0|0|0
168,80,70568,2,0,B|104:80|56:104|24:152|24:208,1,200
24,296,71402,1,0
24,296,71541,1,0
24,296,71680,2,0,B|96:296,1,50,2|2
224,296,72235,5,2
328,296,72513,1,2
328,296,72652,1,2
328,296,72791,2,0,B|432:296,1,100,4|0
428,296,73207,2,0,B|480:216|416:136,1,150,0|0
464,64,73902,2,0,B|392:24|320:64|320:160,1,200,0|0
320,240,74735,1,0
256,320,75013,2,0,B|152:320,1,100
156,320,75430,2,0,B|104:264|104:176,1,150,0|0
72,88,76124,1,2
72,88,76263,1,2
72,88,76402,2,0,B|128:80|176:120,1,100,0|2
256,168,76957,5,0
256,168,77235,2,0,B|216:112|296:64|248:8,2,150
312,256,78346,2,0,B|376:280|400:232|464:256,2,150
200,256,79457,2,0,B|136:280|112:232|48:256,2,150
256,168,80568,2,0,B|256:112,2,50,2|2|0
256,280,81124,5,2
256,280,81263,1,2
256,280,81402,1,2
256,280,81541,1,2
256,280,81680,1,4
472,208,82096,1,0
304,56,82513,1,0
304,56,82791,1,0
256,280,83207,1,0
208,56,83624,1,0
208,56,83902,1,0
40,208,84318,1,0
256,280,84735,1,0
256,280,85013,1,2
256,280,85152,1,2
256,280,85291,2,0,B|256:168,2,100,0|2|0
312,368,86124,6,0,B|392:368|448:304,2,150,4|0|0
200,368,87235,2,0,B|120:368|64:304,2,150,0|0|0
328,288,88346,2,0,B|408:288|464:224,2,150,4|0|0
184,288,89457,2,0,B|104:288|48:224,2,150,4|0|0
256,104,90568,2,0,B|256:264,2,150,4|0|0
256,104,91680,1,2
256,104,91818,1,2
256,104,91957,1,0
200,24,92235,5,2
312,24,92513,1,2
312,24,92652,1,2
312,24,92791,2,0,B|368:24|416:80,1,100,4|0
464,144,93346,2,0,B|384:224,1,100
344,304,93902,1,0
344,304,94041,2,0,B|400:336|448:296,2,100
344,304,94735,1,0
344,200,95013,1,0
304,112,95291,1,0
208,112,95568,1,0
168,200,95846,1,0
256,256,96124,1,0
256,256,96263,2,0,B|256:128,2,100
256,256,96957,1,0
256,360,97235,5,0
408,104,97791,1,4
104,104,98346,1,0
256,360,98902,1,4
256,360,99180,1,0
256,360,99457,1,0
368,168,99874,1,0
144,168,100291,1,0
144,168,100568,2,0,B|72:168,2,50,2|2|0
248,168,101124,5,2
264,216,101263,1,2
248,264,101402,1,2
264,312,101541,1,2
248,360,101680,2,0,B|304:360|352:336,1,100,4|0
448,336,102235,2,0,B|448:272|392:256,1,100
304,232,102791,1,0
304,232,102930,2,0,B|304:120,2,100
304,232,103624,1,0
304,336,103902,1,0
208,312,104180,1,0
128,248,104457,1,0
128,136,104735,1,0
208,72,105013,1,0
208,72,105152,2,0,B|336:40,2,100
208,72,105846,1,0
128,136,106124,5,4
352,336,106680,1,0
256,48,107235,1,4
160,336,107791,1,0
384,136,108346,1,4
256,320,108763,1,0
128,136,109180,1,0
256,48,109457,2,0,B|256:264,1,200,0|4
456,56,127791,5,2
360,56,128068,1,2
360,56,128207,1,2
360,56,128346,2,0,B|304:56|272:112,1,100,4|0
320,192,128902,2,0,B|264:208|216:168,1,100
192,144,129318,2,0,B|136:208|184:320,1,150
272,296,130013,1,0
208,376,130291,1,0
112,352,130568,2,0,B|8:328|8:184,1,200
8,96,131402,1,0
8,96,131541,2,0,B|32:40|112:40,2,100
8,144,132235,5,0
72,224,132513,1,0
136,144,132791,2,0,B|200:40|336:88,1,200
400,40,133624,1,0
400,40,133763,2,0,B|424:136|328:176,1,150
264,216,134457,1,0
168,200,134735,1,0
120,112,135013,1,0
184,32,135291,1,0
280,40,135568,1,0
328,128,135846,1,0
328,128,135985,2,0,B|336:216|264:272,1,150
200,328,136680,5,2
248,352,136818,1,2
296,360,136957,1,2
344,344,137096,1,2
384,312,137235,2,0,B|448:240|432:120,1,200,4|0
392,32,138068,1,0
392,32,138207,2,0,B|312:32|264:112,1,150
268,104,138902,1,0
268,104,139180,1,0
336,176,139457,2,0,B|240:232|144:176,1,200
56,128,140291,1,0
56,128,140430,1,0
176,40,140846,5,0
128,128,141124,1,0
128,232,141402,1,0
176,320,141680,2,0,B|256:320|296:232,2,150,4|0|0
128,232,142791,2,0,B|48:232|8:320,2,150
176,320,143902,2,0,B|272:320|328:176,1,200
352,104,144735,1,0
352,104,144874,1,0
352,104,145013,2,0,B|280:104,1,50,2|2
152,104,145568,5,2
48,104,145846,1,2
48,104,145985,1,2
48,104,146124,2,0,B|48:200|152:200,2,150,4|0|0
152,104,147235,2,0,B|232:48|352:48,2,200
80,168,148624,1,0
80,168,148763,2,0,B|32:240|88:312,1,150
152,232,149457,1,2
152,232,149596,1,2
152,232,149735,2,0,B|280:232,1,100,0|2
328,168,150291,5,0
328,168,150568,2,0,B|384:104|480:136,2,150
256,232,151680,2,0,B|256:408,2,150
184,168,152791,2,0,B|128:104|32:136,2,150
256,96,153902,2,0,B|256:40,2,50,2|2|0
256,200,154457,5,2
256,200,154596,1,2
256,200,154735,1,2
256,200,154874,1,2
256,200,155013,2,0,B|256:288|360:304,1,150,4|0
346,301,155568,2,0,B|458:301,1,100
448,200,156124,2,0,B|352:200|336:104,1,150
338,117,156680,2,0,B|234:117,1,100
136,120,157235,2,0,B|40:120|40:216,1,150
40,210,157791,2,0,B|112:282,1,100
184,352,158346,1,2
184,352,158485,1,2
184,352,158624,2,0,B|296:352,1,100,0|2
288,248,159180,5,0
288,248,159457,2,0,B|360:248|432:328,2,150,4|0|0
288,136,160568,2,0,B|360:136|432:56,2,150,0|0|0
224,272,161680,2,0,B|168:336|80:336,2,150,4|0|0
224,112,162791,2,0,B|168:48|80:48,2,150,4|0|0
408,192,163902,2,0,B|240:192,2,150,4|0|0
408,192,165013,1,2
408,192,165152,1,2
408,192,165291,1,0
496,256,165568,5,2
496,136,165846,1,2
496,136,165985,1,2
496,136,166124,1,4
376,104,166402,1,0
256,80,166680,1,0
136,104,166957,1,0
16,136,167235,1,0
16,136,167374,2,0,B|16:264,2,100
16,136,168068,1,0
136,104,168346,2,0,B|208:200,1,100
316,184,168902,2,0,B|376:104,1,100
496,136,169457,1,0
496,136,169596,2,0,B|496:240,2,100
496,136,170291,1,0
416,48,170568,5,0
256,328,171124,1,4
96,48,171680,1,0
416,48,172235,1,4
256,328,172791,1,0
136,120,173207,1,0
376,120,173624,1,0
376,120,173902,2,0,B|456:120,2,50,2|2|0
256,120,174457,5,2
256,168,174596,1,2
256,216,174735,1,2
256,264,174874,1,2
256,312,175013,2,0,B|232:360|168:360,1,100,4|0
56,352,175568,2,0,B|56:288|120:256,1,100
192,192,176124,1,0
192,192,176263,2,0,B|88:192,2,100
192,192,176957,1,0
312,192,177235,1,0
312,312,177513,1,0
416,256,177791,1,0
416,128,178068,1,0
312,72,178346,1,0
312,72,178485,2,0,B|184:72,2,100
312,72,179180,1,0
416,128,179457,5,4
96,128,180013,1,0
416,128,180568,1,4
96,128,181124,1,0
256,128,181402,1,0
256,288,181680,1,4
256,48,182096,1,0
256,288,182513,1,0
256,168,182791,6,0,B|256:224,4,50,2|0|2|2|2
256,288,183624,1,2
256,288,183763,1,2
256,288,183902,2,0,B|256:352|336:352,1,100,4|0
440,336,184457,2,0,B|440:280|384:248,1,100
280,224,185013,1,0
280,224,185152,2,0,B|176:224,1,100
180,224,185568,2,0,B|72:224,1,100
80,104,186124,1,0
184,40,186402,1,0
256,136,186680,1,0
328,40,186957,1,0
432,104,187235,1,0
432,104,187374,2,0,B|432:224,1,100
432,204,187791,2,0,B|432:320,1,100
328,360,188346,5,0
256,48,188902,1,4
184,360,189457,1,0
256,48,190013,1,4
256,48,190291,1,0
256,48,190568,2,0,B|216:104|296:128|248:208,2,150
256,48,191680,1,2
256,48,191818,1,2
256,48,191957,1,0
96,48,192235,5,2
64,88,192374,1,2
48,136,192513,1,2
48,184,192652,1,2
64,232,192791,1,4
128,336,193068,1,0
192,232,193346,1,0
320,232,193624,1,0
384,336,193902,1,0
384,336,194041,2,0,B|448:320|448:240,1,100
446,265,194457,2,0,B|446:153,1,100
440,48,195013,1,0
328,96,195291,1,0
224,152,195568,1,0
328,216,195846,1,0
224,280,196124,1,0
224,280,196263,2,0,B|120:224,2,100
224,280,196957,1,0
328,344,197235,5,4
96,128,197791,1,0
416,128,198346,1,4
184,344,198902,1,0
256,32,199457,1,4
376,240,199874,1,0
136,240,200291,1,0
256,136,200568,2,0,B|256:352,1,200,0|4
