osu file format v14

[General]
AudioFilename: fripSide - Two souls -toward the truth-.mp3
AudioLeadIn: 0
PreviewTime: 64207
Countdown: 0
SampleSet: Soft
StackLeniency: 0.7
Mode: 0
LetterboxInBreaks: 0
WidescreenStoryboard: 0

[Editor]
Bookmarks: 6389,18025,52934
DistanceSpacing: 1
BeatDivisor: 4
GridSize: 4
TimelineZoom: 2.2

[Metadata]
Title:Two souls -toward the truth-
TitleUnicode:Two souls -toward the truth-
Artist:fripSide
ArtistUnicode:fripSide
Creator:Regraz
Version:Normal
Source:終わりのセラフ 名古屋決戦編
Tags:op opening owari no seraph kessen hen of the end battle in nagoya
BeatmapID:808401
BeatmapSetID:368745

[Difficulty]
HPDrainRate:3
CircleSize:3
OverallDifficulty:3.5
ApproachRate:4.5
SliderMultiplier:0.9
SliderTickRate:1

[Events]
//Background and Video events
Video,0,"Muted OP.flv"
0,0,"BGbfbyw.jpg",0,0
//Break Periods
2,18225,28401
//Storyboard Layer 0 (Background)
//Storyboard Layer 1 (Fail)
//Storyboard Layer 2 (Pass)
//Storyboard Layer 3 (Foreground)
//Storyboard Sound Samples

[TimingPoints]
571,363.636363636364,4,2,1,35,1,0
5843,-100,4,2,1,55,0,0
6389,-100,4,2,1,70,0,0
18025,-100,4,2,1,40,0,0
29661,-100,4,2,1,55,0,0
52934,-100,4,2,1,70,0,0
64571,-100,4,2,1,80,0,1
75843,-100,4,2,1,80,0,0
76207,-100,4,2,1,80,0,1
87843,-100,4,2,1,80,0,0

[Colours]
Combo1 : 0,255,64
Combo2 : 128,56,66
Combo3 : 128,0,255

[HitObjects]
50,75,571,6,0,P|119:49|216:102,1,180,2|2,0:0|0:0,0:0:0:0:
269,160,1661,1,2,0:0:0:0:
348,117,2025,2,0,L|343:6,2,90,2|2|2,0:0|0:0|0:0,0:0:0:0:
418,172,3116,1,2,0:0:0:0:
475,241,3480,6,0,P|493:326|490:345,1,90,2|2,0:0|0:0,0:0:0:0:
405,350,4207,2,0,L|319:326,1,90,2|2,0:0|0:0,0:0:0:0:
285,356,4752,2,0,P|220:326|150:329,1,135,2|2,0:0|0:0,0:0:0:0:
76,365,5661,1,8,0:0:0:0:
86,275,6025,1,8,0:3:0:0:
48,193,6389,6,0,P|35:131|34:94,1,90,6|8,0:0|0:0,0:0:0:0:
110,58,7116,2,0,L|167:66,1,45,2|2,0:0|0:0,0:0:0:0:
239,47,7661,2,0,L|387:48,1,135,6|8,0:0|0:0,0:0:0:0:
436,112,8571,2,0,P|468:173|470:208,1,90,2|10,0:0|0:0,0:0:0:0:
439,277,9298,6,0,L|336:244,1,90,6|8,0:0|0:0,0:0:0:0:
279,300,10025,2,0,P|238:278|177:278,1,90,2|8,0:0|0:0,0:0:0:0:
169,311,10571,2,0,P|119:336|24:333,1,135,6|8,0:0|0:0,0:0:0:0:
30,248,11480,2,0,L|20:151,1,90,2|8,0:0|0:0,0:0:0:0:
58,76,12207,6,0,P|110:56|162:62,1,90,6|8,0:0|0:0,0:0:0:0:
192,132,12934,2,0,P|244:152|296:146,1,90,2|2,0:0|0:0,0:0:0:0:
307,184,13479,2,0,L|305:331,1,135,6|10,0:0|0:0,0:0:0:0:
393,313,14389,2,0,L|396:222,1,90,2|10,0:0|0:0,0:0:0:0:
370,132,15116,6,0,P|304:103|244:132,2,135,6|6|8,0:0|0:0|0:0,0:0:0:0:
398,167,16389,2,0,L|387:256,2,90,6|2|12,0:0|0:0|0:0,0:0:0:0:
488,188,17480,2,0,L|473:337,1,135,6|6,0:0|0:0,0:0:0:0:
312,267,29661,6,0,P|365:200|348:96,1,180,6|2,0:0|0:0,0:0:0:0:
272,78,30752,1,2,0:0:0:0:
254,167,31116,2,0,L|263:358,1,180,2|2,0:0|0:0,0:0:0:0:
174,328,32207,1,2,0:0:0:0:
99,276,32571,6,0,P|92:222|105:174,1,90,2|2,0:0|0:0,0:0:0:0:
189,190,33298,2,0,P|196:136|183:88,1,90,2|2,0:0|0:0,0:0:0:0:
235,24,34025,2,0,L|330:33,1,90,2|2,0:0|0:0,0:0:0:0:
408,64,34752,2,0,L|502:50,1,90,2|0,0:0|0:0,0:0:0:0:
474,137,35480,6,0,P|487:215|488:275,2,135,6|2|2,0:0|0:0|0:0,0:0:0:0:
387,161,36934,2,0,P|400:239|401:299,2,135,2|2|2,0:0|0:0|0:0,0:0:0:0:
340,83,38389,6,0,P|316:68|252:60,1,90,6|2,0:0|0:0,0:0:0:0:
221,142,39116,2,0,P|197:157|133:165,1,90,2|2,0:0|0:0,0:0:0:0:
98,142,39661,2,0,L|90:292,1,135,2|2,0:0|0:0,0:0:0:0:
171,317,40571,2,0,P|217:335|262:338,1,90,6|6,0:0|0:0,0:0:0:0:
325,279,41298,6,0,L|417:285,1,90,6|0,0:0|0:0,0:0:0:0:
431,196,42025,2,0,L|341:190,1,90,2|0,0:0|0:0,0:0:0:0:
311,156,42571,2,0,L|206:160,1,90,2|2,0:0|0:0,0:0:0:0:
145,110,43298,2,0,L|86:115,1,45,2|2,0:0|0:0,0:0:0:0:
177,276,44207,6,0,L|87:281,1,90,6|0,0:0|0:0,0:0:0:0:
71,193,44934,2,0,L|160:187,1,90,2|0,0:0|0:0,0:0:0:0:
191,153,45480,2,0,L|280:156,1,90,2|2,0:0|0:0,0:0:0:0:
357,107,46207,2,0,L|401:110,1,45,2|2,0:0|0:0,0:0:0:0:
465,174,46752,1,2,0:0:0:0:
392,226,47116,6,0,P|337:215|285:221,1,90,6|0,0:0|0:0,0:0:0:0:
212,220,47843,2,0,P|167:218|123:228,1,90,2|0,0:0|0:0,0:0:0:0:
96,265,48389,2,0,L|82:163,1,90,2|2,0:0|0:0,0:0:0:0:
136,102,49116,2,0,L|123:42,1,45,2|2,0:0|0:0,0:0:0:0:
299,87,50025,6,0,P|362:64|392:65,1,90,6|0,0:0|0:0,0:0:0:0:
423,145,50752,2,0,P|467:148|508:167,1,90,2|0,0:0|0:0,0:0:0:0:
502,212,51298,2,0,P|498:291|498:312,1,90,2|2,0:0|0:0,0:0:0:0:
415,338,52025,2,0,L|353:326,1,45,2|2,0:0|0:0,0:0:0:0:
280,334,52571,1,2,1:2:0:0:
193,359,52934,6,0,L|106:334,1,90,6|10,0:0|0:0,0:0:0:0:
132,248,53661,2,0,L|219:273,1,90,2|10,0:0|0:0,0:0:0:0:
260,256,54207,2,0,P|313:197|319:128,1,135,2|10,0:0|0:0,0:0:0:0:
295,106,54934,2,0,L|153:102,1,135,0|10,0:0|0:0,0:0:0:0:
96,166,55843,6,0,P|72:118|79:64,2,90,2|10|2,0:0|0:0|0:0,0:0:0:0:
80,254,56934,1,10,0:0:0:0:
137,323,57298,2,0,P|209:314|236:315,1,90,2|10,0:0|0:0,0:0:0:0:
316,308,58025,2,0,L|424:322,1,90,2|10,0:0|0:0,0:0:0:0:
428,237,58752,6,0,P|468:160|466:148,2,90,6|10|2,0:0|0:0|0:0,0:0:0:0:
380,160,59843,1,10,0:0:0:0:
303,111,60207,2,0,L|210:129,1,90,2|10,0:0|0:0,0:0:0:0:
166,51,60934,2,0,L|73:69,1,90,2|10,0:0|0:0,0:0:0:0:
89,157,61661,6,0,P|63:222|66:251,1,90,6|8,0:0|0:0,0:0:0:0:
102,322,62389,2,0,L|201:297,1,90,2|8,0:0|0:0,0:0:0:0:
216,333,62934,2,0,P|346:314|391:325,1,180,12|8,0:0|0:0,0:0:0:0:
430,348,63843,1,10,0:0:0:0:
485,276,64207,1,14,0:0:0:0:
416,217,64571,6,0,L|419:115,1,90,6|8,0:0|0:0,0:0:0:0:
336,90,65298,2,0,L|333:179,1,90,2|8,0:0|0:0,0:0:0:0:
300,210,65843,2,0,P|234:247|161:244,1,135,2|8,0:0|0:0,0:0:0:0:
120,176,66752,2,0,L|119:66,1,90,2|8,0:0|0:0,0:0:0:0:
204,55,67480,6,0,P|261:43|305:47,1,90,6|8,0:0|0:0,0:0:0:0:
322,77,68025,2,0,P|363:95|407:100,2,90,2|2|2,0:0|0:0|0:0,0:0:0:0:
250,131,69116,1,2,0:0:0:0:
180,187,69480,2,0,P|115:173|36:183,1,135,2|8,0:0|0:0,0:0:0:0:
38,269,70389,6,0,L|132:273,1,90,6|8,0:0|0:0,0:0:0:0:
157,306,70934,2,0,L|303:321,1,135,2|8,0:0|0:0,0:0:0:0:
364,267,71843,2,0,P|386:213|383:170,1,90,2|8,0:0|0:0,0:0:0:0:
353,149,72389,2,0,L|203:166,1,135,2|8,0:0|0:0,0:0:0:0:
142,115,73298,6,0,P|91:107|35:122,1,90,6|8,0:0|0:0,0:0:0:0:
43,157,73843,2,0,L|46:258,1,90,2|2,0:0|0:0,0:0:0:0:
120,296,74571,2,0,L|214:274,1,90,2|2,0:0|0:0,0:0:0:0:
293,303,75298,1,2,0:0:0:0:
322,268,75480,2,0,P|314:195|325:168,1,90,2|8,0:0|0:0,0:0:0:0:
407,168,76207,6,0,P|415:95|404:68,1,90,6|8,0:0|0:0,0:0:0:0:
372,56,76752,2,0,L|219:38,1,135,2|8,0:0|0:0,0:0:0:0:
226,84,77480,2,0,P|130:72|122:75,1,90,2|2,0:0|0:0,0:0:0:0:
106,99,78025,1,8,0:0:0:0:
89,187,78389,2,0,L|94:289,1,90,2|8,0:0|0:0,0:0:0:0:
178,305,79116,6,0,P|237:283|315:301,1,135,6|2,0:0|0:0,0:0:0:0:
393,319,80025,1,2,0:0:0:0:
457,256,80389,2,0,P|494:163|488:116,1,135,2|8,0:0|0:0,0:0:0:0:
411,88,81298,2,0,L|314:67,1,90,2|8,0:0|0:0,0:0:0:0:
284,150,82025,6,0,L|180:163,1,90,6|8,0:0|0:0,0:0:0:0:
136,92,82752,2,0,P|67:95|41:115,1,90,2|8,0:0|0:0,0:0:0:0:
45,150,83298,2,0,L|61:294,1,135,2|8,0:0|0:0,0:0:0:0:
147,303,84207,2,0,P|179:237|180:207,1,90,2|8,0:0|0:0,0:0:0:0:
240,154,84934,6,0,L|396:161,2,135,6|2|8,0:0|0:0|0:0,0:0:0:0:
210,119,86207,2,0,L|108:123,2,90,6|2|2,0:0|0:0|0:0,0:0:0:0:
234,80,87116,2,0,P|295:59|328:64,1,90,2|8,0:0|0:0,0:0:0:0:
360,80,87661,5,6,0:0:0:0:
