osu file format v14

[General]
AudioFilename: fripSide - Two souls -toward the truth-.mp3
AudioLeadIn: 0
PreviewTime: 64486
Countdown: 0
SampleSet: Soft
StackLeniency: 0.2
Mode: 0
LetterboxInBreaks: 0
WidescreenStoryboard: 0

[Editor]
DistanceSpacing: 1
BeatDivisor: 8
GridSize: 16
TimelineZoom: 2.2

[Metadata]
Title:Two souls -toward the truth-
TitleUnicode:Two souls -toward the truth-
Artist:fripSide
ArtistUnicode:fripSide
Creator:Chloe
Version:Two Rabbit Souls
Source:終わりのセラフ 名古屋決戦編
Tags:Seraph of the End Battle in Nagoya Owari no Seraph Nagoya Kessen Hen 2 Anime OP Opening TV size Rizia Kawaiwkyik F D Flourite IamKwaN Natsu Rizia
BeatmapID:804793
BeatmapSetID:366802

[Difficulty]
HPDrainRate:8
CircleSize:4
OverallDifficulty:8.6
ApproachRate:9
SliderMultiplier:1.6
SliderTickRate:1

[Events]
//Background and Video events
0,0,"321.jpg",0,0
Video,0,"optc.flv"
//Break Periods
//Storyboard Layer 0 (Background)
//Storyboard Layer 1 (Fail)
//Storyboard Layer 2 (Pass)
//Storyboard Layer 3 (Foreground)
//Storyboard Sound Samples

[TimingPoints]
486,363.636363636364,4,2,0,80,1,0
17940,-133.333333333333,4,2,0,60,0,0
26940,-117.647058823529,4,2,0,5,0,0
27031,-133.333333333333,4,2,0,60,0,0
29576,-117.647058823529,4,2,0,70,0,0
38576,-117.647058823529,4,2,0,5,0,0
38667,-117.647058823529,4,2,0,70,0,0
41213,-166.666666666667,4,2,0,85,0,0
52849,-100,4,2,0,80,0,0
57304,-117.647058823529,4,2,0,5,0,0
57395,-100,4,2,0,80,0,0
62849,-83.3333333333333,4,2,0,80,0,0
63122,-83.3333333333333,4,2,0,5,0,0
63213,-83.3333333333333,4,2,0,85,0,0
63486,-83.3333333333333,4,2,0,5,0,0
63576,-83.3333333333333,4,2,0,85,0,0
63758,-83.3333333333333,4,2,0,90,0,0
64486,-100,4,2,0,90,0,0
67304,-117.647058823529,4,2,0,5,0,0
67395,-100,4,2,0,90,0,0
73122,-117.647058823529,4,2,0,5,0,0
73213,-100,4,2,0,90,0,0
78940,-117.647058823529,4,2,0,5,0,0
79031,-100,4,2,0,90,0,0
82213,-117.647058823529,4,2,0,5,0,0
82304,-100,4,2,0,90,0,0
82576,-117.647058823529,4,2,0,5,0,0
82667,-100,4,2,0,90,0,0
83486,-117.647058823529,4,2,0,5,0,0
83576,-100,4,2,0,90,0,0
86395,-117.647058823529,4,2,0,5,0,0
86486,-100,4,2,0,90,0,0
86758,-117.647058823529,4,2,0,5,0,0
86849,-100,4,2,0,90,0,0
87667,-117.647058823529,4,2,0,5,0,0

[Colours]
Combo1 : 250,193,253
Combo2 : 35,232,237

[HitObjects]
340,135,486,5,2,1:0:0:0:
233,193,667,2,0,L|154:203,1,80,2|0,0:1|1:0,0:0:0:0:
368,255,1031,2,0,B|382:293|382:293|364:354,1,80,2|0,0:1|1:0,0:0:0:0:
259,176,1395,2,0,B|245:138|245:138|263:76,1,80,2|0,0:1|1:0,0:0:0:0:
396,2,1758,1,2,0:0:0:0:
396,2,1849,1,2,0:0:0:0:
396,2,1940,6,0,L|385:99,1,80,2|2,1:0|0:1,0:0:0:0:
369,298,2304,1,0,1:0:0:0:
268,230,2486,2,0,L|188:233,1,80,2|0,0:1|1:0,0:0:0:0:
78,166,2849,1,2,0:3:0:0:
78,166,2940,1,2,0:3:0:0:
78,166,3031,1,0,1:0:0:0:
118,31,3213,1,0,1:0:0:0:
5,126,3395,6,0,B|-11:162|-11:162|16:231,1,80,6|2,1:0|0:1,0:0:0:0:
118,315,3758,1,0,1:0:0:0:
278,270,3940,1,2,0:1:0:0:
137,309,4122,1,0,1:1:0:0:
334,324,4304,1,2,0:1:0:0:
156,303,4486,1,0,1:0:0:0:
390,378,4667,1,6,1:1:0:0:
390,378,5031,5,2,0:0:0:0:
210,309,5213,2,0,B|197:284|197:284|208:204,1,80,4|2,1:0|0:3,0:0:0:0:
207,208,5486,1,2,0:3:0:0:
210,184,5576,2,0,L|170:189,3,40,4|8|8|8,1:2|0:3|0:3|0:3,0:0:0:0:
254,128,5940,5,2,1:2:0:0:
318,99,6030,1,2,0:0:0:0:
387,115,6121,1,2,0:0:0:0:
432,170,6212,1,2,0:0:0:0:
434,240,6304,6,0,L|423:347,1,80
210,309,6667,1,2,1:3:0:0:
210,309,6758,2,0,B|200:306|200:306|185:311|177:306|177:306|156:309|131:305,1,80,2|0,0:0|0:0,0:0:0:0:
50,302,7031,1,2,1:2:0:0:
76,142,7213,1,2,0:0:0:0:
50,302,7395,1,2,0:3:0:0:
215,82,7576,1,6,1:2:0:0:
215,82,7940,5,2,1:2:0:0:
111,213,8122,2,0,B|73:224|73:224|35:211,1,80,2|8,1:3|0:3,0:0:0:0:
5,182,8395,1,8,1:3:0:0:
5,182,8486,2,0,B|-4:155|-4:155|10:101,1,80,2|0,1:2|0:0,0:0:0:0:
162,0,8849,1,2,1:3:0:0:
76,142,9031,1,0,0:0:0:0:
0,57,9213,6,0,L|82:51,1,80,2|0,1:2|0:0,0:0:0:0:
187,167,9576,2,0,L|181:249,1,80,2|0,1:3|0:0,0:0:0:0:
175,334,9940,5,2,1:2:0:0:
316,126,10122,1,2,1:2:0:0:
160,46,10304,1,2,0:3:0:0:
416,53,10486,6,0,B|384:59|384:59|326:38|326:38|254:55,1,160,4|2,1:2|1:2,0:0:0:0:
168,151,11031,2,0,P|157:189|165:227,1,80,2|8,1:3|0:3,0:0:0:0:
172,238,11304,1,8,0:3:0:0:
181,246,11395,1,0,1:0:0:0:
423,253,11576,1,2,0:0:0:0:
322,185,11758,2,0,L|243:193,1,80,2|2,1:3|0:0,0:0:0:0:
74,155,12122,5,0,1:2:0:0:
74,155,12213,2,0,B|59:134|59:134|72:51,1,80,2|0,0:0|0:0,0:0:0:0:
133,33,12486,2,0,B|148:54|148:54|135:137,1,80,2|0,1:3|0:0,0:0:0:0:
245,170,12849,5,2,1:2:0:0:
394,112,13031,1,2,1:2:0:0:
245,170,13213,1,2,0:3:0:0:
456,254,13395,1,6,1:2:0:0:
456,254,13758,5,2,1:2:0:0:
278,316,13940,2,0,L|357:311,1,80,2|8,1:3|0:3,0:0:0:0:
357,312,14213,1,8,0:3:0:0:
357,312,14304,1,0,1:0:0:0:
216,216,14486,5,8,1:3:0:0:
113,261,14667,2,0,B|105:243|105:243|115:183,1,80,2|2,1:3|0:0,0:0:0:0:
305,38,15031,5,6,1:2:0:0:
216,216,15213,1,2,0:0:0:0:
179,123,15395,2,0,B|218:115|218:115|286:132,1,80,0|2,1:3|0:0,0:0:0:0:
317,315,15758,1,0,1:0:0:0:
437,212,15940,1,8,0:3:0:0:
456,212,16030,1,8,0:3:0:0:
476,212,16121,1,2,1:3:0:0:
453,346,16304,5,4,1:0:0:0:
453,346,16667,1,4,1:0:0:0:
453,346,17031,5,4,1:0:0:0:
453,346,17122,1,8,0:3:0:0:
453,346,17213,1,8,1:3:0:0:
361,258,17395,1,4,1:0:0:0:
361,258,17486,2,0,L|365:133,1,120,2|8,0:0|0:3,0:0:0:0:
391,66,17849,1,0,0:0:0:0:
391,66,17940,6,0,B|361:61|361:61|332:68,1,60.0000022888184,2|2,1:2|0:0,1:0:0:0:
227,209,18304,1,2,1:2:0:0:
227,209,18486,2,0,B|257:214|257:214|286:207,1,60.0000022888184,2|0,0:0|1:0,1:0:0:0:
68,171,18849,2,0,L|67:250,1,60.0000022888184,2|0,0:0|1:0,0:0:0:0:
214,307,19213,1,2,0:0:0:0:
166,104,19395,6,0,L|167:24,1,60.0000022888184,2|2,1:2|0:0,0:0:0:0:
38,245,19758,2,0,B|67:254|67:254|113:241,1,60.0000022888184,2|2,1:2|0:0,0:0:0:0:
292,171,20122,1,0,1:0:0:0:
292,171,20213,1,0,0:0:0:0:
292,171,20304,2,0,B|281:199|281:199|295:246,1,60.0000022888184,2|0,0:0|1:0,0:0:0:0:
439,111,20667,1,0,0:0:0:0:
325,304,20849,6,0,B|296:312|296:312|267:303,1,60.0000022888184,2|2,1:2|0:0,0:0:0:0:
267,92,21213,1,2,1:2:0:0:
411,180,21395,2,0,B|440:189|440:189|468:180,1,60.0000022888184,2|0,0:2|1:0,0:0:0:0:
245,272,21758,2,0,L|244:331,1,60.0000022888184,2|0,0:0|1:0,0:0:0:0:
213,149,22122,1,2,0:0:0:0:
95,186,22304,6,0,L|95:126,1,60.0000022888184,2|2,1:2|0:0,0:0:0:0:
262,19,22667,2,0,B|271:48|271:48|258:94,1,60.0000022888184,2|2,1:2|0:0,0:0:0:0:
71,277,23031,1,0,1:0:0:0:
71,277,23122,1,0,0:0:0:0:
71,277,23213,2,0,B|99:288|99:288|146:274,1,60.0000022888184,2|0,0:0|1:0,0:0:0:0:
323,175,23576,1,2,0:0:0:0:
279,314,23758,5,2,1:2:0:0:
166,280,23940,1,2,0:2:0:0:
279,314,24122,1,2,1:2:0:0:
153,169,24304,1,2,0:2:0:0:
279,314,24486,1,2,1:2:0:0:
279,314,24576,1,0,0:0:0:0:
279,314,24667,1,2,0:0:0:0:
417,243,24849,2,0,B|432:216|432:216|426:161,1,60.0000022888184,2|2,1:2|0:0,0:0:0:0:
390,35,25213,5,2,1:2:0:0:
351,200,25395,1,2,0:2:0:0:
262,115,25576,1,2,1:2:0:0:
233,234,25758,2,0,P|179:239|154:241,1,60.0000022888184,2|0,0:0|1:0,0:0:0:0:
128,224,26031,1,0,0:0:0:0:
128,224,26122,2,0,P|158:221|188:219,1,60.0000022888184,2|0,0:0|1:0,0:0:0:0:
167,330,26486,1,2,0:0:0:0:
163,143,26667,6,0,L|164:68,1,60.0000022888184,0|2,1:2|0:0,0:0:0:0:
165,4,27031,1,0,1:0:0:0:
281,206,27213,2,0,P|307:193|337:190,1,60.0000022888184,0|0,0:0|1:0,0:0:0:0:
349,193,27486,1,0,0:0:0:0:
360,199,27577,1,2,0:0:0:0:
150,296,27758,2,0,L|150:233,1,60.0000022888184,2|0,1:2|0:0,0:0:0:0:
279,7,28122,5,4,1:2:0:0:
264,167,28304,1,0,0:0:0:0:
178,28,28486,1,0,1:0:0:0:
328,91,28667,1,0,0:0:0:0:
171,127,28849,2,0,L|31:121,1,120.000004577637,6|8,1:2|1:3,0:0:0:0:
51,121,29395,1,8,1:3:0:0:
137,293,29576,6,0,P|168:281|227:283,1,68.0000012969971,4|0,1:0|0:0,0:0:0:0:
351,328,29940,2,0,B|360:314|360:314|348:244,1,68.0000012969971,0|0,1:0|0:0,0:0:0:0:
171,127,30304,1,2,1:2:0:0:
324,54,30485,1,0,0:0:0:0:
284,167,30667,1,0,1:0:0:0:
211,14,30849,1,0,0:0:0:0:
284,167,31031,6,0,L|284:257,1,68.0000012969971,2|0,1:2|0:0,0:0:0:0:
284,235,31304,1,0,0:0:0:0:
284,235,31395,1,2,1:2:0:0:
156,164,31576,1,2,0:2:0:0:
69,297,31758,2,0,L|-22:292,1,68.0000012969971,0|0,1:0|0:0,0:0:0:0:
156,164,32122,1,2,1:2:0:0:
269,259,32304,1,2,0:0:0:0:
75,197,32486,6,0,B|67:162|67:162|78:120,1,68.0000012969971,4|0,1:0|0:0,0:0:0:0:
258,97,32849,2,0,P|285:75|335:70,1,68.0000012969971,0|0,1:0|0:0,0:0:0:0:
258,333,33213,1,2,1:2:0:0:
150,231,33395,2,0,L|156:164,1,68.0000012969971,0|0,0:0|1:0,0:0:0:0:
258,97,33758,1,0,0:0:0:0:
150,231,33940,5,2,1:2:0:0:
339,124,34122,2,0,B|349:112|349:112|338:52,1,68.0000012969971,0|2,0:0|1:2,0:0:0:0:
112,18,34486,1,2,0:0:0:0:
129,16,34576,1,0,0:0:0:0:
146,14,34667,1,0,1:2:0:0:
258,97,34849,1,0,0:0:0:0:
150,231,35031,1,2,1:2:0:0:
237,7,35213,1,2,0:2:0:0:
150,231,35395,6,0,L|56:225,1,68.0000012969971,4|0,1:2|0:0,0:0:0:0:
257,330,35758,1,0,1:0:0:0:
309,114,35940,1,0,0:0:0:0:
234,64,36122,6,0,P|218:116|224:147,1,68.0000012969971,2|0,1:2|0:0,0:0:0:0:
225,143,36395,1,0,0:0:0:0:
234,153,36486,1,0,1:0:0:0:
413,99,36667,1,0,0:0:0:0:
309,205,36849,6,0,L|307:295,1,68.0000012969971,4|2,1:2|0:0,0:0:0:0:
436,357,37213,2,0,L|437:289,1,68.0000012969971,0|2,1:0|0:0,0:0:0:0:
309,114,37576,1,0,1:0:0:0:
176,293,37758,1,2,0:0:0:0:
176,293,37849,1,2,0:0:0:0:
176,293,37940,1,0,1:0:0:0:
91,150,38122,1,2,0:0:0:0:
191,91,38304,6,0,L|183:199,1,102.000001945496,4|0,1:2|0:0,0:0:0:0:
190,208,38667,2,0,L|278:194,1,68.0000012969971,0|0,1:0|0:0,0:0:0:0:
328,312,39031,2,0,P|381:325|407:331,1,68.0000012969971,4|0,1:2|0:0,0:0:0:0:
482,98,39395,1,0,1:0:0:0:
211,320,39576,1,0,0:0:0:0:
301,85,39758,6,0,L|292:221,1,136.000002593994,4|0,1:2|1:2,0:0:0:0:
133,349,40304,1,0,0:0:0:0:
133,349,40395,1,0,0:0:0:0:
133,349,40486,2,0,B|129:344|129:344|137:284,1,68.0000012969971,4|0,1:2|0:0,0:0:0:0:
242,178,40849,2,0,P|252:140|230:98,1,68.0000012969971,4|0,1:2|0:0,0:0:0:0:
2,25,41213,5,0,1:0:0:0:
230,100,41395,1,0,1:0:0:0:
230,100,41758,5,0,1:0:0:0:
72,213,41940,2,0,L|62:321,1,95.9999970703126,0|0,1:0|0:0,1:0:0:0:
184,380,42486,5,0,1:0:0:0:
184,380,42849,1,0,1:0:0:0:
184,380,43213,1,0,1:0:0:0:
184,380,43304,1,0,1:0:0:0:
184,380,43395,2,0,L|250:376,1,47.9999985351563,0|2,1:0|0:0,0:0:0:0:
403,289,43758,2,0,L|337:293,1,47.9999985351563,0|2,0:0|0:0,0:0:0:0:
236,218,44122,5,0,1:0:0:0:
282,4,44304,1,0,1:0:0:0:
236,218,44667,5,0,1:0:0:0:
263,26,44849,2,0,B|254:13|254:13|164:20,1,95.9999970703126,0|0,1:0|0:0,0:0:0:0:
11,155,45395,5,0,1:0:0:0:
147,315,45758,1,0,1:0:0:0:
217,118,46122,1,0,1:0:0:0:
217,118,46213,1,0,0:0:0:0:
217,118,46304,1,0,1:0:0:0:
90,250,46486,1,0,0:0:0:0:
80,269,46576,1,0,0:0:0:0:
70,288,46667,1,0,1:0:0:0:
61,308,46758,1,0,0:0:0:0:
63,327,46849,1,0,0:0:0:0:
71,347,46940,1,0,0:0:0:0:
80,368,47031,5,0,1:0:0:0:
348,341,47213,1,0,1:0:0:0:
348,341,47576,5,0,1:0:0:0:
198,245,47758,2,0,L|206:137,1,95.9999970703126,0|0,1:0|0:0,0:0:0:0:
312,55,48304,5,0,1:0:0:0:
312,55,48667,1,0,1:0:0:0:
312,55,49031,1,0,1:0:0:0:
312,55,49122,1,0,1:0:0:0:
312,55,49213,2,0,L|382:48,1,47.9999985351563,0|2,1:0|0:0,0:0:0:0:
476,169,49576,2,0,L|406:176,1,47.9999985351563,0|2,0:0|0:0,0:0:0:0:
284,181,49940,5,0,1:0:0:0:
307,376,50122,1,0,1:0:0:0:
284,181,50486,5,0,1:0:0:0:
276,362,50667,2,0,L|167:360,1,95.9999970703126,0|0,1:0|0:0,0:0:0:0:
89,98,51213,5,0,1:0:0:0:
224,258,51576,1,0,1:0:0:0:
295,60,51939,1,0,1:0:0:0:
295,60,52031,1,0,1:0:0:0:
295,60,52122,2,0,L|288:105,1,23.9999992675781,0|0,1:0|0:0,0:0:0:0:
276,200,52304,1,0,1:0:0:0:
276,200,52395,1,0,0:0:0:0:
276,200,52486,1,0,1:0:0:0:
302,208,52576,1,0,0:0:0:0:
329,217,52667,1,0,1:0:0:0:
357,227,52758,1,0,0:0:0:0:
384,236,52849,6,0,P|394:281|370:332,1,80,4|0,1:0|0:0,0:0:0:0:
178,382,53213,2,0,B|166:363|166:363|175:300,1,80,2|0,1:3|0:0,0:0:0:0:
179,274,53486,1,0,0:0:0:0:
179,274,53576,1,2,1:3:0:0:
206,132,53758,1,0,0:0:0:0:
278,330,53940,1,2,1:3:0:0:
122,163,54122,1,2,0:0:0:0:
122,163,54213,1,0,0:0:0:0:
122,163,54304,6,0,B|112:142|112:142|133:51,1,80,2|2,1:3|0:0,0:0:0:0:
297,0,54667,1,2,1:3:0:0:
183,76,54849,2,0,L|104:81,1,80,2|2,0:0|1:3,0:0:0:0:
365,124,55213,1,2,0:0:0:0:
365,124,55304,1,0,0:0:0:0:
365,124,55395,1,2,1:3:0:0:
223,237,55576,1,0,1:0:0:0:
124,86,55758,6,0,L|131:-10,1,80,4|0,1:0|0:0,0:0:0:0:
238,249,56122,1,2,1:3:0:0:
269,71,56304,1,0,0:0:0:0:
74,192,56486,2,0,L|181:182,1,80,2|2,1:3|0:0,0:0:0:0:
365,124,56849,1,2,1:3:0:0:
278,223,57031,6,0,L|268:358,1,120,2|2,0:2|0:0,0:0:0:0:
267,382,57395,1,2,0:0:0:0:
142,214,57576,2,0,B|158:175|158:175|134:126,1,80,2|0,1:3|0:0,0:0:0:0:
3,177,57849,1,0,1:0:0:0:
3,177,57940,2,0,B|36:194|36:194|75:178,1,80,2|0,1:3|0:0,0:0:0:0:
346,70,58304,1,2,1:3:0:0:
219,289,58486,1,0,0:0:0:0:
72,177,58667,6,0,L|151:171,1,80,4|0,1:0|0:0,0:0:0:0:
389,228,59031,2,0,B|359:234|359:234|294:223,1,80,4|0,1:0|0:0,0:0:0:0:
240,47,59395,1,2,1:3:0:0:
145,243,59576,2,0,L|140:338,1,80,2|2,0:0|1:3,0:0:0:0:
239,158,59940,6,0,P|305:132|397:178,1,160,4|2,0:0|0:0,0:0:0:0:
305,301,60486,1,2,1:3:0:0:
138,199,60667,2,0,B|130:189|130:189|143:124,1,80,2|2,0:0|1:3,0:0:0:0:
240,47,61031,1,0,1:0:0:0:
240,47,61122,1,0,0:0:0:0:
240,47,61213,1,2,1:3:0:0:
197,297,61395,1,0,1:0:0:0:
138,199,61576,5,4,1:2:0:0:
163,191,61667,1,2,0:0:0:0:
189,184,61758,1,2,0:0:0:0:
214,176,61849,1,0,0:0:0:0:
241,191,61940,5,0,1:0:0:0:
261,157,62030,1,0,0:0:0:0:
299,149,62121,1,2,0:0:0:0:
331,171,62212,1,2,0:0:0:0:
338,210,62304,6,0,L|327:271,1,40,4|0,1:2|0:0,0:0:0:0:
412,359,62486,2,0,L|419:319,1,40,4|0,1:2|0:0,0:0:0:0:
501,199,62667,2,0,L|509:160,1,40,4|0,1:2|0:0,0:0:0:0:
419,319,62849,6,0,B|412:359|412:359|352:384|283:371,1,143.999995605469,4|0,1:2|0:0,0:0:0:0:
342,295,63213,2,0,B|362:245|338:210|338:210|269:234,1,143.999995605469,4|0,1:2|0:0,0:0:0:0:
256,310,63576,1,4,1:2:0:0:
161,104,63758,5,4,1:2:0:0:
187,86,63848,1,0,0:0:0:0:
218,78,63939,1,0,1:0:0:0:
250,82,64030,1,0,0:0:0:0:
278,97,64121,1,4,1:2:0:0:
299,121,64212,1,0,0:0:0:0:
310,151,64303,1,4,1:2:0:0:
310,183,64394,1,0,0:0:0:0:
285,221,64486,6,0,L|280:300,1,80,4|0,1:0|0:0,0:0:0:0:
106,380,64849,1,2,1:3:0:0:
149,212,65031,2,0,B|133:194|133:194|149:120,1,80,0|0,0:0|1:0,0:0:0:0:
259,19,65395,1,0,1:0:0:0:
225,311,65576,1,2,1:3:0:0:
59,187,65758,6,0,L|223:170,1,160,4|0,1:0|1:0,0:0:0:0:
395,225,66304,2,0,P|380:161|399:123,1,80,2|0,1:3|0:0,0:0:0:0:
396,132,66576,1,0,1:0:0:0:
411,119,66667,1,0,1:0:0:0:
512,314,66849,1,0,1:0:0:0:
263,284,67031,2,0,L|390:271,1,120,2|0,1:3|0:0,0:0:0:0:
414,270,67395,5,0,1:0:0:0:
200,104,67576,1,0,0:0:0:0:
140,222,67758,2,0,L|133:325,1,80,2|0,1:3|0:0,0:0:0:0:
207,374,68122,5,0,1:0:0:0:
200,104,68304,1,0,1:0:0:0:
35,165,68486,1,2,1:3:0:0:
144,31,68667,6,0,B|190:16|190:16|255:32|255:32|325:24,1,160,4|0,1:0|1:0,0:0:0:0:
290,273,69213,1,2,1:3:0:0:
448,141,69395,1,0,1:0:0:0:
448,141,69486,1,0,1:0:0:0:
448,141,69576,1,0,1:0:0:0:
290,273,69758,1,0,0:1:0:0:
206,221,69940,2,0,B|194:258|194:258|197:315,1,80,2|0,1:3|0:0,0:0:0:0:
196,299,70213,1,0,1:0:0:0:
196,299,70304,5,0,1:0:0:0:
429,363,70486,1,0,0:0:0:0:
369,267,70667,2,0,L|289:273,1,80,2|0,1:3|0:0,0:0:0:0:
101,247,71031,1,0,1:0:0:0:
101,86,71213,1,0,1:0:0:0:
101,86,71304,1,0,1:0:0:0:
101,86,71395,1,2,1:3:0:0:
164,204,71576,6,0,P|179:253|160:293,1,80,4|0,1:1|0:0,0:0:0:0:
0,384,71940,2,0,L|6:304,1,80,4|2,1:0|1:3,0:0:0:0:
230,78,72304,1,0,1:0:0:0:
230,78,72395,1,0,1:0:0:0:
230,78,72486,1,0,1:0:0:0:
101,248,72667,1,0,0:0:0:0:
5,170,72849,2,0,L|149:162,1,120,2|0,1:3|0:0,0:0:0:0:
165,163,73213,5,0,1:0:0:0:
115,369,73395,1,0,0:0:0:0:
244,210,73576,2,0,B|256:173|256:173|243:109,1,80,2|0,1:3|0:0,0:0:0:0:
211,24,73940,1,0,1:0:0:0:
19,42,74122,2,0,L|98:35,1,80,0|2,1:0|1:3,0:0:0:0:
332,8,74486,5,4,1:0:0:0:
332,8,74849,1,4,1:0:0:0:
332,8,75213,1,0,1:0:0:0:
332,8,75304,1,0,1:0:0:0:
332,8,75395,1,0,1:0:0:0:
243,128,75576,2,0,L|232:321,1,160,4|0,1:0|1:0,0:0:0:0:
199,267,76031,1,0,0:0:0:0:
199,267,76122,6,0,L|108:276,1,80,4|0,1:0|0:0,0:0:0:0:
40,162,76485,1,2,1:3:0:0:
292,212,76667,2,0,B|314:196|314:196|391:207,1,80,0|0,0:0|1:0,0:0:0:0:
486,374,77031,1,0,1:0:0:0:
331,284,77213,1,2,1:3:0:0:
419,189,77395,6,0,P|445:141|412:40,1,160,4|0,1:0|1:0,0:0:0:0:
209,86,77940,2,0,L|289:86,1,80,2|0,1:3|1:0,0:0:0:0:
289,86,78213,1,0,1:0:0:0:
289,86,78304,1,0,1:0:0:0:
213,295,78486,1,0,0:0:0:0:
99,170,78667,2,0,L|119:31,1,120,2|0,1:3|0:0,0:0:0:0:
121,11,79031,5,4,1:0:0:0:
173,304,79213,1,0,0:0:0:0:
12,237,79395,2,0,L|109:227,1,80,2|0,1:3|0:0,0:0:0:0:
235,18,79758,1,0,1:0:0:0:
200,214,79940,1,0,1:0:0:0:
235,18,80122,1,2,1:3:0:0:
309,291,80304,6,0,B|381:304|397:273|469:294,1,160,4|4,1:0|1:0,1:0:0:0:
512,117,80849,1,0,1:3:0:0:
350,202,81031,1,0,1:0:0:0:
350,202,81122,1,0,1:0:0:0:
350,202,81213,1,0,1:0:0:0:
423,369,81395,1,0,1:0:0:0:
393,115,81576,2,0,B|377:106|377:106|320:125|309:112,1,80,2|0,1:3|0:0,0:0:0:0:
226,88,81849,1,0,1:0:0:0:
226,88,81940,6,0,B|237:121|237:121|236:174|208:198|208:198|199:218,1,120,4|0,1:0|0:0,0:0:0:0:
132,160,82304,2,0,B|34:171|34:171|47:135,1,120,2|0,1:3|0:0,0:0:0:0:
2,78,82667,1,0,1:0:0:0:
326,192,82849,1,0,1:0:0:0:
130,339,83031,1,2,1:3:0:0:
98,152,83213,6,0,P|86:108|123:30,1,120,4|0,1:0|0:0,0:0:0:0:
142,15,83576,1,0,1:0:0:0:
326,192,83758,2,0,L|311:297,1,80,2|0,1:3|1:0,0:0:0:0:
314,271,84031,1,0,1:0:0:0:
314,271,84122,1,0,1:3:0:0:
119,216,84304,1,0,1:0:0:0:
305,70,84486,1,2,1:3:0:0:
221,205,84667,1,0,1:0:0:0:
76,133,84849,6,0,L|71:47,1,80,6|2,1:0|0:0,0:0:0:0:
46,301,85213,1,2,1:3:0:0:
191,225,85395,2,0,L|300:219,1,80,6|0,1:0|0:0,0:0:0:0:
310,219,85667,1,2,0:0:0:0:
310,219,85758,1,2,1:0:0:0:
383,370,85940,1,2,1:3:0:0:
426,107,86122,6,0,B|421:72|421:72|330:135,1,120,6|0,1:0|0:0,0:0:0:0:
253,169,86486,2,0,B|274:141|274:141|320:242,1,120,6|0,1:0|0:0,0:0:0:0:
347,295,86849,1,2,1:0:0:0:
347,295,86940,1,0,1:0:0:0:
347,295,87031,1,2,1:0:0:0:
92,221,87213,5,2,1:0:0:0:
97,191,87303,1,0,0:0:0:0:
102,161,87394,1,0,1:0:0:0:
107,132,87485,1,0,0:0:0:0:
112,102,87576,1,6,1:0:0:0:
256,192,87667,12,0,88486,0:0:0:0:
