osu file format v14

[General]
AudioFilename: fripSide Lum.mp3
AudioLeadIn: 1500
PreviewTime: 64308
Countdown: 0
SampleSet: Soft
StackLeniency: 0.7
Mode: 0
LetterboxInBreaks: 0
WidescreenStoryboard: 0

[Editor]
Bookmarks: 59701
DistanceSpacing: 1.2
BeatDivisor: 4
GridSize: 4
TimelineZoom: 1

[Metadata]
Title:Luminize
TitleUnicode:Luminize
Artist:fripSide
ArtistUnicode:fripSide
Creator:CrystilonZ
Version:Hard
Source:フューチャーカード バディファイトハンドレッド
Tags:Future Card Buddyfight Hundred Bushiroad Nanjou Yoshino Yaginuma Satoshi 南條愛乃 八木沼悟志 tv size opening
BeatmapID:674830
BeatmapSetID:300922

[Difficulty]
HPDrainRate:5.5
CircleSize:4
OverallDifficulty:6
ApproachRate:7
SliderMultiplier:1.5
SliderTickRate:2

[Events]
//Background and Video events
0,0,"BG.jpg",0,0
Video,-40,"Vid.avi"
//Break Periods
//Storyboard Layer 0 (Background)
//Storyboard Layer 1 (Fail)
//Storyboard Layer 2 (Pass)
//Storyboard Layer 3 (Foreground)
//Storyboard Sound Samples

[TimingPoints]
987,428.571428571429,4,2,1,70,1,0
7844,-100,4,2,1,75,0,1
8808,-100,4,2,2,75,0,1
8915,-100,4,2,1,75,0,1
10415,-100,4,2,2,75,0,1
10522,-100,4,2,1,75,0,1
11487,-100,4,2,3,75,0,1
11594,-100,4,2,1,75,0,1
15558,-100,4,2,2,75,0,1
15665,-100,4,2,1,75,0,1
16415,-100,4,2,1,70,0,0
16629,-100,4,2,3,70,0,0
16737,-100,4,2,1,70,0,0
20058,-100,4,2,3,70,0,0
20165,-100,4,2,1,70,0,0
20808,-100,4,2,2,70,0,0
20915,-100,4,2,1,70,0,0
22629,-100,4,2,3,70,0,0
22737,-100,4,2,1,70,0,0
26915,-100,4,2,3,70,0,0
27022,-100,4,2,1,70,0,0
27772,-100,4,2,3,70,0,0
27879,-100,4,2,1,70,0,0
33558,-100,4,2,1,60,0,0
39558,-100,4,2,1,70,0,0
47701,-100,4,2,3,70,0,0
47808,-100,4,2,1,70,0,0
49415,-100,4,2,3,70,0,0
49629,-100,4,2,1,70,0,0
51772,-100,4,2,2,70,0,0
51879,-100,4,2,1,70,0,0
51987,-100,4,2,3,70,0,0
52201,-100,4,2,1,70,0,0
52844,-100,4,2,3,70,0,0
53058,-100,4,2,1,70,0,0
54558,-100,4,2,3,70,0,0
54772,-100,4,2,1,70,0,0
64415,-100,4,2,1,75,0,1
65379,-100,4,2,2,75,0,1
65487,-100,4,2,1,75,0,1
68915,-100,4,2,3,75,0,1
69022,-100,4,2,1,75,0,1
69129,-100,4,2,2,75,0,1
69344,-100,4,2,1,75,0,1
71165,-100,4,2,1,75,0,0
71272,-100,4,2,1,75,0,1
72237,-100,4,2,2,75,0,1
72344,-100,4,2,1,75,0,1
73201,-100,4,2,3,75,0,1
73415,-100,4,2,1,75,0,1
74915,-100,4,2,3,75,0,1
75129,-100,4,2,1,75,0,1
75772,-100,4,2,3,75,0,1
75879,-100,4,2,1,75,0,1
75987,-100,4,2,2,75,0,1
76201,-100,4,2,1,75,0,1
77058,-100,4,2,1,75,0,1
78129,-100,4,2,1,75,0,0
79094,-100,4,2,2,75,0,0
79201,-100,4,2,1,75,0,0
80808,-100,4,2,2,75,0,0
80915,-100,4,2,1,75,0,0
81772,-100,4,2,3,75,0,0
81987,-100,4,2,1,75,0,0
82629,-100,4,2,3,75,0,0
82844,-100,4,2,1,75,0,0
85415,-100,4,2,2,75,0,0
85629,-100,4,2,1,75,0,0

[Colours]
Combo1 : 96,0,202
Combo2 : 111,111,111
Combo3 : 255,51,56
Combo4 : 215,123,0
Combo5 : 255,192,0
Combo6 : 228,228,228
Combo7 : 0,97,176

[HitObjects]
145,64,130,5,4,0:0:0:0:
217,116,344,2,0,P|251:181|217:245,1,150,8|2,0:0|0:0,0:0:0:0:
155,182,987,6,0,L|315:182,1,150,4|8,0:0|0:0,0:0:0:0:
368,245,1629,1,2,0:0:0:0:
368,245,1737,1,0,0:0:0:0:
368,245,1844,2,0,P|401:180|368:116,1,150,8|2,0:0|0:0,0:0:0:0:
304,52,2487,1,10,0:0:0:0:
304,52,2701,6,0,P|372:28|452:80,1,150,4|8,0:0|0:0,0:0:0:0:
496,136,3344,1,0,0:0:0:0:
496,136,3451,1,2,0:0:0:0:
496,136,3558,2,0,P|476:207|500:296,1,150,8|8,0:0|0:0,0:0:0:0:
416,328,4201,1,2,0:0:0:0:
366,253,4415,6,0,B|324:288|328:332|328:332|264:352,1,150,4|8,0:0|0:0,0:0:0:0:
196,300,5058,2,0,L|104:328,1,75,8|2,0:0|0:0,0:0:0:0:
84,300,5379,2,0,P|88:248|64:208,1,75,2|2,0:0|0:0,0:0:0:0:
56,192,5701,2,0,L|127:170,1,75,8|2,0:0|0:0,0:0:0:0:
148,84,6129,5,4,0:0:0:0:
183,72,6236,1,2,0:0:0:0:
219,61,6344,2,0,L|264:44,3,37.5,2|8|2|2,0:0|0:0|0:0|0:0,0:0:0:0:
296,64,6772,2,0,L|367:42,1,75,8|8,0:0|0:0,0:0:0:0:
484,112,7308,5,2,0:0:0:0:
484,112,7415,1,12,0:0:0:0:
436,188,7629,1,8,0:0:0:0:
436,188,7737,1,2,0:0:0:0:
436,188,7844,6,0,P|420:240|436:284,1,75,4|2,0:0|0:0,0:0:0:0:
448,344,8272,2,0,L|344:332,1,75,8|8,0:0|0:0,0:0:0:0:
340,364,8594,2,0,P|308:320|240:316,1,112.5,2|2,0:0|0:0,0:0:0:0:
164,332,9129,1,8,0:0:0:0:
192,244,9344,2,0,P|200:188|188:148,1,75,0|6,0:0|0:0,0:0:0:0:
160,88,9772,5,2,0:0:0:0:
88,32,9987,2,0,P|68:80|88:144,2,112.5,8|2|2,0:0|0:0|0:0,0:0:0:0:
160,88,10844,2,0,P|208:80|244:96,1,75,8|0,0:0|0:0,0:0:0:0:
304,144,11272,6,0,B|340:96|312:40|312:40|376:44,1,150,6|8,0:0|0:0,0:0:0:0:
440,52,11915,1,2,0:0:0:0:
512,108,12129,2,0,B|480:140|440:140|440:140|424:188,1,112.5,4|0,0:0|0:0,0:0:0:0:
404,208,12558,2,0,L|380:288,1,75,8|0,0:0|0:0,0:0:0:0:
320,344,12987,6,0,P|268:328|208:344,1,112.5,4|2,0:0|0:0,0:0:0:0:
84,308,13629,2,0,P|116:252|180:220,1,112.5,2|2,0:0|0:0,0:0:0:0:
288,200,14272,1,2,0:0:0:0:
208,156,14487,1,8,0:0:0:0:
284,108,14701,5,8,0:0:0:0:
284,108,14808,2,0,P|344:124|364:152,1,75,6|0,0:0|0:0,0:0:0:0:
380,164,15129,2,0,L|392:36,2,112.5,6|6|6,0:0|0:0|0:0,0:0:0:0:
468,144,15987,2,0,L|460:228,1,75,8|2,0:0|0:0,0:0:0:0:
460,308,16415,6,0,B|400:304|376:252|376:252|372:296,1,150,6|8,0:0|0:0,0:0:0:0:
316,364,17058,1,0,0:0:0:0:
316,364,17165,2,0,P|276:344|200:364,1,112.5,2|2,0:0|0:0,0:0:0:0:
132,308,17701,2,0,P|172:272|208:264,1,75,8|0,0:0|0:0,0:0:0:0:
279,256,18129,6,0,P|270:220|243:194,1,75,6|2,0:0|0:0,0:0:0:0:
156,176,18558,2,0,L|208:68,2,112.5,8|2|2,0:0|0:0|0:0,0:0:0:0:
244,195,19415,1,8,0:0:0:0:
284,116,19629,1,0,0:0:0:0:
280,24,19844,6,0,P|336:36|376:120,1,150,4|8,0:0|0:0,0:0:0:0:
348,200,20487,1,0,0:0:0:0:
348,200,20594,2,0,L|472:188,1,112.5,2|2,0:0|0:0,0:0:0:0:
496,272,21129,2,0,L|404:284,1,75,8|0,0:0|0:0,0:0:0:0:
332,288,21558,6,0,B|292:276|272:244|272:244|228:316,1,150,6|8,0:0|0:0,0:0:0:0:
140,304,22201,1,8,0:0:0:0:
140,304,22308,1,2,0:0:0:0:
140,304,22415,2,0,L|222:178,1,150,2|8,0:0|0:0,0:0:0:0:
116,32,23272,6,0,L|64:112,1,75,6|2,0:0|0:0,0:0:0:0:
128,168,23701,2,0,P|68:188|24:168,2,112.5,8|2|2,0:0|0:0|0:0,0:0:0:0:
188,100,24558,2,0,L|228:37,1,75,8|0,0:0|0:0,0:0:0:0:
320,36,24987,6,0,P|356:64|408:68,1,75,6|2,0:0|0:0,0:0:0:0:
456,128,25415,2,0,P|480:80|456:20,2,112.5,8|2|2,0:0|0:0|0:0,0:0:0:0:
380,176,26272,2,0,P|416:216|448:220,1,75,8|0,0:0|0:0,0:0:0:0:
388,296,26701,6,0,P|328:256|304:200,1,112.5,6|0,0:0|0:0,0:0:0:0:
296,180,27129,2,0,L|224:236,1,75,8|0,0:0|0:0,0:0:0:0:
152,260,27558,2,0,B|136:204|168:172|168:172|220:132,1,150,6|8,0:0|0:0,0:0:0:0:
228,48,28201,1,0,0:0:0:0:
144,76,28415,6,0,L|84:121,1,75,6|2,0:0|0:0,0:0:0:0:
40,200,28844,2,0,P|32:256|52:296,1,75,8|0,0:0|0:0,0:0:0:0:
88,344,29272,2,0,L|128:360,3,37.5,2|8|8|2,0:0|0:0|0:0|0:0,0:0:0:0:
168,368,29701,2,0,P|212:344|252:336,1,75,8|2,0:0|0:0,0:0:0:0:
324,344,30129,5,6,0:0:0:0:
447,289,30451,1,6,0:0:0:0:
338,209,30772,1,4,0:0:0:0:
401,351,31094,1,6,0:0:0:0:
415,217,31416,5,6,0:0:0:0:
472,148,31629,1,6,0:0:0:0:
388,104,31844,2,0,P|432:60|496:56,2,112.5,6|6|14,0:0|0:0|0:0,0:0:0:0:
367,280,32915,2,0,P|331:284|295:272,1,75,2|8,0:0|0:0,0:0:0:0:
244,196,33344,1,2,0:0:0:0:
187,128,33558,6,0,P|154:171|160:226,2,112.5,4|8|2,0:0|0:0|0:0,0:0:0:0:
188,128,34629,1,2,0:0:0:0:
244,196,34844,1,0,0:0:0:0:
228,284,35058,1,0,0:0:0:0:
144,316,35272,6,0,P|88:284|68:224,2,112.5,2|2|8,0:0|0:0|0:0,0:0:0:0:
144,316,36344,1,2,0:0:0:0:
161,226,36558,1,0,0:0:0:0:
100,156,36772,1,0,0:0:0:0:
116,68,36987,6,0,P|60:76|16:124,2,112.5,2|8|10,0:0|0:0|0:0,0:0:0:0:
116,68,38058,1,0,0:0:0:0:
188,128,38272,1,8,0:0:0:0:
256,68,38487,1,2,0:0:0:0:
324,128,38701,6,0,P|344:92|332:16,2,112.5,2|8|2,0:0|0:0|0:0,0:0:0:0:
256,188,39558,2,0,P|236:224|248:300,2,112.5,10|10|2,0:0|0:0|0:0,0:0:0:0:
340,216,40415,6,0,P|376:204|404:160,1,75,6|2,0:0|0:0,0:0:0:0:
404,84,40844,2,0,P|456:104|488:160,2,112.5,8|2|2,0:0|0:0|0:0,0:0:0:0:
324,128,41701,1,8,0:0:0:0:
256,188,41915,1,0,0:0:0:0:
272,276,42129,6,0,P|236:276|192:248,1,75,2|2,0:0|0:0,0:0:0:0:
136,196,42558,1,8,0:0:0:0:
192,125,42772,2,0,P|212:84|208:40,1,75,2|0,0:0|0:0,0:0:0:0:
126,63,43201,1,0,0:0:0:0:
68,132,43415,1,8,0:0:0:0:
136,196,43629,1,0,0:0:0:0:
68,132,43844,6,0,P|40:192|44:216,1,75,6|2,0:0|0:0,0:0:0:0:
52,288,44272,2,0,P|80:340|128:360,1,112.5,8|2,0:0|0:0,0:0:0:0:
164,344,44701,2,0,L|208:340,3,37.5,2|8|2|0,0:0|0:0|0:0|0:0,0:0:0:0:
248,352,45129,2,0,B|288:356|288:356|320:336,1,75,8|2,0:0|0:0,0:0:0:0:
292,248,45558,6,0,P|352:252|396:284,2,112.5,6|6|6,0:0|0:0|0:0,0:0:0:0:
204,224,46415,2,0,L|228:180,3,37.5,6|8|8|2,0:0|0:0|0:0|0:0,0:0:0:0:
256,160,46844,2,0,L|312:152,3,37.5,2|8|8|2,0:0|0:0|0:0|0:0,0:0:0:0:
336,148,47272,6,0,P|376:128|408:56,2,112.5,4|0|8,0:0|0:0|0:0,0:0:0:0:
320,60,48129,1,2,0:0:0:0:
320,60,48237,1,2,0:0:0:0:
320,60,48344,2,0,L|240:32,1,75,8|2,0:0|0:0,0:0:0:0:
160,44,48772,1,0,0:0:0:0:
72,72,48987,6,0,P|100:120|160:136,2,112.5,8|0|8,0:0|0:0|0:0,0:0:0:0:
20,148,49844,1,2,0:0:0:0:
88,208,50058,2,0,L|128:220,2,37.5,2|2|8,0:0|0:0|0:0,0:0:0:0:
88,300,50487,1,0,0:0:0:0:
176,300,50701,6,0,P|216:260|200:176,1,112.5,10|0,0:0|0:0,0:0:0:0:
224,160,51129,2,0,L|308:184,1,75,2|8,0:0|0:0,0:0:0:0:
384,200,51558,2,0,P|384:152|328:104,2,112.5,2|0|0,0:0|0:0|0:0,0:0:0:0:
452,260,52415,6,0,P|472:208|464:132,2,112.5,8|0|8,0:0|0:0|0:0,0:0:0:0:
364,284,53272,1,2,0:0:0:0:
424,352,53487,2,0,L|452:380,2,37.5,2|2|8,0:0|0:0|0:0,0:0:0:0:
284,240,54129,6,0,P|273:294|294:345,2,112.5,6|0|8,0:0|0:0|0:0,0:0:0:0:
192,236,54987,2,0,P|184:276|188:312,1,75,2|0,0:0|0:0,0:0:0:0:
120,372,55415,2,0,P|96:336|96:300,1,75,8|2,0:0|0:0,0:0:0:0:
104,216,55844,6,0,B|116:172|148:156|148:156|164:112,1,112.5,10|0,0:0|0:0,0:0:0:0:
164,76,56272,2,0,P|212:84|252:68,1,75,2|8,0:0|0:0,0:0:0:0:
320,48,56701,1,2,0:0:0:0:
320,48,57129,5,8,0:0:0:0:
392,180,57344,1,2,0:0:0:0:
396,92,57558,2,0,P|448:112|476:168,1,112.5,6|2,0:0|0:0,0:0:0:0:
472,216,57987,2,0,L|472:296,1,75,8|0,0:0|0:0,0:0:0:0:
392,344,58415,2,0,L|392:269,1,75,2|0,0:0|0:0,0:0:0:0:
308,216,58844,2,0,L|308:291,1,75,8|0,0:0|0:0,0:0:0:0:
304,380,59272,6,0,P|248:356|224:304,1,112.5,6|0,0:0|0:0,0:0:0:0:
224,268,59701,2,0,L|224:193,1,75,8|2,0:0|0:0,0:0:0:0:
224,104,60129,1,2,0:0:0:0:
140,232,60344,1,0,0:0:0:0:
140,144,60558,1,8,0:0:0:0:
140,56,60772,1,2,0:0:0:0:
60,192,60987,1,6,0:0:0:0:
256,192,61201,12,4,63344,0:0:0:0:
108,56,64415,6,0,P|116:96|108:148,1,75,4|2,0:0|0:0,0:0:0:0:
84,220,64844,2,0,P|121:225|156:212,1,75,8|0,0:0|0:0,0:0:0:0:
196,192,65165,2,0,P|244:168|320:188,1,112.5,2|2,0:0|0:0,0:0:0:0:
260,256,65701,2,0,L|288:332,1,75,8|2,0:0|0:0,0:0:0:0:
347,256,66129,6,0,P|377:235|391:201,1,75,6|2,0:0|0:0,0:0:0:0:
484,180,66558,2,0,P|464:140|428:120,1,75,8|0,0:0|0:0,0:0:0:0:
396,120,66879,2,0,L|436:48,1,75,2|8,0:0|0:0,0:0:0:0:
456,16,67201,1,2,0:0:0:0:
340,48,67415,1,8,0:0:0:0:
224,16,67629,1,2,0:0:0:0:
168,120,67844,6,0,L|164:196,1,75,6|2,0:0|0:0,0:0:0:0:
92,252,68272,1,8,0:0:0:0:
92,160,68487,1,0,0:0:0:0:
176,288,68701,2,0,P|148:328|76:344,2,112.5,6|0|0,0:0|0:0|0:0,0:0:0:0:
244,348,69558,6,0,L|364:340,1,112.5,12|12,0:0|0:0,0:0:0:0:
400,344,69987,2,0,P|380:296|384:248,1,75,8|2,0:0|0:0,0:0:0:0:
468,284,70415,2,0,B|468:232|436:208|436:208|456:140,1,150,6|6,0:0|0:0,0:0:0:0:
320,24,71272,6,0,L|293:105,1,75,4|2,0:0|0:0,0:0:0:0:
212,72,71701,2,0,L|185:153,1,75,8|0,0:0|0:0,0:0:0:0:
204,184,72022,2,0,P|156:152|96:156,1,112.5,2|2,0:0|0:0,0:0:0:0:
132,240,72558,1,8,0:0:0:0:
44,224,72772,1,0,0:0:0:0:
140,332,72987,6,0,B|196:328|216:280|216:280|220:304|244:324,1,150,6|8,0:0|0:0,0:0:0:0:
336,336,73629,1,0,0:0:0:0:
336,336,73737,1,2,0:0:0:0:
336,336,73844,2,0,P|336:320|316:264,1,75,8|2,0:0|0:0,0:0:0:0:
305,178,74272,1,8,0:0:0:0:
456,300,74487,1,2,0:0:0:0:
412,200,74701,6,0,B|452:180|488:196|488:196|488:104,1,150,6|8,0:0|0:0,0:0:0:0:
452,24,75344,1,2,0:0:0:0:
376,96,75558,2,0,P|328:132|304:188,2,112.5,12|0|2,0:0|0:0|0:0,0:0:0:0:
284,44,76415,6,0,P|252:80|236:108,1,75,6|0,0:0|0:0,0:0:0:0:
208,136,76737,2,0,P|176:100|140:88,1,75,8|2,0:0|0:0,0:0:0:0:
108,88,77058,1,6,0:0:0:0:
120,180,77272,2,0,L|71:237,1,75,8|8,0:0|0:0,0:0:0:0:
132,308,77701,2,0,L|164:268,3,37.5,6|2|8|2,0:0|0:0|0:0|0:0,0:0:0:0:
180,240,78129,6,0,P|228:252|276:236,1,75,4|2,0:0|0:0,0:0:0:0:
280,332,78558,2,0,P|317:328|352:339,1,75,8|0,0:0|0:0,0:0:0:0:
396,356,78879,2,0,L|412:244,1,112.5,2|2,0:0|0:0,0:0:0:0:
424,156,79415,1,8,0:0:0:0:
504,208,79629,1,2,0:0:0:0:
396,72,79844,6,0,P|360:92|340:132,1,75,6|2,0:0|0:0,0:0:0:0:
260,156,80272,2,0,L|264:76,1,75,8|0,0:0|0:0,0:0:0:0:
280,40,80594,2,0,P|216:60|168:44,1,112.5,2|2,0:0|0:0,0:0:0:0:
48,32,81129,1,8,0:0:0:0:
108,140,81344,1,2,0:0:0:0:
40,244,81558,6,0,P|104:276|172:240,1,150,6|8,0:0|0:0,0:0:0:0:
252,284,82201,1,0,0:0:0:0:
336,320,82415,2,0,P|400:287|465:320,1,150,6|8,0:0|0:0,0:0:0:0:
400,384,83058,1,2,0:0:0:0:
336,320,83272,6,0,L|336:228,1,75,6|8,0:0|0:0,0:0:0:0:
400,180,83701,1,2,0:0:0:0:
400,180,83808,1,2,0:0:0:0:
400,180,83915,2,0,L|400:88,1,75,8|8,0:0|0:0,0:0:0:0:
376,68,84237,2,0,L|364:24,3,37.5,8|8|2|2,0:0|0:0|0:0|0:0,0:0:0:0:
148,72,84987,6,0,P|178:118|181:174,2,112.5,6|6|6,0:0|0:0|0:0,0:0:0:0:
44,160,85951,1,6,0:0:0:0:
44,160,86272,5,6,0:0:0:0:
104,228,86487,1,6,0:0:0:0:
181,174,86701,2,0,P|197:220|177:288,2,112.5,6|6|4,0:0|0:0|0:0,0:0:0:0:
