osu file format v8

[General]
AudioFilename: 2.late in autumn.mp3
AudioLeadIn: 0
PreviewTime: 106614
Countdown: 0
SampleSet: Normal
StackLeniency: 0.7
Mode: 1
LetterboxInBreaks: 0

[Editor]
Bookmarks: 106614,166614
DistanceSpacing: 0.8
BeatDivisor: 4
GridSize: 16

[Metadata]
Title:Late in Autumn (Full Ver.)
Artist:fripSide
Creator:Kim Jin Seok
Version:Taiko Hard
Source:
Tags:

[Difficulty]
HPDrainRate:5
CircleSize:5
OverallDifficulty:5
ApproachRate:5
SliderMultiplier:1.4
SliderTickRate:1

[Events]
//Background and Video events
0,0,"taiko_bg.png"
//Break Periods
//Storyboard Layer 0 (Background)
//Storyboard Layer 1 (Fail)
//Storyboard Layer 2 (Pass)
//Storyboard Layer 3 (Foreground)
//Storyboard Sound Samples
//Background Colour Transformations

[TimingPoints]
14307,461.538461538462,4,1,0,60,1,0
107537,-100,4,1,0,60,0,1
133730,-100,4,1,0,60,0,0
212768,-100,4,1,0,60,0,1
238960,-100,4,1,0,60,0,0
273691,-200,4,1,0,60,0,0
286845,-100,4,1,0,60,0,0
302768,-100,4,1,0,60,0,1
332768,-100,4,1,0,60,0,0

[HitObjects]
256,192,14306,1,0
256,192,14537,1,0
256,192,14768,1,0
256,192,14999,1,0
256,192,15230,1,2
128,160,16153,1,2
128,160,16383,1,2
128,160,16614,1,2
128,160,16845,1,2
128,160,17076,1,0
240,272,17999,1,0
240,272,18230,1,2
240,272,18460,1,0
240,272,18691,1,0
240,272,18922,1,2
352,160,19845,1,2
352,160,20076,1,0
352,160,20307,1,2
352,160,20537,1,2
352,160,20768,1,0
144,224,21691,1,0
144,224,21922,1,0
144,224,22153,1,2
144,224,22383,1,0
144,320,22614,1,2
272,224,23537,1,2
272,224,23768,1,2
272,224,23999,1,0
272,224,24230,1,2
272,224,24460,1,0
176,176,25383,1,0
176,176,25614,1,0
176,176,25845,1,0
176,176,26076,1,0
256,192,26307,12,0,29076
144,256,29999,5,0
272,192,30460,1,0
272,192,30922,1,2
272,192,31383,1,2
160,176,31845,1,4
128,240,33230,1,2
128,240,33691,1,2
352,160,34614,1,0
352,160,34960,1,0
352,160,35307,1,0
352,160,35537,1,2
80,176,36460,1,0
224,240,37383,1,2
224,240,37845,1,2
224,240,38307,1,2
144,144,38768,1,2
288,112,39230,1,0
160,272,40614,1,0
160,272,41076,1,2
256,176,41999,1,2
256,176,42345,1,2
256,176,42691,1,0
256,176,42922,1,0
144,256,43845,1,0
240,208,44768,1,0
112,192,45691,1,2
112,192,45922,1,2
112,192,46153,1,2
112,192,46268,1,2
112,192,46383,1,2
112,192,46499,1,2
112,192,46614,1,0
240,192,46960,1,0
240,192,47307,1,0
240,192,47422,1,0
240,192,47537,1,2
320,208,47999,1,0
320,208,48114,1,0
320,208,48230,1,0
128,176,48460,1,2
128,176,48807,1,2
128,176,49153,1,0
128,176,49268,1,0
128,176,49383,1,2
352,192,50307,1,0
352,192,50653,1,0
176,176,50999,1,0
176,176,51114,1,2
176,176,51230,1,2
256,144,52153,1,2
256,144,52499,1,2
256,144,52845,1,2
256,144,52960,1,0
256,144,53076,1,0
96,224,53999,1,0
336,160,54922,1,2
336,160,55845,1,0
336,160,56768,1,2
256,192,57691,12,2,58614
160,176,59537,5,0
160,176,59999,1,0
320,192,60460,1,2
320,192,60576,1,2
320,192,60691,1,2
320,192,60922,1,0
320,192,61037,1,0
320,192,61153,1,0
320,192,61383,1,2
176,192,61614,1,0
176,192,61845,1,2
176,192,62076,1,2
176,192,62307,1,0
48,96,62422,1,0
48,96,62537,1,0
176,192,62768,1,4
320,240,63230,1,0
320,240,63460,1,2
320,240,63691,1,0
320,240,63922,1,0
320,240,64153,1,2
112,176,64268,1,2
112,176,64383,1,2
320,240,64614,1,6
288,160,65076,1,0
288,160,65307,1,2
288,160,65537,1,0
288,160,65768,1,2
288,160,65999,1,0
288,160,66114,1,0
288,160,66230,1,0
288,160,66460,1,2
288,160,66576,1,2
288,160,66691,1,2
160,208,66922,1,0
160,208,67268,1,0
192,112,67614,1,2
96,112,67845,1,0
96,112,67960,1,0
96,112,68076,1,0
96,112,68191,1,0
96,112,68307,1,2
352,176,68768,1,0
352,176,68999,1,0
352,176,69230,1,2
352,176,69460,1,2
352,176,69691,1,0
352,176,69807,1,0
352,176,69922,1,2
352,176,70153,1,2
144,192,70614,1,2
144,192,70845,1,2
144,192,71076,1,0
144,192,71307,1,0
144,192,71537,1,2
144,192,71653,1,2
144,192,71768,1,0
144,192,71999,1,0
304,224,72460,1,0
304,224,72922,1,0
240,160,73383,1,2
240,160,73730,1,2
240,160,74076,1,2
128,208,74307,1,0
128,208,74653,1,0
128,208,74999,1,0
384,224,75230,1,0
384,224,75345,1,0
384,224,75460,1,0
384,224,75576,1,0
384,224,75691,1,2
272,176,76153,1,0
272,176,76383,1,2
272,176,76614,1,0
272,176,76845,1,2
272,176,76960,1,2
272,176,77076,1,0
272,176,77191,1,0
272,176,77422,1,2
144,160,77999,1,2
144,160,78230,1,0
144,160,78460,1,2
144,160,78691,1,0
144,160,78807,1,0
144,160,78922,1,2
144,160,79037,1,2
144,160,79268,1,0
272,176,79845,1,0
272,176,80076,1,0
272,176,80306,1,0
208,240,80537,1,2
208,240,80653,1,2
208,240,80768,1,0
208,240,80883,1,0
208,240,81114,1,0
176,128,81460,1,0
176,128,81691,1,0
352,176,82037,1,2
352,176,82383,1,2
352,176,82614,1,2
128,208,83537,1,0
128,208,83768,1,0
128,208,83999,1,0
128,208,84230,1,0
128,208,84345,1,2
128,208,84460,1,0
128,208,84576,1,2
272,176,84806,1,2
352,144,85383,1,2
352,144,85614,1,2
352,144,85845,1,2
352,144,86076,1,2
352,144,86191,1,0
352,144,86306,1,2
352,144,86422,1,0
352,144,86653,1,0
240,256,87230,1,0
240,256,87345,1,0
240,256,87460,1,0
112,160,87691,1,2
208,128,88153,1,0
208,128,88499,1,0
208,128,88845,1,2
304,288,89076,1,2
112,224,89422,1,0
304,176,89768,1,0
400,80,89999,1,4
160,176,90922,1,2
160,176,91037,1,2
160,176,91153,1,0
160,176,91383,1,0
160,176,91614,1,0
96,256,91845,1,2
96,256,91960,1,2
304,240,92191,1,0
304,240,92537,1,0
368,128,92768,1,2
256,96,93114,1,2
256,96,93460,1,2
256,96,93691,1,0
160,240,94153,1,0
160,240,94383,1,0
160,240,94614,1,2
160,240,94845,1,2
352,208,95076,1,0
352,208,95306,1,0
192,160,95537,1,2
192,160,95653,1,2
256,272,95883,1,0
256,272,96230,1,0
304,128,96460,1,0
304,128,96806,1,2
304,128,97153,1,2
160,128,97383,1,2
208,272,98306,1,0
208,272,98537,1,2
208,272,98768,1,2
208,272,99230,1,0
208,272,99345,1,0
144,128,99576,1,2
144,128,99922,1,2
336,160,100153,1,0
240,144,100499,1,0
128,256,100845,1,2
368,80,101076,1,2
128,128,101537,1,0
128,128,101768,1,0
128,128,101999,1,0
128,128,102460,1,2
240,256,102922,1,0
240,256,103268,1,0
304,112,103614,1,2
112,240,103845,1,0
112,240,104537,1,2
112,240,104768,1,2
272,208,105691,1,2
272,208,105806,1,2
272,208,105922,1,2
272,208,106153,1,2
272,208,106268,1,2
272,208,106383,1,2
272,208,106499,1,2
112,192,106614,1,0
112,192,106845,1,0
112,192,107076,1,0
112,192,107306,1,0
112,192,107537,1,2
224,144,107999,1,0
224,144,108230,1,2
224,144,108345,1,2
336,256,108691,1,0
336,256,108922,1,0
336,256,109153,1,0
176,224,109383,1,2
176,224,109730,1,2
176,224,110076,1,2
176,224,110306,1,2
304,304,110768,1,0
304,304,110999,1,0
304,304,111230,1,2
112,160,111691,1,0
112,160,111922,1,2
112,160,112037,1,2
256,192,112383,1,0
256,192,112614,1,0
256,192,112845,1,0
384,128,113076,1,2
384,128,113422,1,2
384,128,113768,1,2
160,128,113999,1,0
160,128,114114,1,0
160,128,114230,1,0
288,240,114460,1,0
288,240,114691,1,0
288,240,114922,1,2
288,240,115383,1,0
288,240,115614,1,0
288,240,115730,1,2
192,208,116076,1,2
192,208,116306,1,2
304,128,116537,1,0
304,128,116768,1,0
400,144,117114,1,2
320,240,117460,1,0
320,240,117691,1,2
128,176,118153,1,0
128,176,118383,1,0
128,176,118499,1,0
160,240,119076,1,0
160,240,119306,1,0
160,240,119422,1,0
208,112,119999,1,2
208,112,120230,1,2
208,112,120345,1,2
144,208,121153,1,0
144,208,121268,1,0
144,208,121383,1,0
320,160,121614,1,2
320,160,121845,1,2
320,160,122076,1,2
272,288,122306,1,0
208,208,122653,1,0
208,208,122999,1,0
208,208,123230,1,2
336,112,123691,1,2
336,112,123806,1,2
336,112,123922,1,2
144,128,124153,1,0
144,128,124499,1,0
144,128,124845,1,0
144,128,125076,1,0
144,128,125191,1,2
144,128,125306,1,2
144,128,125537,1,2
320,128,125999,1,2
320,128,126345,1,2
320,128,126691,1,0
320,128,126922,1,2
176,176,127614,1,0
176,176,127730,1,0
176,176,127845,1,2
400,240,128191,1,0
400,240,128537,1,0
400,240,128768,1,2
128,256,129230,1,0
128,256,129460,1,0
128,256,129691,1,0
272,240,130614,1,0
272,240,130960,1,2
272,240,131306,1,2
272,240,131537,1,0
160,144,132230,1,0
160,144,132345,1,0
160,144,132460,1,0
128,240,132691,1,2
128,240,132922,1,2
128,240,133153,1,2
128,240,133383,1,0
272,192,133614,1,2
272,192,133730,1,2
128,128,134306,1,0
208,112,135230,1,2
192,208,135691,1,2
192,208,136153,1,2
192,208,136614,1,2
336,128,137076,1,4
208,160,138460,1,2
208,160,138922,1,2
304,208,139845,1,0
304,208,140191,1,0
304,208,140537,1,2
304,208,140768,1,2
192,176,141691,1,0
304,240,142614,1,0
304,240,142960,1,2
304,160,143306,1,0
160,208,143537,1,2
160,208,143883,1,0
160,208,144230,1,2
176,96,144460,1,4
224,240,145845,1,2
224,240,146306,1,0
272,144,147230,1,2
272,144,147576,1,0
272,144,147922,1,0
272,144,148153,1,2
208,240,149076,1,0
208,240,149999,1,0
288,144,150922,1,2
288,144,151153,1,2
96,176,151383,1,0
96,176,151499,1,0
96,176,151614,1,2
96,176,151730,1,2
96,176,151845,1,2
208,224,152191,1,0
208,224,152537,1,0
208,224,152653,1,0
208,224,152768,1,2
112,160,153460,1,0
112,160,153576,1,0
112,160,153691,1,2
112,160,154037,1,2
112,160,154383,1,0
112,160,154614,1,2
256,224,155537,1,0
256,224,155883,1,0
256,224,156230,1,0
256,224,156460,1,4
160,144,157383,1,0
160,144,157730,1,0
160,144,158076,1,0
256,144,158306,1,6
144,240,159230,1,0
208,112,160153,1,2
208,112,161076,1,0
208,112,161999,1,2
256,192,162922,12,2,163845
128,240,164768,5,0
128,240,164883,1,0
128,240,164999,1,0
128,240,165230,1,0
128,240,165345,1,0
128,240,165460,1,0
304,208,165691,1,2
304,208,165807,1,2
304,208,165922,1,2
304,208,166153,1,2
304,208,166383,1,2
208,128,166614,1,0
208,128,166845,1,0
208,128,167076,1,0
352,112,167307,1,0
352,112,167422,1,0
352,112,167537,1,0
352,112,167653,1,2
352,112,167883,1,2
288,256,168460,1,2
288,256,168691,1,0
288,256,168922,1,0
128,224,169153,1,0
128,224,169268,1,0
128,224,169383,1,0
128,224,169499,1,0
128,224,169730,1,2
288,144,170307,1,2
288,144,170537,1,0
288,144,170768,1,2
160,112,170999,1,2
160,112,171114,1,0
160,112,171230,1,2
160,112,171345,1,0
160,112,171576,1,2
448,144,171922,1,0
448,144,172153,1,2
448,144,172499,1,0
448,144,172845,1,0
448,144,173076,1,2
192,192,173999,1,0
192,192,174230,1,0
192,192,174460,1,0
192,192,174691,1,2
192,192,174922,1,2
192,192,175037,1,2
192,192,175268,1,2
352,192,175845,1,0
352,192,176076,1,2
352,192,176307,1,2
352,192,176537,1,0
144,144,176768,1,2
144,144,176883,1,2
144,144,177114,1,2
240,176,177691,1,0
240,176,178153,1,0
240,176,178614,1,2
240,176,178960,1,0
240,176,179307,1,2
368,128,179537,1,0
368,128,179883,1,0
368,128,180230,1,0
144,80,180460,1,6
144,240,181383,1,0
144,240,181614,1,0
144,240,181845,1,0
240,128,182076,1,2
240,128,182191,1,2
240,128,182307,1,0
240,128,182422,1,0
352,208,182653,1,4
336,96,183230,1,2
336,96,183460,1,0
336,96,183691,1,2
336,96,183922,1,2
336,96,184037,1,2
336,96,184153,1,2
336,96,184268,1,0
224,160,184499,1,4
128,208,185076,1,0
128,208,185307,1,0
128,208,185537,1,0
384,176,185768,1,0
384,176,185883,1,0
384,176,185999,1,0
384,176,186114,1,0
272,128,186345,1,2
272,128,186691,1,2
112,144,186922,1,0
112,144,187268,1,0
112,144,187614,1,2
112,144,187845,1,2
320,224,188768,1,0
320,224,188999,1,2
320,224,189230,1,2
320,224,189460,1,0
320,224,189576,1,2
320,224,189691,1,0
320,224,189807,1,2
320,224,190037,1,2
128,192,190614,1,2
128,192,190845,1,0
128,192,191076,1,0
128,192,191307,1,2
128,192,191422,1,0
128,192,191537,1,2
128,192,191653,1,0
256,128,191883,1,0
240,240,192460,1,0
240,240,192576,1,0
240,240,192691,1,2
240,240,192922,1,2
240,240,193383,1,0
240,240,193499,1,0
240,240,193730,1,0
240,240,193845,1,2
224,128,194076,1,2
128,160,194307,1,2
128,160,194422,1,2
128,160,194653,1,2
128,160,194768,1,0
352,224,194999,1,0
368,96,195230,1,4
160,176,196153,1,2
160,176,196383,1,0
160,176,196614,1,0
160,176,196845,1,0
336,208,197076,1,0
336,208,197191,1,0
128,240,197422,1,0
128,240,197768,1,0
336,128,197999,1,2
336,128,198345,1,2
336,128,198691,1,2
336,128,198922,1,2
192,208,199383,1,0
192,208,199614,1,0
96,112,199845,1,2
96,112,199960,1,2
96,112,200076,1,2
96,112,200307,1,0
96,112,200422,1,0
96,112,200537,1,0
320,192,200768,1,0
320,192,200883,1,0
320,192,201114,1,0
320,192,201230,1,0
320,192,201460,1,0
208,128,201691,1,2
208,128,202037,1,2
208,128,202383,1,0
208,128,202614,1,6
320,240,203537,1,0
320,240,203768,1,0
320,240,203999,1,2
128,192,204460,1,0
128,192,204576,1,0
288,144,204807,1,0
432,112,205153,1,2
208,304,205383,1,0
208,304,205730,1,2
208,304,206076,1,2
208,304,206307,1,2
224,176,206768,1,0
224,176,206999,1,0
224,176,207230,1,0
224,176,207691,1,0
368,128,208153,1,2
368,128,208499,1,2
368,128,208845,1,2
368,128,209076,1,0
208,176,209768,1,0
160,96,209999,1,4
128,208,210922,1,0
128,208,211037,1,0
128,208,211153,1,0
128,208,211268,1,0
128,208,211383,1,2
128,208,211499,1,2
128,208,211614,1,2
128,208,211730,1,2
128,208,211845,1,0
128,208,212076,1,2
128,208,212307,1,0
128,208,212537,1,0
128,208,212768,1,2
256,128,213230,1,0
256,128,213460,1,2
256,128,213576,1,2
272,272,213922,1,0
272,272,214153,1,0
128,208,214383,1,0
128,208,214614,1,2
128,208,214960,1,2
128,208,215307,1,2
320,128,215537,1,6
224,144,215999,1,0
224,144,216230,1,0
224,144,216460,1,2
96,208,216922,1,0
96,208,217037,1,0
96,208,217153,1,0
384,112,217268,1,2
224,272,217614,1,2
224,272,217845,1,2
224,272,218076,1,0
224,144,218307,1,0
224,144,218653,1,2
224,144,218999,1,0
384,128,219230,1,4
128,224,219691,1,2
128,224,219922,1,2
128,224,220153,1,2
288,176,220614,1,2
288,176,220845,1,2
288,176,220960,1,2
192,128,221307,1,0
192,128,221537,1,0
192,128,221768,1,0
144,224,221999,1,2
144,224,222345,1,2
144,224,222691,1,0
384,128,222922,1,2
288,256,223383,1,0
288,256,223614,1,0
288,256,223730,1,0
288,256,224307,1,0
288,256,224537,1,0
288,256,224653,1,0
144,160,225230,1,2
144,160,225460,1,2
144,160,225576,1,2
256,224,226383,1,2
256,224,226499,1,2
256,128,226614,1,0
384,208,226845,1,0
384,208,227076,1,0
384,208,227307,1,0
160,176,227537,1,2
160,176,227883,1,0
160,176,228230,1,2
160,176,228460,1,2
336,128,228922,1,0
336,128,229037,1,0
336,128,229153,1,0
224,256,229383,1,0
224,256,229730,1,2
224,256,230076,1,0
224,256,230307,1,0
368,192,231230,1,0
368,192,231345,1,0
368,192,231460,1,0
368,192,231691,1,0
368,192,231922,1,0
128,176,232153,1,2
272,176,232845,1,2
272,176,232960,1,2
272,176,233076,1,2
272,176,233422,1,0
272,176,233768,1,0
272,176,233999,1,2
128,160,234460,1,0
128,160,234691,1,0
128,160,234922,1,0
144,240,235845,1,2
144,240,236191,1,0
144,240,236537,1,0
144,240,236768,1,2
288,288,237460,1,0
288,288,237576,1,2
288,288,237691,1,0
288,288,237922,1,0
288,288,238153,1,0
288,288,238383,1,0
288,288,238614,1,2
288,288,238845,1,0
288,288,238960,1,2
256,192,239076,12,0,241845
352,192,242307,5,0
160,192,242537,1,2
160,192,242768,1,0
160,192,242999,1,2
352,192,243230,1,0
160,192,243460,1,2
160,192,243691,1,0
160,192,243922,1,2
352,192,244153,1,0
160,192,244383,1,2
160,192,244614,1,0
160,192,244845,1,2
352,192,245076,1,0
160,192,245307,1,2
160,192,245537,1,0
160,192,245768,1,2
272,128,245999,1,0
272,128,246230,1,0
272,128,246460,1,2
272,128,246691,1,2
272,128,246922,1,0
272,128,247153,1,0
272,128,247383,1,2
272,128,247614,1,2
272,128,247845,1,0
272,128,248076,1,0
272,128,248307,1,2
272,128,248537,1,2
272,128,248768,1,0
272,128,248999,1,0
272,128,249230,1,2
272,128,249460,1,2
256,192,249691,12,0,253383
176,224,255230,5,0
272,128,255691,1,0
352,240,256153,1,2
352,240,256383,1,2
352,240,256614,1,0
352,240,256845,1,0
352,240,257076,1,2
192,192,257999,1,0
192,192,258230,1,0
192,192,258460,1,2
192,192,258691,1,2
192,192,258922,1,0
320,176,259845,1,0
320,176,260076,1,0
320,176,260307,1,2
320,176,260537,1,0
320,176,260768,1,0
160,144,261691,1,2
256,112,261922,1,2
80,96,262153,1,0
80,96,262383,1,2
80,96,262614,1,2
272,144,263537,1,0
272,144,263768,1,0
272,144,263999,1,0
272,144,264114,1,0
272,144,264230,1,0
272,144,264345,1,0
272,144,264460,1,2
144,208,265383,1,2
144,208,265614,1,2
144,208,265845,1,2
144,208,265960,1,2
144,208,266076,1,2
144,208,266191,1,2
144,208,266307,1,0
304,224,267230,1,0
304,224,267345,1,0
304,224,267460,1,0
304,224,267576,1,0
304,224,267691,1,0
304,224,267807,1,0
304,224,267922,1,0
176,112,268037,1,0
304,224,268153,1,2
288,128,269076,1,2
128,208,269999,1,0
128,208,270345,1,0
128,208,270691,1,0
128,208,270922,1,2
128,208,271268,1,2
128,208,271614,1,2
256,192,271845,12,0,272537
336,224,272768,5,0
336,224,272999,1,0
336,224,273230,1,0
336,224,273460,1,0
336,224,273691,1,2
176,160,274153,1,2
176,160,274614,1,2
176,160,275076,1,2
176,160,275537,1,2
320,208,275999,1,2
320,208,276460,1,2
128,240,276922,1,0
128,240,277153,1,0
128,240,277383,1,2
128,240,277845,1,0
128,240,278076,1,0
128,240,278307,1,2
240,144,278768,1,0
128,112,279230,1,2
128,112,279576,1,2
128,112,279922,1,2
352,96,280153,1,0
128,192,280614,1,0
288,208,280845,1,0
288,208,281076,1,2
224,128,281537,1,0
224,128,281768,1,2
224,128,281883,1,2
144,192,282230,1,0
144,192,282460,1,0
144,192,282691,1,0
144,192,282922,1,2
144,192,283268,1,2
144,192,283614,1,0
144,192,283845,1,2
208,160,284307,1,0
320,160,284653,1,0
288,272,285230,1,0
288,272,285576,1,2
176,160,286153,1,2
176,160,286499,1,2
192,240,287307,1,0
192,240,287422,1,0
192,240,287537,1,2
192,240,287768,1,2
192,240,287999,1,2
192,240,288230,1,2
336,160,288460,1,0
336,160,288807,1,0
336,160,289153,1,0
160,128,289383,1,4
176,256,290076,1,2
176,256,290307,1,2
272,240,290653,1,0
144,144,290999,1,0
384,144,291230,1,4
272,176,292153,1,2
272,176,292499,1,2
272,176,292845,1,0
272,176,292960,1,0
272,176,293076,1,2
144,176,293768,1,0
144,176,293999,1,0
240,96,294345,1,0
368,160,294691,1,2
368,160,294807,1,2
368,160,294922,1,2
160,176,295383,1,0
160,176,295499,1,0
160,176,295614,1,0
160,176,295730,1,0
160,176,295845,1,0
304,208,296768,1,2
304,208,297114,1,2
160,160,297460,1,0
160,160,297576,1,2
160,160,297691,1,0
416,144,298383,1,2
416,144,298499,1,2
416,144,298614,1,2
272,208,298845,1,2
272,208,299076,1,2
272,208,299307,1,2
272,208,299537,1,0
272,208,299768,1,0
272,208,299883,1,2
144,240,300460,1,0
144,240,301383,1,2
224,176,302307,1,0
416,192,302768,1,0
416,192,302999,1,0
416,192,303230,1,2
416,192,303691,1,0
416,192,303922,1,2
416,192,304037,1,2
256,240,304383,1,0
256,240,304614,1,0
256,240,304845,1,0
256,240,305076,1,2
256,240,305422,1,2
352,176,305768,1,0
352,176,305883,1,0
352,176,305999,1,2
128,176,306460,1,0
128,176,306576,1,0
128,176,306691,1,0
128,176,306807,1,0
128,176,306922,1,2
240,256,307383,1,0
240,256,307614,1,2
240,256,307730,1,2
304,192,308076,1,2
304,192,308307,1,2
304,192,308537,1,0
176,160,308768,1,0
176,160,309114,1,0
336,96,309460,1,2
336,96,309576,1,2
336,96,309691,1,2
128,272,310153,1,0
128,272,310268,1,0
128,272,310383,1,0
128,272,310499,1,0
128,272,310614,1,2
224,192,311076,1,0
224,192,311191,1,0
224,192,311307,1,2
224,192,311422,1,2
336,128,311768,1,2
336,128,311999,1,2
336,128,312230,1,2
112,144,312460,1,0
96,256,312807,1,0
320,256,313153,1,2
320,256,313268,1,2
320,256,313383,1,2
256,128,313845,1,0
256,128,314076,1,0
256,128,314191,1,2
256,160,314768,1,0
256,160,314999,1,0
256,160,315114,1,2
256,160,315691,1,2
256,160,315922,1,2
256,160,316037,1,2
160,256,316845,1,0
160,256,316960,1,2
160,256,317076,1,0
160,256,317307,1,0
160,256,317537,1,0
160,256,317768,1,0
336,144,317999,1,2
336,144,318345,1,2
336,144,318691,1,0
336,144,318922,1,2
224,240,319614,1,0
224,240,319845,1,2
224,240,320191,1,2
224,240,320537,1,0
224,240,320768,1,2
128,160,321691,1,0
128,160,322037,1,0
128,160,322383,1,0
368,112,322614,1,2
272,224,323537,1,2
272,224,323883,1,0
272,224,324230,1,0
272,224,324460,1,0
144,112,324922,1,2
144,112,325037,1,2
144,112,325153,1,2
144,112,325268,1,2
320,96,325383,1,0
144,224,326307,1,0
144,224,326653,1,0
288,176,326999,1,2
288,176,327230,1,2
144,128,327922,1,2
144,128,328037,1,2
384,112,328153,1,0
384,112,328383,1,0
384,112,328614,1,0
384,112,328845,1,0
208,272,329076,1,0
208,272,329307,1,0
208,272,329422,1,2
256,192,329537,12,2,332307
192,224,332768,5,0
400,128,334153,1,2
400,128,334614,1,0
400,128,335537,1,0
400,128,335883,1,0
400,128,336230,1,0
400,128,336460,1,2
176,160,337383,1,2
304,240,338307,1,0
304,240,338653,1,2
304,240,338999,1,0
304,240,339230,1,2
304,240,339576,1,0
304,240,339922,1,2
144,256,340153,1,0
256,192,341537,1,2
256,192,341999,1,0
160,176,342922,1,0
160,176,343037,1,0
160,176,343268,1,0
160,176,343383,1,0
320,128,343614,1,2
320,128,343845,1,2
112,144,344768,1,0
320,192,345691,1,0
160,128,346614,1,0
160,128,346960,1,2
160,128,347307,1,2
320,160,347537,1,0
320,160,347883,1,0
320,160,348230,1,2
320,160,348460,1,0
160,160,348922,1,2
160,160,349037,1,2
160,160,349153,1,0
160,160,349383,1,0
160,160,349730,1,0
160,160,350076,1,2
160,160,350191,1,2
160,160,350307,1,2
352,208,351230,1,2
352,208,351345,1,0
352,208,351576,1,0
352,208,351691,1,2
224,240,351922,1,0
208,112,352153,1,4
352,176,352845,1,2
352,176,352960,1,2
352,176,353076,1,2
352,176,353422,1,2
352,176,353768,1,2
256,128,353999,1,6
144,192,354922,1,0
144,192,355845,1,2
288,208,356768,1,0
288,208,357691,1,2
160,160,358614,1,0
160,160,358960,1,2
160,160,359307,1,2
256,192,359537,12,2,360922
224,224,361383,5,0
224,224,361499,1,0
224,224,361614,1,0
224,224,361730,1,0
224,224,361845,1,0
224,224,361960,1,0
224,224,362076,1,0
