osu file format v9

[General]
AudioFilename: Last Fortune.mp3
AudioLeadIn: 2000
PreviewTime: 60193
Countdown: 0
SampleSet: Soft
StackLeniency: 0.7
Mode: 0
LetterboxInBreaks: 0

[Editor]
DistanceSpacing: 1
BeatDivisor: 4
GridSize: 4

[Metadata]
Title:Last Fortune (Short Ver.)
Artist:fripSide
Creator:kusano
Version:Insane
Source:Twinkle Crusaders -Passion Star Stream-
Tags:lillian Amule eroge PSS Satoshi Yaginuma

[Difficulty]
HPDrainRate:7
CircleSize:4
OverallDifficulty:7
ApproachRate:8
SliderMultiplier:1.8
SliderTickRate:1

[Events]
//Background and Video events
0,0,"4160.jpg"
Video,0,"pss.avi"
//Break Periods
//Storyboard Layer 0 (Background)
//Storyboard Layer 1 (Fail)
//Storyboard Layer 2 (Pass)
//Storyboard Layer 3 (Foreground)
//Storyboard Sound Samples
//Background Colour Transformations
3,100,163,162,255

[TimingPoints]
193,447.761194029851,4,2,1,65,1,0
14073,-100,4,2,2,75,0,0
32319,-100,4,2,2,65,0,0
46648,-100,4,2,2,75,0,0
61088,-80,4,2,2,85,0,1
75416,-100,4,2,2,75,0,0

[Colours]
Combo1 : 121,188,255
Combo2 : 219,165,248
Combo3 : 255,255,32
Combo4 : 255,132,255

[HitObjects]
392,72,193,1,2
380,160,416,1,0
368,248,640,1,0
280,272,864,2,0,B|216:208|100:240,1,180,2|0
72,316,1536,2,0,B|108:280|112:220,1,90,2|0
68,100,1984,5,2
168,156,2207,1,0
284,160,2431,1,0
396,124,2655,2,0,B|400:216|440:328,1,180,2|0
316,276,3327,2,0,B|272:300|204:276,1,90
116,104,3775,6,0,B|76:132|28:124,2,90,2|0|0
188,48,4446,1,2
188,48,4558,1,0
188,48,4670,1,0
272,132,4894,1,0
372,72,5118,2,0,B|416:48|480:72,1,90,2|0
272,132,5566,6,0,B|228:156|164:132,1,90,2|0
104,96,6013,1,0
272,132,6237,1,0
152,256,6461,1,2
232,212,6685,1,0
320,228,6909,1,0
376,300,7133,1,0
256,324,7357,6,0,B|264:228|220:144,1,180,2|0
352,116,8028,2,0,B|289:42|199:14,1,180,0|0
396,256,8700,1,2
328,196,8924,1,0
248,152,9148,6,0,B|204:132|152:140,1,90,0|0
328,196,9595,1,0
144,52,9819,2,0,B|98:68|67:111,1,90,2|0
40,188,10267,1,0
332,108,10491,2,0,B|376:136|440:116,1,90,2|0
248,40,10939,6,0,B|220:84|260:176|216:224,1,180,2|0
222,215,11610,1,0
180,296,11834,5,0
368,172,12058,1,0
144,172,12282,1,0
332,296,12506,1,0
256,84,12730,1,2
120,92,14297,5,0
112,112,14409,1,0
104,132,14521,2,0,B|92:256,1,90,8|0
120,276,14857,2,0,B|30:267,1,90,8|0
30,267,15193,1,8
216,196,15416,5,8
260,208,15528,1,0
304,200,15640,2,0,B|348:180|396:196,2,90,8|8|8
288,244,16200,1,0
292,288,16312,6,0,B|296:344,2,45,8|0|0
224,316,16648,2,0,B|187:358,2,45,8|0|0
156,292,16984,2,0,B|100:308,1,45,8|0
68,296,17207,5,0
68,272,17319,1,0
64,252,17431,1,0
56,232,17543,1,0
48,212,17655,2,0,B|68:160,3,45
84,128,18103,6,0,B|180:80,1,90,4|0
348,88,18551,2,0,B|252:136,1,90,10|0
228,148,18887,1,0
144,228,19110,1,0
144,228,19222,1,0
192,332,19446,1,10
276,296,19670,1,0
364,312,19894,6,0,B|404:284|408:232,1,90
380,148,20342,1,10
276,296,20566,1,0
184,140,20790,1,0
184,140,20901,2,0,B|140:156|84:144,1,90,2|0
52,136,21237,1,10
124,44,21461,1,0
280,116,21685,6,0,B|348:52|460:80,1,180,4|10
384,176,22357,1,0
280,116,22581,1,0
280,116,22693,1,0
180,176,22916,1,0
180,176,23028,1,10
80,116,23252,1,0
8,172,23476,6,0,B|16:216|20:264,1,90
80,328,23924,1,10
80,328,24036,1,0
80,328,24148,1,0
180,176,24372,1,8
200,292,24595,1,8
292,220,24819,1,10
304,220,24931,1,0
316,220,25043,1,8
328,220,25155,1,0
340,220,25267,6,0,B|384:204|432:224,2,90,4|0|10
296,300,25939,1,0
176,176,26163,1,0
176,176,26275,1,0
220,68,26498,1,0
220,68,26610,1,10
296,156,26834,1,0
104,84,27058,6,0,B|56:92|12:68,2,90,4|0|10
220,68,27730,1,0
296,156,27954,1,0
296,156,28066,1,2
412,140,28290,1,0
412,140,28401,1,10
340,48,28625,1,0
296,156,28849,6,0,B|300:268,1,90,4|0
464,184,29297,2,0,B|460:72,1,90,10|0
240,72,29745,2,0,B|148:112|64:40,1,180,0|10
8,108,30416,1,0
28,148,30528,1,0
44,188,30640,6,0,B|56:236|36:284,1,90,8|0
60,316,30976,2,0,B|108:328|156:308,1,90,8|0
188,292,31312,1,8
188,144,31536,1,8
236,152,31648,1,0
280,136,31760,2,0,B|324:123|384:140,1,90,8|8
56,60,32431,6,0,B|0:132|24:244,1,180,4|8
76,304,33103,1,0
144,248,33327,2,0,B|184:220|244:240,1,90,8|0
388,276,33775,2,0,B|348:304|288:284,1,90,8|0
260,268,34110,1,0
288,232,34222,6,0,B|316:164|280:88,2,135,8|0|0
208,272,35118,2,0,B|136:208|16:256,1,180,8|8
116,336,35790,1,8
196,152,36013,6,0,B|236:176|292:160,1,90,8|0
444,112,36461,2,0,B|404:88|348:104,1,90,8|0
312,116,36797,1,0
276,144,36909,2,0,B|252:184|268:256,1,90,8|0
420,300,37357,2,0,B|380:276|308:292,1,90,8|0
248,320,37804,6,0,B|180:288|112:308,2,135,8|0|0
336,332,38700,1,8
232,232,38924,1,0
308,108,39148,1,8
204,52,39372,1,8
180,60,39484,1,0
156,68,39595,6,0,B|104:84|84:152,1,90,4|0
84,216,40043,1,8
156,68,40267,1,0
280,204,40491,1,8
280,204,40603,1,0
428,132,40827,1,0
428,132,40939,2,0,B|484:148|528:100,1,90,8|0
280,204,41387,6,0,B|200:148|88:196,1,180,8|8
36,244,42058,1,0
116,88,42282,1,8
116,88,42394,1,0
240,212,42618,1,0
240,212,42730,2,0,B|256:164|232:124,1,90,8|8
36,244,43178,6,0,B|104:324|228:272,1,180,8|8
288,268,43849,1,0
356,208,44073,2,0,B|396:184|468:204,1,90,8|0
288,268,44521,1,8
364,116,44745,1,0
280,152,44969,6,0,B|240:176|168:156,1,90,8|0
148,124,45304,2,0,B|96:260,1,135,0|0
180,336,45864,1,8
180,336,45976,1,0
180,336,46088,1,8
256,248,46312,1,8
332,336,46536,1,0
404,244,46760,6,0,B|432:204|420:148,1,90,4|0
300,140,47207,1,10
192,48,47431,2,0,B|164:88|176:144,1,90,0|8
300,140,47879,1,0
404,244,48103,2,0,B|432:204|420:148,1,90,10|0
188,112,48551,6,0,B|116:48|8:92,1,180,8|10
88,184,49222,1,0
280,112,49446,1,8
316,136,49558,1,0
360,136,49670,2,0,B|412:152|464:112,1,90,2|10
404,296,50118,1,8
232,256,50342,6,0,B|188:272|128:256,1,90,12|0
100,248,50678,1,0
128,212,50790,2,0,B|152:168|128:108,1,90,10|0
48,44,51237,2,0,B|88:80|160:76,2,90,8|0|10
188,60,51909,1,0
0,124,52133,6,0,B|16:168|8:216,1,90,8|0
4,256,52469,2,0,B|164:292,1,135,0|0
224,304,53028,1,8
224,304,53140,1,0
224,304,53252,1,10
292,208,53476,1,10
380,284,53700,1,0
232,112,53924,6,0,B|184:120|128:100,1,90,4|0
72,160,54372,1,10
232,112,54595,1,0
96,60,54819,1,8
132,84,54931,1,0
152,124,55043,1,0
160,168,55155,1,0
156,212,55267,2,0,B|188:304,1,90,10|0
372,88,55715,5,8
372,88,55827,2,0,B|340:180,1,90
328,216,56163,1,10
228,112,56387,1,0
104,184,56610,1,8
104,184,56722,2,0,B|80:144|88:96,1,90,0|0
64,60,57058,2,0,B|156:36,1,90,10|0
380,260,57506,6,0,B|340:292|284:272,1,90,4|0
294,275,57842,1,0
294,275,57954,1,10
424,184,58178,1,0
104,184,58401,2,0,B|144:216|200:196,1,90,8|0
190,199,58737,1,0
190,199,58849,1,10
60,108,59073,1,0
148,28,59297,5,8
192,20,59409,1,0
236,20,59521,1,0
280,32,59633,1,0
320,56,59745,2,0,B|392:48,3,45,10|0|0|0
400,96,60193,2,0,B|456:141,3,45,8|0|0|0
420,180,60640,2,0,B|424:220,7,22.5,8|0|0|0|0|0|0|0
420,180,61088,6,0,B|364:204|284:176,1,112.499998323619,4|0
260,160,61424,1,0
208,140,61536,2,0,B|152:116|72:144,1,112.499998323619,10|0
368,76,61984,2,0,B|324:120|344:200,1,112.499998323619,8|0
380,220,62319,1,0
372,276,62431,2,0,B|320:312|252:280,1,112.499998323619,10|0
64,92,62879,6,0,B|116:128|184:96,1,112.499998323619,8|0
256,28,63327,1,10
24,192,63551,1,0
60,236,63663,1,0
112,252,63775,2,0,B|168:228|232:244,1,112.499998323619,8|2
456,104,64222,1,10
320,160,64446,1,0
256,28,64670,6,0,B|208:64|136:40,1,112.499998323619,4|0
96,24,65006,1,0
40,36,65118,2,0,B|8:88|32:172,1,112.499998323619,10|0
76,248,65566,1,8
196,116,65790,1,0
224,164,65901,1,0
232,220,66013,2,0,B|251:277|212:336,1,112.499998323619,10|0
76,248,66461,6,0,B|40:188,1,56.2499991618097,8|0
328,176,66797,2,0,B|364:236,1,56.2499991618097,0|10
296,68,67133,1,0
196,116,67357,1,8
156,76,67469,1,0
100,64,67581,1,10
44,76,67693,1,0
4,116,67804,2,0,B|-4:188,3,56.2499991618097,10|0|0|0
20,224,68252,6,0,B|72:196|144:212,1,112.499998323619,4|0
184,224,68588,1,0
240,228,68700,2,0,B|300:244|368:212,1,112.499998323619,10|0
436,144,69148,1,8
304,320,69372,1,0
351,220,69595,1,10
399,188,69707,1,0
435,144,69819,1,0
260,156,70043,6,0,B|276:96|244:40,1,112.499998323619,8|0
196,24,70379,1,0
144,40,70491,2,0,B|84:56|28:16,1,112.499998323619,10|0
260,156,70939,2,0,B|184:112|84:148,1,168.749997485429,8|0
56,180,71387,1,10
184,308,71610,1,0
284,252,71834,5,4
336,268,71946,1,0
392,264,72058,2,0,B|456:236|456:152,1,112.499998323619,0|10
428,68,72506,1,0
340,140,72730,2,0,B|288:112|224:124,1,112.499998323619,8|0
176,132,73066,2,0,B|120:152|48:132,1,112.499998323619,0|0
16,112,73401,1,0
104,44,73625,5,8
84,208,73849,1,0
176,132,74073,1,10
232,144,74185,1,0
288,136,74297,2,0,B|344:112|416:132,2,112.499998323619,0|8|2
236,236,74969,1,10
348,224,75192,1,0
356,240,75304,1,0
364,260,75416,6,0,B|404:284|468:268,1,90,4|0
288,136,75864,2,0,B|247:111|184:128,1,90,10|0
124,172,76312,1,8
248,52,76536,1,0
220,220,76760,1,10
128,76,76984,1,0
40,100,77207,6,0,B|20:188|44:284,1,180,12|10
108,340,77879,1,0
308,292,78103,2,0,B|328:204|304:108,1,180,8|10
256,36,78775,1,0
136,196,78998,5,4
376,196,79334,1,0
256,36,79670,1,0
148,80,79894,5,4
256,300,80230,1,0
364,80,80566,1,0
256,36,80790,2,0,B|232:84|276:172|252:216,1,180,4|10
253,213,81349,1,0
253,213,81461,1,0
172,176,81685,6,0,B|124:192|72:176,2,90,8|0|10
340,176,82357,1,8
384,188,82469,1,0
428,180,82581,6,0,B|480:160|488:80,1,90,4|0
448,28,83028,1,10
340,176,83252,1,0
276,116,83476,2,0,B|232:92|164:108,1,90,8|0
104,132,83924,1,10
104,132,84036,1,0
104,132,84148,1,0
200,200,84372,6,0,B|184:304,1,90,12|0
312,116,84819,1,10
312,116,84931,2,0,B|328:220,1,90
332,248,85267,1,8
412,164,85491,2,0,B|456:180|500:168,1,90,0|2
200,200,85939,1,8
116,168,86163,6,0,B|72:152|28:164,1,90,12|0
200,200,86610,1,10
200,200,86722,1,0
200,200,86834,1,0
304,104,87058,2,0,B|340:136|424:128,1,90,8|0
432,124,87394,1,8
348,240,87618,1,2
348,240,87730,1,0
252,304,87954,5,8
208,292,88066,1,0
164,288,88178,1,0
120,292,88290,1,0
80,308,88401,2,0,B|44:264,3,45,2|0|0|0
60,228,88849,5,8
80,196,88961,1,0
80,160,89073,1,8
68,124,89185,1,0
40,100,89297,1,4
