osu file format v6

[General]
AudioFilename: LEVEL5 -judgelight- (TV Size).mp3
AudioLeadIn: 0
PreviewTime: 13296
Countdown: 0
SampleSet: Normal
StackLeniency: 0.4
Mode: 0
LetterboxInBreaks: 0

[Editor]
Bookmarks: 7274,14156,21038,29640,36522,43403,50285,57167,64048,70930,77812,84694
DistanceSpacing: 1
BeatDivisor: 4
GridSize: 32

[Metadata]
Title:LEVEL5 -judgelight- (TV Size)
Artist:fripSide
Creator:DJPop
Version:Normal
Source:To Aru Kagaku no Railgun
Tags:

[Difficulty]
HPDrainRate:3
CircleSize:4
OverallDifficulty:4
SliderMultiplier:1.28
SliderTickRate:2

[Events]
//Background and Video events
Video,400,"LEVEL5 -judgelight- (TV Size).avi"
0,0,"LEVEL5 -judgelight- (TV Size).png"
//Break Periods
//Storyboard Layer 0 (Background)
//Storyboard Layer 1 (Fail)
//Storyboard Layer 2 (Pass)
//Storyboard Layer 3 (Foreground)
//Storyboard Sound Samples
//Background Colour Transformations
3,100,0,0,0

[TimingPoints]
393,430.10752688172,4,1,1,80,1,0
57167,-100,4,1,1,80,0,1
89210,-100,4,2,1,0,0,0

[Colours]
Combo1 : 65,55,115
Combo2 : 170,125,85
Combo3 : 150,60,60
Combo4 : 250,250,250

[HitObjects]
288,48,7274,6,0,C|384:48,2,96,4|0|0
224,80,8134,2,0,C|128:80,2,96
288,112,8995,6,0,C|384:112,2,96
224,144,9855,2,0,C|128:144,2,96
288,176,10715,6,0,B|378:176|384:240,1,128
224,240,11575,2,0,B|134:240|128:304,1,128
288,304,12436,6,0,C|384:304,2,96
256,368,13296,1,2
256,48,14156,6,0,C|256:176,1,128,4|0
160,144,15016,2,0,C|160:48,2,96
160,208,15877,5,0
64,144,16306,2,0,C|64:48,2,96,0|0|0
64,208,17167,1,0
160,272,17597,6,0,C|64:272,2,96,0|0|0
224,304,18457,2,0,C|320:304,2,96
160,336,19317,6,0,C|64:336,2,96,4|0|0
224,368,20178,1,2
352,368,20608,1,2
480,368,21038,6,0,C|480:240,1,128,4|0
384,144,21898,2,0,C|384:48,2,96,0|0|0
384,208,22758,5,0
256,176,23188,1,0
128,144,23618,2,0,C|128:48,2,96
128,208,24479,5,4
32,288,24909,1,0
128,368,25339,1,4
224,288,25769,1,0
320,368,26199,6,0,C|416:368,2,96,4|0|0
336,304,27059,2,0,C|432:304,2,96
352,240,27919,6,0,C|448:240,2,96,4|0|0
368,176,28780,2,0,C|464:176,2,96
384,112,29640,5,4
256,80,30070,1,8
128,48,30500,1,0
32,144,30930,1,8
32,272,31360,5,0
128,368,31790,1,8
256,368,32220,1,0
384,368,32651,1,8
480,272,33081,5,0
480,144,33511,1,8
384,48,33941,1,0
256,48,34371,1,8
128,48,34801,5,0
32,144,35231,2,0,C|32:240,1,96,8|8
32,240,35661,1,0
128,336,36091,1,8
256,336,36522,6,0,C|256:208,3,128,4|8|0|8
384,176,38242,5,0
256,144,38672,1,12
128,112,39102,1,0
256,80,39533,1,12
384,48,39962,6,0,B|466:41|480:112,1,128,4|8
480,240,40823,2,0,C|480:368,1,128,0|8
352,368,41683,5,4
224,368,42113,2,0,C|128:368,1,96,8|8
128,368,42543,1,0
32,272,42973,1,8
32,144,43403,6,0,C|32:48,2,96,4|0|0
96,112,44263,2,0,C|96:208,2,96
160,144,45124,6,0,C|160:48,2,96
224,112,45984,2,0,C|224:240,1,128,0|8
320,144,46844,6,0,C|416:144,2,96,4|0|0
352,208,47704,2,0,C|448:208,2,96
384,272,48565,6,0,C|480:272,2,96
416,336,49425,2,0,C|480:336,2,64,0|0|8
288,368,50285,6,0,C|288:272,2,96,4|0|0
224,368,51145,2,0,C|224:240,1,128,0|8
128,336,52005,6,0,C|32:336,2,96,4|0|0
128,272,52865,2,0,C|32:272,2,96
128,208,53726,6,0,C|32:208,2,96,4|0|0
128,144,54586,2,0,C|32:144,2,96
128,80,55446,6,0,C|384:80,1,256,4|2
256,368,57167,6,0,C|256:240,1,128,4|0
368,272,58027,2,0,C|368:368,2,96,0|0|0
368,208,58888,5,0
480,272,59317,2,0,C|480:368,2,96,0|0|0
480,208,60178,1,0
384,112,60608,6,0,C|480:112,2,96,0|0|0
352,48,61468,2,0,C|448:48,2,96
288,48,62328,6,0,C|192:48,2,96,4|0|0
256,112,63189,1,2
128,112,63619,1,2
128,240,64049,6,0,B|111:313|32:304,1,128,4|0
160,336,64909,2,0,C|256:336,2,96
96,368,65769,5,0
64,240,66199,1,0
192,240,66629,2,0,C|192:144,2,96,0|0|0
256,272,67490,5,4
352,368,67920,1,0
448,272,68350,1,4
352,176,68780,1,0
352,48,69210,6,0,C|448:48,2,96,4|0|0
288,48,70070,1,2
160,48,70500,1,6
32,48,70930,6,0,C|32:175,1,128,4|0
160,176,71791,1,0
240,144,72113,1,0
320,112,72436,1,0
384,112,72651,6,0,B|468:107|480:176,1,128
448,256,73403,1,0
416,336,73726,2,0,C|352:336,1,64
224,336,74371,6,0,C|224:240,2,96
160,368,75231,2,0,C|160:272,2,96
96,336,76092,5,4
40,272,76414,1,0
96,208,76737,1,0
32,176,76952,2,0,C|32:48,1,128,2|2
160,48,77812,6,0,C|288:48,1,128,4|0
416,48,78672,1,0
472,112,78995,1,0
416,176,79318,1,0
352,176,79532,6,0,C|224:176,1,128
96,176,80393,1,0
40,240,80715,1,0
96,304,81038,1,0
160,304,81253,6,0,C|288:304,1,128,4|0
160,368,82113,2,0,C|288:368,1,128,4|0
416,336,82973,5,4
448,256,83296,1,0
480,176,83618,1,0
448,112,83833,1,0
368,80,84156,1,0
288,48,84479,1,0
224,48,84694,5,4
88,80,85124,1,0
32,208,85554,1,4
88,336,85984,1,0
224,368,86414,5,4
280,304,86737,1,0
224,240,87059,1,0
288,208,87274,1,0
232,144,87597,1,0
288,80,87919,1,0
224,48,88134,1,4
256,208,88242,12,0,89210
