osu file format v6

[General]
AudioFilename: LEVEL5 -judgelight- (TV Size).mp3
AudioLeadIn: 0
PreviewTime: 13296
Countdown: 0
SampleSet: Normal
StackLeniency: 0.4
Mode: 0
LetterboxInBreaks: 0

[Editor]
Bookmarks: 7274,14156,21038,29640,36522,43403,50285,57167,64048,70930,77812,84694
DistanceSpacing: 0.899999976158142
BeatDivisor: 4
GridSize: 8

[Metadata]
Title:LEVEL5 -judgelight- (TV Size)
Artist:fripSide
Creator:DJPop
Version:Insane
Source:To Aru Kagaku no Railgun
Tags:

[Difficulty]
HPDrainRate:6
CircleSize:5
OverallDifficulty:8
SliderMultiplier:1.92
SliderTickRate:2

[Events]
//Background and Video events
Video,400,"LEVEL5 -judgelight- (TV Size).avi"
0,0,"LEVEL5 -judgelight- (TV Size).png"
//Break Periods
//Storyboard Layer 0 (Background)
//Storyboard Layer 1 (Fail)
//Storyboard Layer 2 (Pass)
//Storyboard Layer 3 (Foreground)
//Storyboard Sound Samples
//Background Colour Transformations
3,100,0,0,0

[TimingPoints]
393,430.10752688172,4,1,1,80,1,0
57167,-100,4,1,1,80,0,1
89210,-100,4,2,1,0,0,0

[Colours]
Combo1 : 65,55,115
Combo2 : 170,125,85
Combo3 : 150,60,60
Combo4 : 250,250,250

[HitObjects]
160,48,7274,5,4
352,48,7705,1,0
160,112,8135,1,0
352,112,8565,1,0
160,176,8995,5,0
352,176,9425,1,0
160,240,9855,1,0
352,240,10285,1,0
256,368,10715,5,0
192,336,10930,1,0
128,304,11145,1,0
96,240,11361,1,0
96,176,11576,1,0
128,112,11791,1,0
192,80,12006,1,0
256,48,12221,1,0
320,80,12436,5,0
336,112,12543,1,0
320,144,12651,1,0
304,176,12758,1,0
320,208,12866,1,0
336,240,12973,1,0
320,272,13081,1,0
304,304,13188,1,0
320,336,13296,1,2
384,368,13511,1,2
448,336,13726,1,2
480,272,13941,1,2
448,208,14156,6,0,B|496:128|480:72|416:48,1,192,4|8
384,112,14801,1,0
352,48,15016,1,0
288,80,15232,1,0
272,80,15339,2,0,C|224:80,1,48,0|8
160,48,15662,1,0
128,112,15877,5,0
64,144,16092,1,0
32,208,16307,1,8
64,272,16522,1,0
96,304,16629,2,0,C|192:304,2,96,0|8|0
64,336,17167,1,8
128,368,17382,1,0
192,368,17597,5,0
256,336,17812,1,0
256,320,17919,2,0,C|256:272,1,48,0|12
288,208,18242,1,0
224,208,18457,1,0
256,144,18672,1,0
256,128,18780,2,0,C|256:80,1,48,0|12
320,48,19102,1,0
384,48,19318,5,4
416,112,19533,1,0
432,112,19640,2,0,C|480:112,1,48,0|8
320,112,20070,1,0
352,112,20178,1,2
384,176,20393,1,2
448,176,20608,1,10
480,240,20823,1,2
480,304,21038,6,0,B|472:368|416:378|360:368|352:304,1,192,4|8
320,240,21683,1,0
288,304,21898,1,0
256,368,22113,1,0
240,368,22220,2,0,C|192:368,1,48,0|8
128,368,22543,1,0
64,368,22758,5,0
32,304,22973,1,0
96,304,23188,1,8
160,304,23404,1,0
160,240,23618,2,0,C|120:200,1,48,0|8
96,240,23833,1,0
65,206,23941,2,0,C|32:240,1,48,0|8
32,144,24264,1,0
32,112,24371,1,0
32,80,24479,5,4
256,48,24909,1,8
480,80,25339,1,4
416,112,25554,1,0
480,144,25769,1,8
416,176,25984,1,0
480,208,26199,5,4
480,272,26414,1,0
448,272,26522,2,0,C|448:320,1,48,0|8
416,320,26737,2,0,C|416:368,1,48
352,336,27059,2,0,C|352:240,1,96
352,208,27382,1,0
352,176,27489,1,8
288,144,27705,1,0
256,80,27919,6,0,C|256:32,2,48,4|0|0
224,144,28349,1,8
224,160,28457,2,0,C|224:208,1,48
160,240,28780,2,0,B|176:248|200:280|176:312|160:320,1,96
128,336,29102,1,0
104,352,29210,2,0,C|56:352,1,48,8|0
32,336,29425,1,0
32,272,29640,5,4
32,128,29962,2,0,C|32:176,1,48,0|8
96,176,30285,2,0,B|82:36|193:48,1,192
256,48,30930,1,8
288,112,31145,1,0
256,176,31361,5,0
400,176,31683,2,0,C|352:176,1,48,0|8
352,112,32005,1,0
368,48,32220,2,0,C|320:48,2,48
432,48,32651,2,0,C|480:48,2,48,8|0|0
448,112,33081,5,0
480,224,33403,2,0,C|480:272,1,48,0|8
480,336,33726,2,0,B|416:389|352:368|320:304,1,192
288,240,34371,1,8
256,176,34586,1,0
224,112,34801,5,0
112,48,35124,2,0,C|63:48,1,48,0|8
32,112,35446,2,0,C|32:160,1,48,0|8
32,176,35661,2,0,C|32:224,2,48
96,176,36091,2,0,C|96:128,2,48,8|0|0
160,176,36522,6,0,C|255:176,1,96,4|0
192,240,36952,2,0,C|288:240,1,96,8|0
224,304,37382,2,0,C|320:304,1,96
256,368,37812,1,8
320,368,38027,1,0
384,368,38242,6,0,B|507:368|480:240,2,192,0|12|0
352,304,39318,1,0
352,240,39533,1,12
416,208,39748,1,0
480,176,39962,6,0,B|472:112|416:102|360:112|352:176,1,192,4|8
288,208,40608,1,0
224,240,40823,2,0,B|216:304|160:314|104:304|96:240,1,192,0|8
32,208,41468,1,0
96,176,41683,5,4
32,80,42005,2,0,C|42:59|64:48,1,48,0|8
128,48,42328,1,0
160,64,42436,1,8
192,80,42543,2,0,L|224:120,1,48
240,80,42758,2,0,C|272:40,1,48
288,80,42973,2,0,C|320:120,1,48,8|0
336,80,43188,2,0,C|368:40,1,48
384,80,43404,5,4
480,176,43726,1,0
384,272,44049,1,0
320,272,44264,1,0
224,368,44586,1,0
128,272,44909,1,0
64,272,45124,5,0
32,144,45447,1,0
128,48,45769,1,0
192,80,45984,2,0,B|256:129|240:208,1,144
224,240,46414,1,8
192,304,46629,1,0
160,368,46844,5,4
288,336,47167,1,0
416,304,47490,1,0
384,240,47705,1,0
480,144,48027,1,0
384,48,48350,1,0
320,80,48565,5,0
192,48,48887,1,0
64,80,49210,1,0
48,112,49317,1,0
32,144,49425,2,0,C|32:240,1,96
96,272,49855,2,0,C|96:176,1,96,8|0
128,112,50285,5,4
192,224,50608,1,0
128,336,50930,1,0
192,368,51145,2,0,C|384:368,1,192,0|8
192,304,52006,5,4
288,208,52328,1,0
384,304,52651,1,0
448,304,52866,1,0
480,176,53188,1,0
448,48,53511,1,0
384,48,53726,5,4
288,144,54049,1,0
192,48,54371,1,0
256,48,54586,1,0
160,144,54909,1,0
64,48,55232,1,0
32,112,55447,5,4
64,176,55661,1,0
80,208,55769,1,0
96,240,55876,1,0
128,256,55984,1,0
160,272,56091,1,0
176,304,56199,1,0
192,336,56307,1,2
256,368,56522,1,2
320,336,56737,1,2
384,368,56952,1,2
448,336,57167,6,0,B|488:320|511:256|488:192|448:176,1,192,4|8
384,144,57812,1,0
352,208,58027,1,0
320,144,58242,1,0
304,144,58349,2,0,C|256:144,1,48,0|8
224,208,58672,1,0
192,144,58887,5,0
160,208,59102,1,0
128,272,59317,1,8
96,208,59532,1,0
64,192,59640,2,0,B|27:218|16:240|32:272,2,96,0|8|0
48,160,60177,1,8
64,96,60393,1,0
128,80,60608,5,0
192,48,60823,1,0
208,48,60930,2,0,C|256:48,1,48,0|12
288,112,61253,1,0
320,48,61468,1,0
352,112,61683,1,0
368,112,61790,2,0,C|416:112,1,48,0|12
448,48,62113,1,0
480,112,62328,5,4
480,176,62543,1,0
480,192,62651,2,0,C|480:240,1,48,0|8
480,368,63081,1,0
480,368,63188,1,2
416,336,63404,1,2
352,368,63619,1,10
288,336,63834,1,2
224,368,64048,6,0,C|32:368,1,192,4|8
32,304,64694,1,0
32,240,64909,1,0
96,240,65124,1,0
96,256,65231,2,0,C|96:304,1,48,0|8
160,304,65554,1,0
224,304,65769,5,0
224,240,65984,1,0
160,240,66199,1,8
128,176,66414,1,0
64,144,66629,2,0,C|104:104,1,48,0|8
128,96,66844,1,0
158,110,66952,2,0,C|192:144,1,48,0|8
256,112,67275,1,0
256,80,67382,1,0
256,48,67490,5,4
480,208,67919,1,8
256,368,68350,1,4
320,368,68565,1,0
384,368,68780,1,8
448,368,68995,1,0
480,304,69210,5,4
416,304,69425,1,0
400,304,69532,2,0,C|352:304,1,48,0|8
336,304,69747,2,0,C|288:304,1,48
320,240,70070,1,2
384,240,70285,1,2
448,240,70500,1,14
416,176,70715,1,2
352,176,70930,5,4
480,48,71360,1,8
416,80,71576,1,0
352,48,71791,1,0
288,80,72006,1,0
256,64,72113,1,0
224,48,72220,1,8
192,112,72436,1,0
160,48,72651,5,0
128,112,72866,1,0
96,48,73081,1,8
64,112,73296,1,0
64,112,73404,1,0
32,176,73618,1,8
64,240,73833,1,0
64,240,73941,1,8
96,304,74156,1,0
128,368,74371,5,0
192,368,74586,1,0
208,336,74694,1,0
192,304,74801,1,12
224,240,75016,1,0
288,240,75232,1,0
320,304,75447,1,0
304,336,75554,1,0
320,368,75661,1,12
384,368,75877,1,0
416,304,76092,5,4
448,240,76307,1,0
464,208,76414,1,0
448,176,76522,1,8
464,144,76629,1,0
464,80,76844,1,0
448,48,76952,1,2
384,80,77167,1,2
320,112,77382,1,10
288,48,77597,1,2
224,80,77812,5,4
32,48,78242,1,8
96,80,78457,1,0
64,144,78672,1,0
128,176,78887,1,0
112,208,78995,1,0
96,240,79102,1,8
160,272,79318,1,0
128,336,79533,5,0
192,368,79748,1,0
256,336,79962,1,8
320,368,80178,1,0
384,336,80393,1,0
352,272,80608,1,0
384,256,80715,1,0
416,240,80823,1,8
384,176,81038,1,0
416,160,81145,1,0
448,144,81253,5,4
256,48,81683,1,8
64,144,82113,1,4
32,208,82328,1,0
64,272,82543,1,8
96,208,82758,1,0
160,208,82973,5,4
200,152,83188,1,0
224,176,83296,1,0
240,208,83403,1,8
256,240,83511,1,0
280,264,83618,1,0
320,208,83833,1,0
384,208,84048,1,0
400,176,84156,1,0
432,160,84263,1,8
480,208,84479,1,0
464,240,84586,1,0
432,256,84694,5,4
256,368,85124,1,0
80,256,85554,1,4
32,208,85769,1,0
24,176,85876,1,0
32,144,85984,1,0
64,80,86199,1,0
128,48,86414,5,4
192,80,86629,1,0
224,96,86737,1,0
256,112,86844,1,8
288,96,86952,1,0
320,80,87059,1,0
384,48,87274,1,0
448,80,87489,1,0
464,112,87597,1,0
480,144,87704,1,8
480,208,87919,1,0
472,240,88027,1,0
464,272,88134,1,4
256,208,88242,12,0,89210
