osu file format v6

[General]
AudioFilename: LEVEL5 -judgelight- (TV Size).mp3
AudioLeadIn: 0
PreviewTime: 13296
Countdown: 0
SampleSet: Normal
StackLeniency: 0.4
Mode: 0
LetterboxInBreaks: 0

[Editor]
Bookmarks: 7274,14156,21038,29640,36522,43403,50285,57167,64048,70930,77812,84694
DistanceSpacing: 0.850000023841858
BeatDivisor: 4
GridSize: 32

[Metadata]
Title:LEVEL5 -judgelight- (TV Size)
Artist:fripSide
Creator:DJPop
Version:Easy
Source:To Aru Kagaku no Railgun
Tags:

[Difficulty]
HPDrainRate:2
CircleSize:3
OverallDifficulty:2
SliderMultiplier:0.96
SliderTickRate:2

[Events]
//Background and Video events
Video,400,"LEVEL5 -judgelight- (TV Size).avi"
0,0,"LEVEL5 -judgelight- (TV Size).png"
//Break Periods
//Storyboard Layer 0 (Background)
//Storyboard Layer 1 (Fail)
//Storyboard Layer 2 (Pass)
//Storyboard Layer 3 (Foreground)
//Storyboard Sound Samples
//Background Colour Transformations
3,100,0,0,0

[TimingPoints]
393,430.10752688172,4,1,1,80,1,0
57167,-100,4,1,1,80,0,1
89210,-100,4,2,1,0,0,0

[Colours]
Combo1 : 65,55,115
Combo2 : 170,125,85
Combo3 : 150,60,60
Combo4 : 250,250,250

[HitObjects]
112,120,7274,6,0,C|208:120,3,96,4|0|0|0
304,120,8995,2,0,C|400:120,3,96,0|0|0|0
400,216,10715,6,0,C|304:216,1,96,0|0
208,216,11575,2,0,C|112:216,1,96
160,296,12436,6,0,C|351:296,1,192,0|2
256,48,14156,5,4
96,48,15016,1,0
64,208,15876,1,0
96,368,16737,1,0
256,368,17597,6,0,C|352:368,4,96,0|4|0|4|4
256,208,20177,1,2
256,48,21038,5,4
416,48,21898,1,0
448,208,22758,1,0
416,368,23618,1,0
256,368,24479,5,4
256,208,25339,1,4
256,48,26199,6,0,C|64:48,4,192,4|0|4|0|4
416,48,30500,5,0
448,208,31360,1,0
416,368,32220,1,0
256,368,33081,5,0
96,368,33941,1,0
64,208,34801,1,0
96,48,35661,1,0
256,48,36522,6,0,C|448:48,1,192,4|0
480,208,38242,2,0,C|480:303,4,96,0|4|0|4|4
320,208,40823,5,0
288,368,41683,1,4
128,368,42543,2,0,B|75:358|64:304,1,96
64,240,43403,6,0,B|87:112|184:112,3,192,4|0|0|0
256,112,46414,1,8
329,112,46844,6,0,B|425:112|448:240,3,192,4|0|0|0
392,288,49855,1,8
320,272,50285,6,0,C|320:368,2,96,4|0|0
256,240,51575,1,8
192,272,52005,6,0,C|192:368,3,96,4|0|0|0
128,368,53726,2,0,C|32:368,3,96,4|0|0|0
32,304,55446,6,0,C|32:112,1,192,4|2
256,48,57167,5,4
416,48,58027,1,0
448,208,58887,1,0
416,368,59747,1,0
256,368,60608,6,0,C|160:368,4,96,0|4|0|4|4
256,208,63188,2,0,C|256:112,1,96,2|2
256,48,64048,5,4
96,48,64909,1,0
64,208,65769,1,0
96,368,66629,1,0
256,368,67490,5,4
256,208,68350,1,4
256,48,69210,6,0,C|448:48,1,192,4|2
480,112,70500,1,6
448,176,70930,5,4
448,336,71791,1,0
288,368,72651,2,0,C|96:368,1,192
64,208,74371,6,0,C|64:112,4,96,0|4|0|4|4
224,208,76952,1,2
192,144,77382,1,2
224,80,77812,5,4
384,80,78672,1,0
480,208,79532,2,0,B|505:335|383:336,1,192
224,336,81253,5,4
64,336,82113,1,4
64,176,82973,6,0,C|120:96,3,96,4|0|0|0
160,48,84694,5,4
352,48,85554,1,4
256,208,86414,1,4
256,208,86737,12,4,88134
