osu file format v7

[General]
AudioFilename: LEVEL5 -judgelight-.mp3
AudioLeadIn: 0
PreviewTime: 27098
Countdown: 0
SampleSet: Normal
StackLeniency: 0.7
Mode: 0
LetterboxInBreaks: 0

[Editor]
DistanceSpacing: 1
BeatDivisor: 4
GridSize: 8

[Metadata]
Title:LEVEL5 -judgelight- (Full Ver.)
Artist:fripSide
Creator:cyborg
Version:Normal
Source:To Aru Kagaku no Railgun
Tags:anime j-pop siriru youngdow woodrockman

[Difficulty]
HPDrainRate:4
CircleSize:3
OverallDifficulty:4
SliderMultiplier:1.2
SliderTickRate:1

[Events]
//Background and Video events
Video,-110,"pv.wmv"
0,0,"aaaa.jpg"
//Break Periods
2,160628,175453
//Storyboard Layer 0 (Background)
//Storyboard Layer 1 (Fail)
//Storyboard Layer 2 (Pass)
//Storyboard Layer 3 (Foreground)
//Storyboard Sound Samples
//Background Colour Transformations
3,100,0,0,0

[TimingPoints]
429,430.10752688172,4,1,0,60,1,0
27848,-100,4,1,1,80,0,0
27955,-100,4,1,1,80,0,1
38170,-100,4,1,1,60,0,0
43009,-100,4,2,1,0,0,0
43224,-100,4,1,1,60,0,0
70966,-100,4,1,1,80,0,1
81181,-100,4,1,1,60,0,0
84622,-100,4,1,1,80,0,0
84730,-100,4,1,1,80,0,1
94945,-100,4,1,1,60,0,0
127740,-100,4,1,1,80,0,1
137955,-100,4,1,1,60,0,0
141396,-100,4,1,1,80,0,0
141504,-100,4,1,1,80,0,1
151719,-100,4,1,1,60,0,0
176558,-100,4,2,0,80,0,0
189568,-100,4,1,0,50,0,0
191289,-100,4,1,1,80,0,0
191396,-100,4,1,1,80,0,1
201611,-100,4,1,1,60,0,0
205160,-100,4,1,1,80,0,1
215375,-100,4,1,1,60,0,0
223224,-100,4,2,1,0,0,0

[Colours]
Combo1 : 255,191,255
Combo2 : 188,188,222
Combo3 : 255,198,140

[HitObjects]
224,120,27095,2,0,B|160:120,2,60,2|2|2
344,120,27955,6,0,B|416:136|456:232|456:328,1,240,4|0
344,352,29246,1,0
240,296,29676,6,0,B|96:296,2,120
240,176,30966,1,0
360,176,31396,6,0,B|424:176|464:112,2,120,4|0|0
240,176,32687,1,0
120,176,33117,6,0,B|64:136|64:72,2,120,4|0|2
120,296,34407,1,2
232,336,34837,5,4
352,336,35267,1,0
456,272,35697,1,0
456,152,36127,1,0
360,80,36558,6,0,B|224:80,1,120
312,176,37418,2,0,B|168:176,1,120
264,272,38278,6,0,B|128:272,2,120,4|0|0
368,328,39568,1,0
472,272,39998,6,0,B|472:200|424:152,1,120,4|0
256,192,40644,12,0,43009
336,320,43439,6,0,B|472:320,2,120,4|0|0
216,296,44730,1,0
96,320,45160,6,0,B|32:288|32:216,1,120
72,112,46020,2,0,B|128:72|192:72,1,120
304,88,46880,5,0
424,64,47310,1,0
472,176,47740,1,0
352,192,48170,1,0
232,208,48601,6,0,B|96:208,1,120
40,304,49461,2,0,B|176:304,1,120
272,336,50321,6,0,B|360:352|416:328|464:272|472:224,1,240,4|0
416,128,51611,1,0
312,64,52041,6,0,B|232:48|160:48|104:80|72:128,1,240,4|0
48,224,53332,1,0
160,272,53762,6,0,B|208:232|216:168,1,120,4|0
320,112,54622,1,0
440,136,55052,1,0
440,256,55482,6,0,B|400:312,1,60,4|0
344,312,55912,2,0,B|208:328,1,120
112,288,56773,1,0
72,176,57203,6,0,B|72:64,2,90,4|0|0
128,176,58063,2,0,B|184:96,2,90,4|0|0
168,216,58923,6,0,B|224:256|272:296|400:288,1,240,4|0
472,200,60213,1,0
384,120,60644,6,0,B|336:40,2,90,4|0|0
328,144,61504,2,0,B|240:96,2,90,4|0|0
288,192,62364,6,0,B|208:256|136:256|48:232,1,240,4|0
40,120,63654,1,0
160,96,64084,6,0,B|272:72,2,90,4|0|0
152,152,64945,2,0,B|88:264,1,120,4|0
192,328,65805,6,0,B|288:352,2,90,4|0|0
168,272,66665,2,0,B|144:176,2,90,4|0|0
224,264,67525,6,0,B|280:232|336:240,2,90,4|0|0
216,208,68385,2,0,B|216:152|248:112,2,90,4|0|0
256,192,69246,12,4,70966
256,296,71396,5,0
376,288,71826,1,0
440,184,72256,1,0
368,88,72687,6,0,B|240:88,1,120
320,184,73547,2,0,B|184:184,1,120
88,144,74407,5,0
48,256,74837,1,0
136,336,75267,2,0,B|264:336,1,120
376,336,76127,6,0,B|448:336,2,60
376,216,76988,2,0,B|376:152|448:120,1,120,2|2
352,48,77848,5,4
240,96,78278,2,0,B|168:80|120:112,1,120
40,200,79138,1,0
136,272,79568,6,0,B|216:280|288:256|352:184,1,240,4|0
464,144,80859,1,0
464,264,81289,5,4
368,336,81719,1,0
248,312,82149,1,4
128,336,82579,1,0
48,248,83009,6,0,B|48:168,2,60
144,176,83869,2,0,B|144:104,2,60,2|2|2
264,176,84730,6,0,B|288:104|336:72,1,120,4|0
440,120,85590,1,0
376,224,86020,1,0
256,248,86450,6,0,B|184:232,2,60
336,336,87310,2,0,B|408:344|456:312,1,120
472,192,88170,5,0
416,88,88601,1,0
296,64,89031,2,0,B|232:48|168:80,1,120
232,184,89891,6,0,B|168:216|104:200,1,120
96,320,90751,2,0,B|32:304,2,60,2|2|2
216,344,91611,5,4
336,312,92041,2,0,B|408:288|464:312,2,120
240,240,93332,6,0,B|288:192,2,60
120,240,94192,2,0,B|64:184,2,60
184,136,95052,6,0,B|184:56|264:56,1,120,4|0
376,64,95912,2,0,B|456:64|456:144,1,120,4|0
256,192,96773,12,0,98493
256,192,99353,5,0
64,56,100213,6,0,B|128:40|184:56,1,120,4|0
272,136,101074,2,0,B|344:152|400:136,1,120
464,232,101934,6,0,B|464:296|424:344,1,120
320,280,102794,1,0
208,320,103224,1,0
88,296,103654,5,0
72,240,103869,1,0
64,184,104084,2,0,B|88:120|152:104,1,120
264,128,104945,1,0
376,168,105375,6,0,B|448:152|472:96,2,120
264,208,106665,1,0
144,184,107095,6,0,B|64:184|40:264|72:336|160:336,1,240,4|0
384,336,108816,6,0,B|464:336|480:256|464:184|368:184,1,240,4|0
312,88,110106,1,0
200,56,110536,6,0,B|128:48|80:104,1,120,4|0
176,176,111396,2,0,B|104:168|56:224,1,120,4|0
136,312,112256,6,0,B|208:336|272:320|328:264|336:224,1,240,4|0
288,120,113547,1,0
184,176,113977,6,0,B|88:136,2,90,4|0|0
136,216,114837,2,0,B|40:256,2,90,4|0|0
192,240,115697,6,0,B|224:296|280:328,2,120,4|0|0
296,184,116988,1,0
416,160,117418,6,0,B|392:72,2,90,4|0|0
464,200,118278,2,0,B|480:304,2,90,4|0|0
408,208,119138,6,0,B|336:192|280:248,2,120,4|0|0
376,328,120428,1,0
256,296,120859,6,0,B|192:280|128:296,2,120,4|0|0
184,200,122149,1,0
256,104,122579,6,0,B|328:104|376:64,2,120,4|0|0
328,200,123869,1,0
216,152,124299,5,4
96,128,124730,1,0
184,40,125160,1,4
304,40,125590,1,0
256,192,126020,12,4,127740
392,176,128170,5,0
440,288,128601,1,0
328,328,129031,1,0
232,256,129461,6,0,B|160:248|96:280,2,120
328,184,130751,1,0
256,88,131181,5,0
136,72,131611,1,0
208,168,132041,1,0
88,152,132472,1,0
160,248,132902,6,0,B|32:232,1,120
104,336,133762,1,2
224,336,134192,1,2
344,336,134622,6,0,B|424:336|464:280,1,120,4|0
416,176,135482,1,0
440,56,135912,1,0
320,72,136342,5,4
264,88,136558,1,0
208,72,136773,1,0
96,112,137203,1,0
184,192,137633,1,0
72,224,138063,6,0,B|64:288|120:336,1,120,4|0
224,280,138923,2,0,B|288:272|344:304,1,120,4|0
456,336,139783,6,0,B|448:264|408:224,1,120,4|0
296,192,140644,2,0,B|264:136,2,60,2|2|2
184,232,141504,6,0,B|96:224|80:160,1,120,4|0
152,80,142364,1,0
272,72,142794,1,0
392,88,143224,5,0
392,88,143439,1,0
392,88,143654,1,0
440,200,144084,1,0
432,320,144515,1,0
312,344,144945,6,0,B|168:344,2,120
248,240,146235,1,0
128,240,146665,6,0,B|72:208|56:144,1,120,4|0
152,80,147525,2,0,B|216:56|280:64,1,120,2|2
376,120,148385,5,4
280,192,148816,1,0
160,184,149246,1,0
80,272,149676,1,0
184,328,150106,5,0
184,328,150321,1,0
184,328,150536,1,0
304,336,150966,2,0,B|368:336|424:296,1,120
432,184,151826,6,0,B|360:160|336:80,2,120,4|0|4
320,216,153117,1,0
208,184,153547,6,0,B|120:184|80:248,2,120,4|0|4
160,72,154837,1,0
280,64,155267,6,0,B|368:88|432:152|448:248,1,240,4|0
416,344,156558,1,0
256,192,156988,12,0,158708
256,288,159031,6,0,B|160:288,3,90
104,288,160213,1,0
64,240,160428,1,4
328,96,176773,6,0,B|392:96,2,60,2|2|2
208,96,177633,5,4
104,160,178063,1,0
208,224,178493,1,0
104,288,178923,1,0
208,352,179353,6,0,B|336:352,1,120
432,296,180213,1,0
456,176,180644,1,0
368,96,181074,6,0,B|104:96,1,240,4|0
120,336,182794,6,0,B|376:336,1,240,2|2
440,248,184084,1,2
360,160,184515,6,0,B|96:160,1,240,4|0
64,56,185805,1,0
184,88,186235,5,2
240,96,186450,1,0
296,88,186665,1,0
400,152,187095,2,0,B|448:184|464:264,1,120,2|0
384,344,187955,5,4
144,336,188816,1,4
72,104,189676,6,0,B|136:72,2,60,0|0|0
128,208,190536,2,0,B|200:232|264:192,1,120,2|2
344,136,191396,5,4
240,80,191826,1,0
120,104,192256,1,0
56,208,192687,1,0
104,320,193117,6,0,B|160:344|224:336,1,120
344,352,193977,1,0
432,272,194407,1,0
408,152,194837,5,4
296,112,195267,1,0
248,224,195697,1,4
136,176,196127,1,0
88,288,196558,5,0
88,288,196773,1,0
88,288,196988,1,0
40,176,197418,2,0,B|40:112|88:64,1,120,2|2
200,88,198278,5,4
296,160,198708,2,0,B|424:144,1,120
480,248,199568,1,0
376,312,199998,6,0,B|248:296,1,120,4|0
144,336,200859,1,0
88,312,201074,1,0
48,264,201289,1,0
112,168,201719,6,0,B|184:144|160:72,1,120,4|0
280,64,202579,2,0,B|352:96|320:176,1,120,4|0
408,248,203439,6,0,B|408:320|328:344,1,120
224,344,204299,2,0,B|136:344,2,60,2|2|2
256,192,205160,12,4,206880
256,192,207740,5,0
40,80,208601,5,4
152,120,209031,1,0
112,232,209461,1,4
224,272,209891,1,0
320,336,210321,6,0,B|400:336,2,60
200,352,211181,2,0,B|144:360|112:344|80:288,1,120,2|2
48,200,212041,5,4
168,176,212472,1,0
248,88,212902,1,0
368,64,213332,1,0
432,168,213762,6,0,B|472:216,1,60,4|0
456,272,214192,2,0,B|392:312,1,60
344,304,214622,2,0,B|288:264|224:280,1,120,4|0
112,248,215482,6,0,B|48:208|48:144,1,120,4|0
144,72,216342,1,0
256,112,216773,1,0
256,192,217203,12,4,218923
192,304,219783,5,0
312,304,220213,1,0
256,192,220644,12,0,223224
