osu file format v7

[General]
AudioFilename: imosuku_koniro_tokimeki_short.mp3
AudioLeadIn: 500
PreviewTime: 57623
Countdown: 0
SampleSet: Soft
StackLeniency: 0.5
Mode: 0
LetterboxInBreaks: 0

[Editor]
Bookmarks: 12801,24162,35522,46883,58244,69605,80966,98008,103688
DistanceSpacing: 1
BeatDivisor: 4
GridSize: 8

[Metadata]
Title:Koniro Tokimeki!! (Short Ver.)
Artist:fripSide
Creator:ykcarrot
Version:Normal
Source:Imouto ni! Sukumizu Kisetara Nugasanai!
Tags:hutka Imosuku NAOproject!

[Difficulty]
HPDrainRate:4
CircleSize:4
OverallDifficulty:4
SliderMultiplier:1
SliderTickRate:1

[Events]
//Background and Video events
Video,-750,"imosuku_BG_Video.AVI"
0,0,"imosuku_BG.jpg"
//Break Periods
2,4124,5268
2,13001,23197
//Storyboard Layer 0 (Background)
//Storyboard Layer 1 (Fail)
//Storyboard Layer 2 (Pass)
//Storyboard Layer 3 (Foreground)
//Storyboard Sound Samples
//Background Colour Transformations
3,100,163,162,255

[TimingPoints]
20,355.029585798817,4,2,0,80,1,0
3392,-200,4,2,0,80,0,0
6410,-100,4,2,0,80,0,0
11025,-100,4,1,0,70,0,0
24339,-100,4,2,0,80,0,0
34990,-100,4,1,0,60,0,0
58244,-100,4,1,0,70,0,1
68008,-100,4,1,0,70,0,0
69605,-100,4,1,0,70,0,1
90730,-100,4,1,0,70,0,0
99428,-100,4,1,0,60,0,0
100138,-100,4,1,0,50,0,0
100848,-100,4,1,0,40,0,0
101558,-100,4,1,0,30,0,0
102268,-100,4,1,0,20,0,0
102978,-100,4,1,0,10,0,0
103688,-100,4,1,1,0,0,0

[Colours]
Combo1 : 0,0,255
Combo2 : 255,255,255
Combo3 : 255,128,192

[HitObjects]
56,192,907,2,0,B|168:192,1,100
208,192,1440,2,0,B|264:192|304:144,1,100,4|2
368,80,2150,1,0
368,80,2327,1,0
456,128,2682,2,0,B|456:232|376:264,1,150,0|2
344,272,3392,2,0,B|256:272,1,75
456,192,6588,6,0,B|344:192,1,100
304,192,7121,2,0,B|248:192|208:240,1,100,4|2
144,304,7831,1,0
144,304,8008,1,0
56,256,8363,2,0,B|56:168|144:136,1,150,0|2
184,120,9073,1,0
256,192,9428,6,0,B|256:72,1,100,0|0
296,64,9960,2,0,B|248:8|200:80,2,100,0|2|2
320,104,10848,1,2
320,200,11203,5,2
256,280,11558,1,2
192,200,11913,1,2
192,200,12091,1,2
256,120,12446,2,0,L|264:128|256:128|264:136|256:136|264:144|256:144|264:152|256:152|264:160|256:160|264:168|256:168|264:176|256:176|264:184|256:184|264:192,1,100,0|4
256,344,24517,5,0
168,304,24872,1,0
168,304,25049,1,0
80,256,25404,1,0
80,160,25759,1,2
168,208,26114,1,2
168,112,26469,2,0,L|264:168,1,100,0|2
296,184,27002,6,0,B|296:248|376:248,1,100,0|2
408,248,27534,2,0,B|408:360,2,100,0|2|2
408,200,28422,2,0,B|408:136|328:136,1,100,0|2
296,136,28954,2,0,B|296:24,2,100,0|2|2
296,184,29842,6,0,B|288:208|256:216|224:208|208:176,1,100,0|2
256,40,30730,1,0
256,88,30907,1,0
256,136,31085,2,0,B|256:240,1,100,0|2
256,336,31795,2,0,B|256:224,1,100,0|2
200,152,32505,2,0,B|176:128|176:104|176:64|184:32|216:16|256:0|296:16|328:32|336:64|336:104|336:128|304:160,1,350,0|2
256,240,34102,5,2
152,352,34635,1,2
48,240,35167,2,0,L|56:232|48:232|56:224|48:224|56:216|48:216|56:208|48:208|56:200|48:200|56:192|48:192|56:184|48:184|56:176|48:176|56:168,1,100,0|4
56,72,35877,5,0
160,72,36233,1,0
160,72,36410,1,0
256,72,36765,1,0
352,72,37120,1,2
256,72,37475,1,2
160,72,37830,2,0,B|48:72,1,100,2|0
56,120,38363,6,2,B|56:184|120:200,1,100,2|0
160,200,38895,2,0,B|264:200,2,100,2|8|8
160,248,39783,2,2,B|160:312|224:328,1,100,2|0
264,328,40315,2,0,B|368:328,2,100,2|8|8
216,328,41203,6,2,B|152:328|128:256,1,100,2|2
136,128,42091,1,2
168,88,42268,1,0
208,64,42446,2,0,B|256:24|312:72,1,100,2|8
299,162,43156,2,0,B|251:202|195:154,1,100,2|8
256,208,43866,12,0,45108
160,304,46883,6,0,B|256:352|368:296,1,200,4|8
400,288,47771,2,0,B|400:360,2,50,0|0|8
432,192,48481,1,0
432,192,48659,2,2,B|432:64|296:64,1,200,2|2
201,64,49724,6,0,B|80:64|80:189,1,200,0|8
80,240,50611,2,0,B|16:240,2,50,0|0|8
160,304,51321,1,0
160,304,51499,2,2,B|256:352|368:296,1,200
352,200,52564,6,0,B|352:88,1,100,4|8
352,100,53096,1,0
256,216,53629,1,2
160,200,53984,2,0,B|160:88,1,100,0|8
160,100,54516,1,0
256,80,54872,1,0
256,80,55227,2,0,B|420:72|420:288|244:272,1,350
48,272,57712,5,0
88,304,57889,1,0
128,272,58067,1,0
88,240,58244,2,0,B|88:136,2,100,4|8|0
88,240,59132,1,8
88,336,59487,2,2,B|160:384|248:328,1,150,2|10
230,338,60197,1,0
320,296,60552,5,2
320,296,60730,1,8
320,296,60907,1,0
320,296,61085,1,2
416,296,61440,1,8
416,200,61795,1,0
416,200,61972,1,0
416,200,62150,1,8
416,200,62327,2,0,B|256:200,1,150,0|0
112,200,63392,5,2
80,160,63570,1,0
112,120,63747,1,2
144,160,63925,2,0,B|256:160,2,100,0|8|0
144,160,64812,1,8
48,160,65167,2,0,B|48:272,1,100,2|2
48,260,65700,1,8
48,260,65877,1,2
112,336,66233,6,2,B|160:336|176:296|176:296|192:336|256:336,1,150,2|2
328,336,67120,1,8
280,248,67475,1,8
280,248,67653,1,8
376,248,68008,1,2
152,48,69073,6,0,B|88:48,2,50
192,72,69605,2,0,B|232:120|184:176,1,100,4|8
128,240,70315,1,0
128,240,70493,1,8
192,320,70848,2,2,B|240:360|296:312,1,100,2|0
328,296,71380,2,0,B|376:264,1,50,10|0
440,200,71913,6,0,B|504:200,2,50,2|8|0
392,200,72446,1,2
320,128,72801,1,8
248,200,73156,1,0
216,240,73333,1,0
168,256,73511,1,8
120,256,73688,2,0,B|24:256|24:152,1,150
144,72,74753,6,0,B|144:136,2,50,2|0|2
144,24,75286,1,0
232,72,75641,1,8
320,120,75996,1,0
320,120,76173,1,8
408,168,76528,2,0,B|440:216|400:280,1,100,2|2
384,304,77061,2,2,B|352:352,1,50,8|2
256,352,77593,6,2,B|208:352|192:312|192:312|176:352|112:352,1,150
40,352,78481,1,8
88,264,78836,1,8
88,264,79014,1,8
184,264,79369,2,0,B|304:264,2,100,2|2|2
136,264,80256,1,2
88,264,80434,6,0,B|88:328,2,50,0|0|0
88,216,80966,2,0,B|32:216|0:160,2,100,4|8|0
136,216,81854,1,8
232,216,82209,2,2,B|304:216|336:160,1,100,2|0
352,144,82741,1,10
352,144,82919,1,0
352,48,83274,5,2
352,48,83451,1,8
352,48,83629,1,0
352,48,83806,2,0,B|464:48,2,100,2|8|0
304,48,84694,2,0,B|232:48,1,50,0|8
200,48,85049,2,0,B|112:48|80:152,1,150,0|0
64,280,86114,6,0,B|0:280,2,50,2|0|2
112,280,86647,2,0,B|112:344|192:360,2,100,0|8|0
112,232,87534,1,8
112,136,87889,2,0,B|112:80|168:56,1,100,2|2
208,40,88422,1,8
208,40,88599,1,2
304,40,88954,6,2,B|352:40|368:80|368:80|384:40|448:40,1,150
488,120,89842,1,8
424,200,90197,1,8
424,200,90375,1,8
488,280,90730,1,2
192,344,91795,6,0,B|128:344|128:272,1,100
128,232,92327,1,4
128,136,92682,1,8
128,232,93037,1,8
128,232,93215,1,8
128,136,93570,1,2
320,344,94635,6,0,B|384:344|384:272,1,100
384,232,95167,1,4
384,136,95522,1,8
384,232,95877,1,8
384,232,96055,1,8
384,136,96410,5,2
304,192,96765,1,2
208,192,97120,1,2
208,192,97298,1,2
256,280,97653,1,2
256,208,98008,12,0,103688
