osu file format v7

[General]
AudioFilename: imosuku_koniro_tokimeki_short.mp3
AudioLeadIn: 500
PreviewTime: 57623
Countdown: 0
SampleSet: Soft
StackLeniency: 0.5
Mode: 0
LetterboxInBreaks: 0

[Editor]
Bookmarks: 12801,24162,35522,46883,58244,69605,80966,98008,103688
DistanceSpacing: 1
BeatDivisor: 4
GridSize: 8

[Metadata]
Title:Koniro Tokimeki!! (Short Ver.)
Artist:fripSide
Creator:ykcarrot
Version:Insane
Source:Imouto ni! Sukumizu Kisetara Nugasanai!
Tags:hutka Imosuku NAOproject!

[Difficulty]
HPDrainRate:7
CircleSize:5
OverallDifficulty:7
SliderMultiplier:1.6
SliderTickRate:1

[Events]
//Background and Video events
Video,-750,"imosuku_BG_Video.AVI"
0,0,"imosuku_BG.jpg"
//Break Periods
2,4124,5688
//Storyboard Layer 0 (Background)
//Storyboard Layer 1 (Fail)
//Storyboard Layer 2 (Pass)
//Storyboard Layer 3 (Foreground)
//Storyboard Sound Samples
//Background Colour Transformations
3,100,163,162,255

[TimingPoints]
20,355.029585798817,4,2,0,80,1,0
3392,-200,4,2,0,80,0,0
6410,-100,4,2,0,80,0,0
11025,-100,4,1,0,70,0,0
24339,-100,4,2,0,80,0,0
32505,-200,4,2,0,80,0,0
35079,-100,4,1,0,60,0,0
45286,-100,4,2,0,70,0,0
46528,-100,4,1,0,60,0,0
58244,-100,4,1,0,70,0,1
62327,-200,4,1,0,70,0,1
62860,-100,4,1,0,70,0,1
68008,-100,4,1,0,70,0,0
69605,-100,4,1,0,70,0,1
73688,-200,4,1,0,70,0,1
74221,-100,4,1,0,70,0,1
85049,-200,4,1,0,70,0,1
85582,-100,4,1,0,70,0,1
90730,-100,4,1,0,70,0,0
99428,-100,4,1,0,60,0,0
100138,-100,4,1,0,50,0,0
100848,-100,4,1,0,40,0,0
101558,-100,4,1,0,30,0,0
102268,-100,4,1,0,20,0,0
102978,-100,4,1,0,10,0,0
103688,-100,4,1,1,0,0,0

[Colours]
Combo1 : 0,0,255
Combo2 : 255,255,255
Combo3 : 255,128,192

[HitObjects]
32,320,907,1,0
112,320,1085,1,0
176,272,1262,1,0
176,192,1440,2,0,B|88:192|48:96,2,160,4|2|0
176,192,2327,1,0
256,192,2505,1,2
336,192,2682,6,0,B|424:192,2,80
256,192,3215,1,2
256,192,3392,2,0,B|256:320,1,120,0|0
480,64,6588,5,0
400,64,6766,1,0
336,112,6943,1,0
336,192,7121,2,0,B|424:192|464:288,2,160,4|2|0
336,192,8008,1,0
256,192,8185,1,2
176,192,8363,6,0,B|80:192,2,80
256,192,8895,1,2
256,272,9073,1,0
256,272,9162,1,0
256,272,9250,1,0
256,352,9428,6,0,B|352:352,2,80,0|2|0
256,352,9960,1,0
96,72,10315,1,2
416,72,10670,1,2
416,72,10848,1,2
256,352,11203,5,2
416,72,11558,1,2
96,72,11913,1,2
96,72,12091,1,2
256,352,12446,2,0,B|256:392,7,20,0|0|0|0|0|0|0|0
256,352,12801,5,4
256,192,13156,1,8
256,32,13511,1,0
336,32,13688,2,0,B|424:32,2,80,0|8|0
256,32,14221,1,0
176,32,14398,2,0,B|80:32,2,80,0|8|0
256,32,14931,5,2
256,352,15286,1,2
256,32,15641,5,0
256,192,15996,1,8
256,352,16351,1,0
256,272,16528,2,0,B|160:272,2,80,0|8|0
256,192,17061,1,0
256,112,17238,2,0,B|360:112,2,80,0|8|0
256,32,17771,5,2
256,352,18126,1,2
256,192,18304,1,0
256,192,18392,1,0
256,192,18481,5,4
96,192,18836,1,8
256,192,19191,1,0
312,248,19368,2,0,B|384:320,2,80,0|8|0
256,192,19901,1,0
312,136,20078,2,0,B|384:64,2,80,0|8|0
256,192,20611,5,2
256,192,20966,1,2
32,352,21321,5,0
144,48,21676,1,8
256,352,22031,1,8
256,352,22209,1,8
368,48,22564,5,2
480,352,22919,1,2
368,48,23274,1,2
368,48,23451,1,2
256,352,23806,2,0,B|256:392,8,20,0|0|0|0|0|0|0|0|4
136,248,24517,6,0,B|72:312,2,80,2|0|0
192,192,25049,1,0
248,248,25227,2,0,B|312:312,2,80,2|0|0
192,192,25759,6,0,B|104:192,1,80,0|2
192,192,26114,2,0,B|288:192,1,80,0|0
192,192,26469,2,0,B|192:104,1,80,0|2
192,192,26824,1,0
272,192,27002,6,0,B|272:296,2,80,2|0|0
272,112,27534,2,0,B|272:16,2,80,2|0|0
344,152,28067,1,2
344,152,28244,1,0
416,192,28422,6,0,B|416:288,2,80,2|0|0
416,112,28954,2,0,B|416:16,2,80,2|0|0
344,152,29487,1,2
344,152,29664,1,2
344,232,29842,6,0,B|344:336|224:336,1,160,0|2
168,336,30375,2,0,B|88:288,1,80
32,336,30730,2,0,B|112:288,1,80,0|2
168,256,31085,6,0,B|248:320|336:240,1,160
240,160,31617,1,2
168,64,31795,2,0,B|248:0|336:80,1,160
240,160,32327,1,2
168,256,32505,6,0,B|248:320|336:240,1,160,0|0
344,232,33392,2,0,B|304:168|360:96,1,120,0|0
344,80,34102,2,0,B|288:48,2,40,2|0|0
376,96,34635,2,0,B|432:128,2,40,2|0|0
376,56,35167,2,0,B|392:32,8,20,0|0|0|0|0|0|0|0|4
304,200,35877,6,0,B|304:248|360:272,2,80,8|0|0
384,200,36410,1,0
464,200,36588,2,0,B|464:152|408:128,2,80,8|0|0
464,280,37120,6,0,B|424:352,1,80,2|0
392,280,37475,2,0,B|352:352,1,80,2|0
320,280,37830,2,0,B|272:360,2,80,2|0|0
360,208,38363,6,0,B|360:104|256:104,1,160,2|8
144,208,38895,2,0,B|144:312|248:312,1,160,2|0
360,208,39428,1,8
360,208,39605,1,8
240,104,39783,6,0,B|144:104|144:216,1,160,2|8
264,312,40315,2,0,B|360:312|360:200,1,160,2|0
240,104,40848,1,8
240,104,41025,1,8
360,208,41203,6,0,B|448:208,2,80,2|0|0
280,208,41735,1,2
280,208,41824,1,0
280,208,41913,1,0
200,208,42091,1,2
144,264,42268,1,0
64,264,42446,6,0,B|16:184|72:96,1,160,2|0
152,184,42978,1,8
240,264,43156,2,0,B|288:184|232:96,1,160,2|0
152,184,43688,1,8
256,208,43866,12,0,45108
400,160,45463,5,2
400,224,45641,1,0
392,256,45730,1,0
376,288,45818,1,0
360,312,45907,1,0
336,328,45996,1,0
304,344,46085,1,0
272,352,46173,1,0
240,352,46262,1,0
208,344,46351,1,0
176,328,46440,1,0
152,312,46528,2,0,B|112:312,7,20
152,312,46883,6,0,B|256:312|256:200,1,160,4|8
176,216,47416,1,0
216,144,47593,1,0
296,144,47771,1,0
336,216,47948,1,8
256,216,48126,2,0,B|256:320|368:320,1,160
432,320,48659,6,2,B|432:224,1,80,0|2
432,160,49014,2,2,B|432:256,1,80,0|2
512,240,49369,2,2,B|424:240,1,80,0|2
352,240,49724,6,0,B|256:240|256:128,1,160,0|8
336,136,50256,1,0
296,64,50434,1,0
216,64,50611,1,0
176,136,50789,1,8
256,136,50966,2,0,B|256:232|144:232,1,160
72,232,51499,6,2,B|-16:232,1,80,0|2
72,232,51854,2,2,B|72:136,1,80,0|2
72,232,52209,2,2,B|72:320,1,80,0|2
72,232,52564,6,0,B|168:232|168:120,1,160,4|8
168,48,53096,2,0,B|256:40|256:168,1,160
256,312,53629,5,2
440,232,53984,6,0,B|344:232|344:120,1,160,0|8
344,48,54517,2,0,B|256:40|256:168,1,160
256,208,55227,12,0,56469
416,88,56647,5,2
96,88,57002,1,2
256,368,57357,1,2
256,368,57534,1,2
256,288,57712,5,0
320,336,57889,1,0
400,336,58067,1,0
456,280,58244,2,0,B|504:208|448:112,1,160,4|8
408,64,58777,1,0
408,64,58866,1,0
408,64,58954,2,0,B|336:136,1,80
296,176,59309,1,8
352,240,59487,6,2,B|272:288|184:232,1,160,2|0
136,192,60020,1,10
199,241,60197,1,0
216,208,60286,1,0
240,240,60375,1,2
264,208,60463,1,0
280,240,60552,5,0
312,168,60730,1,10
280,96,60907,1,0
200,96,61085,2,0,B|160:184,1,80,0|0
200,240,61440,2,0,B|160:152,1,80,8|0
128,168,61706,1,0
88,168,61795,2,0,B|-8:168,2,80,0|0|8
168,168,62327,6,0,B|256:168,1,80,0|2
328,168,62860,1,2
392,216,63037,1,2
424,240,63126,1,0
392,264,63215,1,2
424,288,63304,1,0
392,312,63392,5,2
328,360,63570,1,2
264,312,63747,1,2
264,232,63925,2,0,B|264:144,1,80,0|0
184,152,64280,2,0,B|184:248,1,80,8|0
184,232,64546,1,0
184,232,64635,2,0,B|184:328,1,80
264,312,64990,1,8
344,312,65167,6,0,B|416:240,1,80,2|0
456,312,65522,2,0,B|384:240,1,80,2|8
344,200,65877,1,2
344,200,65966,1,0
344,200,66055,1,0
344,200,66144,1,0
344,200,66233,6,0,B|256:200,2,80,2|8|2
344,200,66765,1,0
64,40,67120,1,8
64,360,67475,1,8
64,360,67653,1,8
256,104,68008,5,2
448,360,68363,1,2
256,104,68718,1,2
256,104,68895,1,2
184,136,69073,5,0
112,168,69250,1,0
112,248,69428,1,0
184,280,69605,2,0,B|256:344|336:272,1,160,4|8
392,232,70138,1,0
392,232,70227,1,0
392,232,70315,2,0,B|392:136,1,80
392,72,70670,1,8
312,72,70848,6,2,B|224:72|184:160,1,160,2|0
160,232,71380,1,10
186,155,71558,1,0
208,192,71647,1,0
248,208,71735,1,2
288,192,71824,1,0
312,160,71913,6,0,B|354:141|370:85,2,80,0|10|0
312,240,72446,2,0,B|354:260|370:316,2,80,0|0|8
240,200,72978,1,0
240,200,73067,1,0
240,200,73156,2,0,B|152:200,1,80
104,256,73511,1,8
160,312,73688,6,0,B|256:312,1,80,0|2
296,256,74221,1,2
352,312,74398,1,2
392,328,74487,1,0
432,312,74576,1,2
448,272,74664,1,0
432,232,74753,5,2
384,168,74931,1,2
432,104,75108,1,2
384,40,75286,2,0,B|320:104,1,80
272,152,75641,2,0,B|344:224,1,80,8|0
328,208,75907,1,0
328,208,75996,2,0,B|392:272,1,80
440,320,76351,1,8
368,360,76528,6,0,B|272:360,1,80,2|0
296,280,76883,2,0,B|208:280,1,80,2|8
224,360,77238,1,2
224,360,77327,1,0
224,360,77416,1,0
224,360,77505,1,0
224,360,77593,6,0,B|128:360,2,80,2|8|2
224,360,78126,1,0
256,40,78481,1,8
288,360,78836,1,8
288,360,79014,1,8
256,40,79369,5,2
96,320,79724,1,2
416,320,80079,1,2
416,320,80256,1,2
336,320,80434,5,0
256,320,80611,1,0
176,320,80789,1,0
96,320,80966,2,0,B|8:320,2,80,4|0|8
96,240,81499,1,0
96,240,81588,1,0
96,240,81676,2,0,B|0:240,2,80,0|0|8
176,240,82209,6,2,B|232:160|168:80,1,160,2|0
128,24,82741,1,10
80,88,82919,1,0
120,88,83008,1,0
160,88,83096,1,2
200,88,83185,1,0
240,88,83274,6,0,B|336:88,2,80,0|10|0
320,88,83806,2,0,B|320:0,1,80
320,88,84162,2,0,B|320:184,1,80,8|0
320,88,84517,2,0,B|416:88,2,80,0|0|8
240,88,85049,6,0,B|152:88,1,80,0|2
80,88,85582,1,2
80,168,85759,1,2
80,208,85848,1,0
80,248,85937,1,2
80,288,86025,1,0
80,328,86114,6,0,B|-8:328,2,80,2|2|2
160,328,86647,2,0,B|248:328,2,80,0|0|8
120,256,87179,1,0
120,256,87268,1,0
120,256,87357,2,0,B|120:160,2,80,0|0|8
200,256,87889,6,0,B|240:256|256:208|256:208|272:256|320:256,1,160,2|2
392,256,88422,2,0,B|392:160,1,80,8|2
392,176,88688,1,0
392,176,88777,1,0
392,176,88866,1,0
392,176,88954,6,0,B|392:80,2,80,2|8|2
392,176,89487,1,0
104,40,89842,1,8
392,176,90197,1,8
392,176,90375,1,8
104,320,90730,5,2
392,176,91085,1,2
104,40,91440,1,2
104,40,91617,1,2
184,40,91795,5,0
256,64,91972,1,0
328,40,92150,1,0
408,40,92327,5,4
256,376,92682,1,8
104,40,93037,1,8
104,40,93215,1,8
256,376,93570,5,2
408,40,93925,1,2
256,376,94280,1,2
256,376,94457,1,2
176,376,94635,5,0
256,376,94812,1,0
336,376,94990,1,0
256,376,95167,5,4
56,40,95522,1,8
456,40,95877,1,8
456,40,96055,1,8
256,376,96410,5,2
456,40,96765,1,2
56,40,97120,1,2
56,40,97298,1,2
256,192,97653,6,0,B|256:224,8,20,2|0|0|0|0|0|0|0|4
256,208,98052,12,0,103688
