osu file format v7

[General]
AudioFilename: imosuku_koniro_tokimeki_short.mp3
AudioLeadIn: 500
PreviewTime: 57623
Countdown: 0
SampleSet: Soft
StackLeniency: 0.5
Mode: 0
LetterboxInBreaks: 0

[Editor]
Bookmarks: 12801,24162,35522,46883,58244,69605,80966,98008,103688
DistanceSpacing: 1
BeatDivisor: 4
GridSize: 8

[Metadata]
Title:Koniro Tokimeki!! (Short Ver.)
Artist:fripSide
Creator:ykcarrot
Version:Easy
Source:Imouto ni! Sukumizu Kisetara Nugasanai!
Tags:hutka Imosuku NAOproject!

[Difficulty]
HPDrainRate:2
CircleSize:3
OverallDifficulty:2
SliderMultiplier:0.8
SliderTickRate:1

[Events]
//Background and Video events
Video,-750,"imosuku_BG_Video.AVI"
0,0,"imosuku_BG.jpg"
//Break Periods
2,3770,5560
2,13001,22957
2,33947,34317
//Storyboard Layer 0 (Background)
//Storyboard Layer 1 (Fail)
//Storyboard Layer 2 (Pass)
//Storyboard Layer 3 (Foreground)
//Storyboard Sound Samples
//Background Colour Transformations
3,100,163,162,255

[TimingPoints]
20,355.029585798817,4,2,0,80,1,0
11025,-100,4,1,0,70,0,0
24162,-100,4,2,0,80,0,0
35167,-100,4,1,0,60,0,0
58244,-100,4,1,0,70,0,1
68008,-100,4,1,0,70,0,0
69605,-100,4,1,0,70,0,1
90730,-100,4,1,0,70,0,0
99428,-100,4,1,0,60,0,0
100138,-100,4,1,0,50,0,0
100848,-100,4,1,0,40,0,0
101558,-100,4,1,0,30,0,0
102268,-100,4,1,0,20,0,0
102978,-100,4,1,0,10,0,0
103688,-100,4,1,1,0,0,0

[Colours]
Combo1 : 0,0,255
Combo2 : 255,255,255
Combo3 : 255,128,192

[HitObjects]
96,192,1440,1,4
256,192,2150,1,2
416,192,2860,2,0,B|416:288|328:320,1,160,0|2
416,192,7120,5,4
256,192,7830,1,2
96,192,8540,2,0,B|96:96|184:64,1,160,0|2
336,64,9960,6,0,B|336:160,1,80,0|2
336,224,10670,2,0,B|336:280,1,40,2|2
296,336,11203,5,2
216,336,11558,1,2
256,264,11913,2,0,B|256:208,1,40,2|2
256,144,12446,2,0,L|264:144|256:136|264:136|256:128|264:128|256:120|264:120|256:112|264:112|256:104|264:104|256:96|264:96|256:88|264:88|256:80,1,80,0|4
40,192,24517,5,2
144,312,25227,1,2
256,192,25937,2,0,L|416:192,1,160,2|0
496,192,27002,6,0,B|496:352|336:352,1,240,0|2
296,296,28422,2,0,B|296:136|456:136,1,240,0|2
496,192,29842,6,0,B|408:192,1,80,0|2
304,152,30730,2,0,B|304:64,2,80,0|0|2
304,232,31795,2,0,B|240:296,1,80,0|2
168,288,32505,2,0,B|56:288|56:96|184:96,1,280,0|2
320,192,35877,5,0
200,296,36588,1,0
136,192,37120,2,0,B|224:192,2,80,2|2|2
16,192,38363,6,0,B|16:352|176:352,1,240,2|8
216,296,39783,2,0,B|216:136|56:136,1,240,2|8
16,192,41203,6,2,B|112:192,1,80,2|2
216,192,42091,1,0
280,152,42446,2,0,B|368:152,1,80,2|8
360,232,43156,2,0,B|272:232,1,80,2|8
216,192,43866,2,0,B|200:176|184:136|192:104|216:80|256:72|296:80|320:104|328:136|312:176|293:199,1,280
416,64,46883,6,0,B|320:144|272:0|168:96,1,240,4|8
160,112,48126,2,0,B|64:112,1,80,0|8
40,112,48659,2,2,B|-16:184|48:272,1,160
96,320,49724,6,0,B|192:400|240:256|344:352,1,240,0|8
352,368,50966,2,0,B|440:368,1,80,0|8
472,368,51499,2,2,B|528:296|464:208,1,160
424,152,52564,6,0,B|344:152|280:88,1,160
216,40,53629,1,2
136,40,53984,2,0,B|64:88|64:184,1,160
64,256,55049,1,0
64,336,55404,2,0,B|160:376|192:304|304:344,1,240
208,80,57889,5,0
288,80,58244,2,0,B|376:80,1,80,4|8
448,80,58954,2,0,B|448:128,1,40,0|8
448,200,59487,2,2,B|448:312|336:312,1,160,2|2
240,312,60730,5,2
160,312,61085,2,0,B|160:208,1,80,2|8
96,184,61795,1,0
160,136,62150,1,8
160,136,62327,2,0,B|248:208|352:128,1,200,0|2
400,72,63570,5,2
456,136,63925,2,0,B|456:232,1,80,2|8
448,296,64635,2,0,B|400:344,1,40,0|8
336,328,65167,2,2,B|280:256|344:168,1,160,2|2
384,112,66233,6,2,B|352:112|336:80|336:80|320:112|272:112,1,120,2|2
208,112,67120,1,8
152,176,67475,2,0,B|96:176,1,40,8|8
32,176,68008,1,2
256,344,69250,5,0
336,344,69605,2,0,B|384:344|400:304,1,80,4|8
432,232,70315,1,0
432,232,70493,1,8
432,152,70848,2,2,B|432:64,2,80,2|0|2
432,232,71913,6,0,B|416:272|368:280,1,80,2|0
328,280,72446,2,0,B|240:280,3,80,2|8|0|8
208,280,73688,2,0,B|88:280|56:152,1,200,0|2
40,88,74931,5,2
120,88,75286,2,0,B|184:152,1,80,2|8
232,200,75996,1,0
232,200,76173,1,8
312,200,76528,2,2,B|376:136,2,80,2|0|2
272,272,77593,6,2,B|240:272|224:304|224:304|208:272|160:272,1,120,2|2
96,272,78481,1,8
96,192,78836,2,8,B|152:192,1,40
216,192,79369,6,0,B|216:104,1,80,2|2
296,112,80079,2,0,B|296:160,1,40,2|2
296,232,80611,6,0,B|296:328,2,80,0|4|8
296,152,81676,2,0,B|296:104,1,40,0|8
296,32,82209,2,2,B|384:32|440:112,1,160,2|2
432,184,83274,6,0,B|344:184,1,80,2|0
312,184,83806,2,0,B|224:184,3,80,2|8|0|8
192,184,85049,2,0,B|128:192|104:248|128:304|200:312,1,200,0|2
272,312,86292,6,0,B|368:312,2,80,2|2|8
192,312,87357,2,0,B|144:312,1,40,0|8
72,312,87889,2,2,B|16:240|80:160,1,160,2|2
120,96,88954,6,2,B|152:96|168:64|168:64|184:96|232:96,1,120,2|2
168,160,89842,1,8
168,240,90197,2,0,B|168:288,1,40,8|8
168,360,90730,1,2
328,184,91795,6,0,B|328:104|248:104,1,120,0|4
176,104,92682,2,0,L|176:200,1,80,8|8
176,224,93215,2,0,L|176:304,1,80,8|2
304,104,94635,6,0,B|384:104|384:184,1,120,0|4
384,256,95522,2,0,L|304:256,1,80,8|8
264,256,96055,2,0,B|264:168,3,80,8|2|2|2
264,136,97298,2,0,B|264:40,1,80,2|2
256,208,98008,12,0,103688
