osu file format v9

[General]
AudioFilename: Heaven is a Place on Earth.mp3
AudioLeadIn: 0
PreviewTime: 95776
Countdown: 0
SampleSet: Soft
StackLeniency: 0.7
Mode: 0
LetterboxInBreaks: 0

[Editor]
DistanceSpacing: 1
BeatDivisor: 4
GridSize: 8

[Metadata]
Title:Heaven is a Place on Earth
Artist:fripSide
Creator:kioukiou
Version:Hard
Source:Hayate no Gotoku!
Tags:spboxer3 SiRiRu Gamu

[Difficulty]
HPDrainRate:6
CircleSize:4
OverallDifficulty:6
ApproachRate:7
SliderMultiplier:1.6
SliderTickRate:2

[Events]
//Background and Video events
0,0,"BG.jpg"
//Break Periods
2,39781,52594
2,139779,144984
//Storyboard Layer 0 (Background)
//Storyboard Layer 1 (Fail)
//Storyboard Layer 2 (Pass)
//Storyboard Layer 3 (Foreground)
//Storyboard Sound Samples
//Background Colour Transformations
3,100,163,162,255

[TimingPoints]
2658,576.923076923077,4,2,1,60,1,0
39581,434.782608695652,4,2,1,80,1,0
82407,-133.333333333333,4,2,1,70,0,0
88494,-100,4,2,1,80,0,0
95885,-100,4,2,1,65,0,0
96972,-100,4,2,1,90,0,0
109363,-100,4,1,1,70,0,0
110885,-100,4,2,1,90,0,0
123059,-100,4,1,1,70,0,0
125667,434.782608695652,4,2,1,80,1,0
154145,-133.333333333333,4,2,1,60,0,0
167406,-100,4,2,1,90,0,0
167623,-100,4,1,1,70,0,0
169145,-100,4,2,1,90,0,0
182188,-100,4,1,1,70,0,0
183058,-83.3333333333333,4,2,1,90,0,0
209145,-83.3333333333333,4,1,1,70,0,0
210884,-83.3333333333333,4,2,1,70,0,0
211319,-100,4,2,1,80,0,0
221536,-100,4,1,1,70,0,0
223058,-100,4,2,1,80,0,0
228058,-100,4,2,1,5,0,0

[Colours]
Combo1 : 255,255,255
Combo2 : 255,85,170
Combo3 : 6,168,255
Combo4 : 255,255,0

[HitObjects]
456,40,2658,2,0,B|456:128,1,80,4|2
376,120,3234,2,0,B|344:200,1,80,0|2
64,192,4388,1,0
64,192,4965,6,0,B|64:280,1,80,0|2
144,272,5542,2,0,B|176:352,1,80,0|2
456,344,6696,1,0
456,344,7273,6,0,B|480:304|448:256,1,80,0|2
376,288,7850,2,0,B|352:248|384:200,1,80,0|2
136,208,9004,1,0
136,208,9581,6,0,B|112:168|144:120,1,80,0|2
216,152,10158,2,0,B|240:112|208:64,1,80,0|2
288,40,10734,5,0
352,88,11023,1,0
432,88,11311,1,2
496,40,11600,1,2
496,120,11888,5,0
496,200,12177,1,2
496,200,12321,1,0
496,200,12465,2,0,B|496:296,1,80,0|2
256,352,13619,5,0
96,352,14196,1,0
176,328,14484,1,2
176,328,14629,1,0
176,328,14773,2,0,B|176:240,1,80,0|2
256,32,15927,5,0
416,32,16504,1,0
336,56,16792,1,2
336,56,16936,1,0
336,56,17081,2,0,B|336:152,1,80,0|2
336,296,17946,1,0
176,296,18523,1,0
256,256,18811,6,0,B|288:176|256:96,1,160,0|2
177,99,19677,1,0
177,99,19965,2,0,B|353:99,2,160,0|2|0
16,99,21696,1,2
16,99,21984,1,0
16,259,22561,1,0
16,259,22850,1,2
176,264,23427,2,0,B|224:328,1,80
280,272,24004,2,0,B|232:208,1,80,2|0
288,152,24581,5,0
360,192,24869,1,0
432,152,25158,1,2
360,112,25446,1,0
360,192,25734,2,0,B|360:24,2,160,0|2|0
360,272,27177,1,0
360,272,27465,2,0,B|360:360,2,80,2|0|0
280,272,28331,2,0,B|112:272,1,160,2|0
80,200,29196,5,0
40,128,29484,1,0
40,128,29629,1,0
40,128,29773,2,0,B|32:80|56:48,2,80,2|0|0
120,128,30638,1,0
200,128,30927,2,0,B|232:216,1,80,2|0
384,208,31792,1,0
304,208,32081,2,0,B|272:296,1,80,2|0
200,280,32658,1,0
120,280,32946,1,0
120,120,33523,5,0
120,120,33811,2,0,B|72:64|24:48,2,120,2|2|2
256,192,34965,12,0,36984
256,192,37273,12,4,39581
448,40,53494,5,4
480,192,53820,1,2
448,344,54146,1,2
376,312,54363,2,0,B|280:288,1,80,0|2
216,296,54798,2,0,B|112:328,1,80,0|2
64,344,55233,5,2
32,192,55559,1,2
64,40,55885,1,2
136,72,56102,2,0,B|232:96,1,80,0|2
296,88,56537,2,0,B|400:56,1,80,0|2
392,144,56972,5,0
312,168,57189,1,2
312,168,57298,1,0
312,168,57407,2,0,B|224:168,1,80,0|2
152,168,57841,1,0
104,232,58059,2,0,B|16:232,2,80,2|0|2
152,296,58711,5,0
232,296,58928,1,2
272,296,59037,1,0
312,296,59146,2,0,B|400:296,1,80,0|2
440,232,59580,1,0
392,168,59798,1,2
352,168,59907,1,0
312,168,60015,2,0,B|208:168,1,80,0|2
176,224,60450,6,0,B|144:192|96:192,1,80,4|2
32,152,60885,2,0,B|56:112|112:104,1,80,0|2
176,128,61320,2,0,B|272:112|320:40,1,160
392,56,61972,1,2
352,128,62189,6,0,B|384:160|432:160,1,80,0|2
496,200,62624,2,0,B|472:240|416:248,1,80,0|2
352,224,63059,2,0,B|256:240|208:312,1,160,0|0
136,272,63711,1,2
104,192,63928,6,0,B|64:152|16:152,2,80,0|2|0
184,192,64580,1,2
184,192,64689,1,0
184,192,64798,1,0
264,192,65015,1,2
344,192,65233,1,0
424,192,65450,5,0
424,112,65667,2,0,B|384:32,1,80,0|2
424,272,66102,2,0,B|384:352,1,80,0|2
304,112,66537,2,0,B|264:32,1,80,0|2
304,280,66972,2,8,B|264:360,1,80,0|2
184,272,67407,6,0,B|120:240|64:232,1,120,4|0
32,224,67841,2,0,B|48:128,1,80,8|0
72,72,68276,2,0,B|136:104|192:112,1,120
224,120,68711,2,0,B|208:216,1,80,8|0
272,256,69146,1,0
288,176,69363,1,0
304,96,69581,2,0,B|376:72|464:104,2,160,8|0|8
224,88,70667,1,0
144,80,70885,5,0
64,72,71102,1,0
56,112,71211,1,0
48,152,71320,2,0,B|32:240,1,80,8|0
112,248,71754,1,0
192,256,71972,1,0
272,264,72189,2,0,B|256:352,1,80,8|0
336,344,72624,2,0,B|368:176,1,160,0|8
288,176,73276,1,0
296,136,73385,1,0
304,96,73494,2,0,B|320:8,1,80,0|0
240,40,73928,1,8
224,120,74146,1,0
208,200,74363,5,4
56,120,74798,1,8
32,200,75015,2,0,B|40:296,1,80
200,344,75667,1,8
272,304,75885,2,0,B|280:208,1,80
296,64,76537,2,0,B|336:40|392:56,1,80,8|0
440,96,76972,2,0,B|464:136|448:192,1,80
376,176,77407,2,0,B|320:152|264:192|192:160,1,160,8|4
64,128,78276,5,8
64,128,78494,2,0,B|64:232,1,80,0|4
192,304,79146,1,8
192,304,79363,2,0,B|192:224,1,80,0|4
232,152,79798,5,0
293,100,80015,1,8
344,161,80233,1,0
283,213,80450,1,0
182,146,80667,5,0
296,48,80885,1,8
392,162,81102,1,0
277,260,81320,1,4
48,312,82407,5,4
32,192,82733,1,4
48,72,83059,1,4
360,224,84146,2,0,B|360:328,2,89.9999973177911,4|4|4
464,72,85885,5,4
480,192,86211,1,4
464,312,86537,1,4
152,160,87624,2,0,B|152:64,2,89.9999973177911,4|4|4
96,224,88494,6,0,B|24:264,1,80,0|8
56,336,88928,2,0,B|136:288,1,80
192,256,89363,1,0
256,304,89581,1,8
320,256,89798,1,0
387,294,90015,2,0,B|456:336,1,80,4|0
485,262,90450,2,0,B|416:224,1,80,8|0
440,32,91102,5,2
360,32,91320,1,8
296,80,91537,1,2
216,80,91754,1,4
72,128,92189,1,8
152,128,92407,1,2
216,168,92624,1,0
296,168,92841,1,2
440,216,93276,5,2
360,216,93494,1,0
296,256,93711,1,2
216,256,93928,1,8
72,304,94363,1,0
152,304,94581,1,2
216,344,94798,1,8
296,344,95015,1,4
456,344,95450,1,4
456,344,95667,1,4
376,304,95885,6,0,B|376:216,1,80
288,112,96320,2,0,B|288:208,1,80
176,256,96754,2,0,B|176:168,1,80,0|4
104,136,97189,5,0
72,112,97298,1,0
56,72,97407,2,0,B|8:40|-16:40,2,80,8|0|0
136,64,98059,2,0,B|184:56|232:96,1,80,0|8
288,112,98494,2,0,B|264:176|224:184,1,80
208,248,98928,2,0,B|240:288|296:296,1,80,0|8
344,328,99363,5,0
424,312,99581,2,0,B|472:312|512:360,2,80,0|0|8
400,232,100233,1,0
320,248,100450,2,0,B|256:184|272:96,1,160,4|8
200,64,101102,1,0
128,104,101320,2,0,B|152:192|80:264,1,160,0|8
200,272,101972,1,0
200,272,102081,1,0
200,272,102189,2,0,B|200:352,2,80,0|0|8
280,272,102841,6,0,B|384:272,1,80
344,192,103276,2,0,B|432:192,1,80,0|8
480,112,103711,2,0,B|376:112,1,80,0|4
328,80,104146,5,0
328,80,104254,1,0
328,80,104363,2,0,B|280:104|232:96,1,80,8|0
176,64,104798,1,0
96,80,105015,1,0
16,64,105233,1,8
96,80,105450,2,0,B|48:160|102:238,1,160
177,230,106102,2,0,B|17:230,2,160,8|0|8
257,230,107189,5,0
257,230,107407,1,4
416,230,107841,1,0
416,230,108059,1,4
344,88,108494,2,0,B|312:56|264:56,1,80,0|4
208,104,108928,2,0,B|240:136|288:136,1,80,0|4
328,200,109363,1,0
328,200,109472,1,0
328,200,109581,2,0,B|328:288,1,80,0|0
256,320,110015,1,0
192,272,110233,1,0
192,272,110341,1,0
192,272,110450,2,0,B|192:176,1,80,0|0
120,152,110885,6,0,B|56:152|56:152|32:104|72:56,1,160,4|8
144,64,111537,1,0
208,112,111754,1,0
272,160,111972,1,0
336,208,112189,2,0,B|392:134,1,80,8|0
464,288,112841,2,0,B|408:360,1,80,0|8
336,352,113276,1,0
256,352,113494,1,0
216,352,113602,1,0
152,304,113820,1,0
112,304,113928,2,0,B|32:304,1,80,8|0
40,224,114363,6,0,B|128:200|144:96,1,160,4|8
224,112,115015,2,0,B|237:200|325:224,1,160,4|0
408,224,115667,1,8
488,224,115885,1,4
408,56,116320,1,0
328,56,116537,1,8
200,136,116972,6,0,B|144:104|88:96,1,120
56,120,117407,2,0,B|32:200,1,80,8|0
112,192,117841,2,0,B|64:360,2,160,4|8|0
184,240,118928,1,0
264,216,119146,1,8
344,240,119363,1,0
408,192,119581,6,0,B|472:32,1,160,4|8
112,192,120450,2,0,B|48:32,1,160,0|8
176,344,121320,6,0,B|224:272,1,80,4|0
336,344,121754,2,0,B|288:272,1,80,0|4
336,24,122407,5,0
384,88,122624,1,0
344,160,122841,1,0
176,24,123276,1,0
128,88,123494,1,0
168,160,123711,1,0
256,160,123928,1,0
256,168,124037,1,0
256,176,124146,1,0
256,184,124254,1,0
256,192,124363,1,0
256,200,124472,1,0
256,208,124581,1,0
256,216,124689,1,0
256,192,124798,12,4,125667
432,88,126101,5,8
368,136,126319,2,0,B|368:184|312:204|264:184|264:128,1,160
192,104,126971,2,0,B|192:52|136:28|84:55|84:117,1,160,8|0
88,176,127623,1,0
88,216,127732,1,0
88,256,127840,2,0,B|32:344,2,80,8|0|0
168,256,128493,1,0
248,256,128710,1,8
320,104,129145,6,0,B|400:104,1,80,4|0
320,184,129580,2,0,B|232:184,1,80,8|0
408,24,130014,2,0,B|488:24,1,80
232,264,130449,2,0,B|144:264,1,80,8|0
72,264,130884,5,0
40,192,131101,1,0
40,192,131210,1,0
40,192,131319,2,0,B|8:96,1,80,8|0
80,64,131753,1,0
160,80,131971,1,0
160,80,132080,1,0
160,80,132188,2,0,B|184:168,1,80,8|0
264,144,132623,6,0,B|250:83|359:58|374:124,1,160,4|8
440,168,133275,2,0,B|453:228|344:253|329:187,1,160,0|0
373,119,133927,2,0,B|359:58|468:33|483:99,1,160,8|0
480,176,134580,1,0
480,176,134688,1,0
480,176,134797,2,0,B|480:280,1,80,8|0
400,264,135232,2,0,B|400:344,2,80,0|0|8
240,272,136101,5,4
176,224,136319,1,0
176,224,136427,1,0
176,224,136536,1,8
88,224,136753,2,0,B|32:168,1,80,0|0
48,88,137188,1,0
48,88,137297,1,0
48,88,137406,1,8
128,64,137623,2,0,B|184:120,1,80,0|4
256,24,138058,2,0,B|256:112,1,80,0|8
384,64,138493,2,0,B|328:120,1,80,0|4
424,192,138927,2,0,B|336:192,1,80,0|8
384,320,139362,2,0,B|328:264,1,80,0|4
416,40,145884,5,0
456,112,146101,1,0
424,184,146319,2,0,B|368:248,1,80,0|4
440,288,146753,2,0,B|496:224,1,80,0|8
96,40,147623,5,0
56,112,147840,1,8
88,184,148058,2,0,B|144:248,1,80
72,288,148493,2,0,B|16:224,1,80,0|8
184,72,149362,5,0
256,112,149580,1,8
328,72,149797,1,0
400,112,150014,2,0,B|440:192|392:272,1,160,4|8
312,264,150667,1,0
272,264,150775,1,0
232,264,150884,2,0,B|136:264,1,80
104,344,151319,6,0,B|200:344,1,80,8|4
344,344,151971,1,4
344,344,152188,1,4
344,184,152623,1,0
344,184,152732,1,0
344,184,152840,1,0
344,184,152949,1,0
344,184,153058,2,0,B|256:184,1,80,0|4
104,184,153710,1,4
104,184,153927,1,4
104,104,154145,5,0
176,64,154362,2,0,B|152:40|200:24|176:8,2,59.9999982118607
248,104,155014,1,0
176,144,155232,1,4
176,224,155449,1,2
176,224,155558,1,0
176,224,155667,1,0
248,264,155884,6,0,B|272:336,1,59.9999982118607,2|0
344,304,156319,2,0,B|368:376,1,59.9999982118607,2|0
424,304,156753,2,0,B|400:232,1,59.9999982118607,2|0
480,240,157188,2,0,B|456:168,1,59.9999982118607,2|0
456,104,157623,5,2
384,72,157840,2,0,B|384:24,2,29.9999991059304,0|0|2
312,96,158275,2,0,B|312:136,2,29.9999991059304,0|0|2
232,88,158710,2,0,B|88:88,1,119.999996423721,0|0
64,168,159362,6,0,B|200:168,1,119.999996423721,2|2
248,216,160014,1,0
328,216,160232,1,2
392,264,160449,2,0,B|472:264,2,59.9999982118607,0|2|0
328,312,161101,6,0,B|280:376,1,59.9999982118607,2|0
208,352,161536,2,0,B|256:288,1,59.9999982118607,2|0
152,304,161971,2,0,B|104:368,1,59.9999982118607,2|0
40,352,162406,5,2
40,352,162514,1,0
40,352,162623,1,0
40,272,162840,1,2
40,272,163058,1,0
40,192,163275,1,2
40,192,163384,1,0
40,192,163493,1,0
40,112,163710,1,2
40,112,163927,1,0
104,64,164145,6,0,B|168:32|230:69,1,119.999996423721,2|2
216,144,164797,1,0
216,224,165014,1,2
216,224,165123,1,0
216,224,165232,2,0,B|160:280,1,59.9999982118607,0|2
200,352,165667,2,0,B|296:256,1,119.999996423721,0|2
320,344,166319,2,0,B|408:248,1,119.999996423721,0|2
368,184,166971,1,0
432,144,167188,1,0
368,104,167406,5,4
432,64,167623,1,0
432,64,167732,1,0
432,64,167840,2,0,B|464:32|504:32,2,80,0|0|0
368,24,168493,1,0
296,64,168710,1,0
224,104,168927,1,0
160,152,169145,6,0,B|80:200|0:152,1,160,4|8
7,76,169797,2,0,B|7:258,1,160
8,320,170449,1,8
80,272,170667,1,0
80,272,170775,1,0
80,272,170884,2,0,B|80:368,1,80
152,328,171319,2,0,B|152:240,1,80,8|0
224,224,171753,1,0
224,224,171862,1,0
296,192,172080,1,0
296,192,172188,2,0,B|384:192,1,80,8|0
376,112,172623,6,0,B|208:112,1,160,4|8
132,112,173275,1,4
132,112,173710,1,0
92,184,173927,1,8
132,256,174145,1,4
264,336,174580,1,0
264,256,174797,1,8
424,256,175232,5,0
464,184,175449,1,0
424,112,175667,1,8
384,184,175884,1,0
344,184,175993,1,0
304,184,176101,2,0,B|224:168|144:184,1,160,4|8
40,64,176971,6,0,B|80:32|112:32,1,80
120,112,177406,2,0,B|200:112,1,80,8|0
264,64,177840,1,4
344,48,178058,1,0
424,64,178275,1,8
248,320,178710,1,4
168,336,178927,1,0
88,320,179145,1,8
256,96,179580,5,4
352,192,179797,1,0
256,288,180014,1,0
160,192,180232,1,4
72,56,180667,6,0,B|32:32|-16:24,2,80,0|8|0
72,136,181319,2,0,B|72:296,1,160,4|8
144,336,181971,1,0
216,304,182188,5,0
216,296,182297,1,0
216,288,182406,1,0
216,280,182514,1,0
216,272,182623,1,0
216,264,182732,1,0
216,256,182840,1,0
216,248,182949,1,0
216,240,183058,2,0,B|216:48,1,192.000004577637,4|8
312,32,183710,6,0,B|360:32|416:56,1,96.0000022888184
472,120,184145,2,0,B|472:176|440:216,1,96.0000022888184,0|8
352,200,184580,2,0,B|248:192|168:144,1,192.000004577637
88,104,185232,2,0,B|40:200,1,96.0000022888184,8|0
48,288,185667,5,0
136,328,185884,1,0
224,296,186101,1,8
312,328,186319,1,0
408,304,186536,2,0,B|480:224|456:112,1,192.000004577637,4|8
400,48,187188,5,0
368,144,187406,2,0,B|360:216|320:240,1,96.0000022888184
248,184,187840,1,8
160,224,188058,1,0
128,224,188167,1,0
96,224,188275,2,0,B|40:208|-8:224,2,96.0000022888184,0|0|4
72,128,188927,5,0
88,32,189145,2,0,B|176:88,1,96.0000022888184,4|0
256,40,189580,2,0,B|272:136,1,96.0000022888184,4|0
368,72,190014,2,0,B|432:152|408:272,1,192.000004577637,4|8
336,312,190667,6,0,B|240:296|168:312,1,144.000003433228
144,320,191101,2,0,B|88:240,1,96.0000022888184,0|8
88,144,191536,2,0,B|184:160|256:144,1,144.000003433228
280,136,191971,2,0,B|336:216,1,96.0000022888184,0|8
432,264,192406,5,0
460,172,192623,1,0
460,172,192732,1,0
432,80,192949,1,0
432,80,193058,2,0,B|464:32|512:32,2,96.0000022888184,8|0|4
256,32,193927,1,8
256,32,194145,1,4
32,192,194580,1,0
32,192,194797,1,8
32,192,195014,1,4
256,352,195449,1,0
256,352,195667,1,8
328,280,195884,6,0,B|368:240|424:248,1,96.0000022888184,0|4
184,280,196319,2,0,B|144:240|88:248,1,96.0000022888184,0|4
352,168,196753,2,0,B|392:128|448:136,1,96.0000022888184,4|4
160,168,197188,2,0,B|120:128|64:136,1,96.0000022888184,0|8
64,40,197623,6,0,B|160:72|256:40,1,192.000004577637
352,40,198275,2,0,B|416:120,1,96.0000022888184,8|0
448,200,198710,2,0,B|352:232|256:200,1,192.000004577637,0|8
160,200,199362,2,0,B|96:280,1,96.0000022888184
136,360,199797,1,0
136,360,199906,1,0
136,360,200014,2,0,B|200:280,1,96.0000022888184,8|0
296,288,200449,6,0,B|336:184|456:200,1,192.000004577637,4|8
408,112,201101,2,0,B|368:216|248:200,1,192.000004577637,4|0
160,200,201753,1,8
64,200,201971,1,4
160,32,202406,1,0
256,32,202623,1,8
472,160,203058,6,0,B|400:288,1,144.000003433228
384,328,203493,2,0,B|288:344,1,96.0000022888184,8|0
224,280,203927,2,0,B|344:256|368:144,1,192.000004577637,4|8
256,32,204797,1,0
192,104,205014,1,0
256,176,205232,1,8
320,104,205449,1,0
256,32,205667,5,4
480,192,206101,1,8
256,352,206536,1,4
32,192,206971,1,8
368,352,207406,6,0,B|256:320,1,96.0000022888184,4|0
160,280,207840,2,0,B|272:248,1,96.0000022888184,0|4
352,40,208493,5,0
400,128,208710,1,0
352,208,208927,1,0
160,40,209362,1,0
112,128,209580,1,0
160,208,209797,1,0
256,208,210014,1,0
256,200,210123,1,0
256,192,210232,1,0
256,184,210340,1,0
256,176,210449,1,0
256,168,210558,1,0
256,160,210667,1,0
256,152,210775,1,0
256,144,210884,1,4
440,32,211319,6,0,B|488:128,1,80,8|0
400,128,211753,2,0,B|400:296,1,160,0|8
72,352,212623,2,0,B|24:256,1,80
112,256,213058,2,0,B|112:88,1,160,8|0
184,64,213710,1,0
256,96,213927,1,8
328,64,214145,1,0
256,24,214362,6,0,B|256:208,1,160,4|8
312,240,215014,1,0
344,264,215123,1,0
384,280,215232,2,0,B|424:288|464:280,2,80,0|0|8
112,352,216101,6,0,B|16:352,1,80
120,248,216536,2,0,B|216:248,1,80,4|0
288,144,216971,2,0,B|184:144,1,80
296,40,217406,2,0,B|392:40,1,80,4|0
472,88,217840,6,0,B|512:160|464:256,1,160,4|8
392,272,218493,1,0
320,312,218710,1,0
280,312,218819,1,0
216,360,219036,1,0
176,360,219145,1,8
24,304,219580,6,0,B|-16:232|32:136,1,160,0|8
104,120,220232,1,0
176,80,220449,1,0
216,80,220558,1,0
280,32,220775,1,0
320,32,220884,1,8
408,192,221319,5,4
408,192,221536,1,0
328,192,221753,1,0
328,192,221971,1,0
248,192,222188,1,0
240,192,222297,1,0
232,192,222406,1,0
224,192,222514,1,0
216,192,222623,1,0
208,192,222732,1,0
200,192,222840,1,0
192,192,222949,1,0
184,192,223058,1,4
256,192,223167,12,0,228058
