osu file format v9

[General]
AudioFilename: happy generation.mp3
AudioLeadIn: 0
PreviewTime: 79806
Countdown: 0
SampleSet: Normal
StackLeniency: 0.7
Mode: 0
LetterboxInBreaks: 1

[Editor]
DistanceSpacing: 1
BeatDivisor: 4
GridSize: 8

[Metadata]
Title:HAPPY Generation
Artist:fripSide
Creator:Thite
Version:Normal
Source:School Heart's
Tags:nao project! wring moedoracd

[Difficulty]
HPDrainRate:3
CircleSize:3
OverallDifficulty:3
ApproachRate:3
SliderMultiplier:0.999999999999999
SliderTickRate:1

[Events]
//Background and Video events
0,0,"15482153a.jpg"
//Break Periods
2,104323,108632
//Storyboard Layer 0 (Background)
//Storyboard Layer 1 (Fail)
//Storyboard Layer 2 (Pass)
//Storyboard Layer 3 (Foreground)
//Storyboard Sound Samples
//Background Colour Transformations
3,100,163,162,255

[TimingPoints]
28156,359.281437125748,4,1,0,40,1,0
79892,-100,4,1,0,40,0,1
102527,-100,4,1,0,40,0,0
137377,-100,4,1,0,40,0,1
160371,-100,4,1,0,40,0,0

[Colours]
Combo1 : 128,255,128
Combo2 : 128,255,255
Combo3 : 255,255,128

[HitObjects]
208,136,28155,2,0,B|224:192|192:232,1,99.9999999999999,8|0
96,200,28874,2,0,B|80:256|112:296,1,99.9999999999999,8|0
176,368,29593,6,0,B|264:312|368:344,2,200,2|2|2
80,352,31389,1,0
32,264,31748,1,4
128,88,32467,6,0,B|120:144|144:192,1,99.9999999999999,8|0
200,264,33185,2,0,B|256:272|304:248,1,99.9999999999999,8|0
344,160,33904,2,0,B|392:192|408:304|352:344,1,200,2|0
488,184,35341,6,0,B|464:136|480:88,1,99.9999999999999
392,136,36060,2,0,B|416:184|400:232,1,99.9999999999999,8|0
312,192,36778,2,0,B|288:144|304:96,2,99.9999999999999,0|0|0
272,280,37856,5,8
192,344,38215,2,0,B|208:232|104:176,1,200,2|0
40,256,39293,1,8
16,160,39653,2,0,B|24:80|96:48|168:80,1,200,2|0
328,192,41090,6,0,B|280:168|232:192,1,99.9999999999999,0|8
288,272,41808,2,0,B|336:296|384:272,1,99.9999999999999,0|8
424,184,42527,2,0,B|488:232|488:328|440:360,1,200,2|0
344,368,43605,1,8
248,328,43964,6,0,B|264:272|256:224,1,99.9999999999999
352,208,44682,2,0,B|328:154|291:123,1,99.9999999999999,8|0
384,88,45401,2,0,B|296:16|192:56,1,200,2|0
128,128,46479,1,8
32,152,46838,6,0,B|56:208|48:264,2,99.9999999999999,0|8|0
56,56,47916,1,8
152,40,48275,2,0,B|256:88|352:56,1,200,2|0
496,192,49712,6,0,B|464:240|464:288,1,99.9999999999999
368,272,50431,2,0,B|374:329|405:366,1,99.9999999999999,8|0
304,360,51150,2,0,B|256:232|256:232|288:192|352:192,1,200,2|4
440,48,52587,6,0,B|408:80|344:80,1,99.9999999999999,0|0
256,40,53305,1,0
232,136,53664,1,8
152,72,54024,2,0,B|152:184|40:224,1,200,2|0
128,272,55102,1,8
224,240,55461,6,0,B|256:288|240:336,1,99.9999999999999,0|8
328,280,56179,2,0,B|334:337|377:363,1,99.9999999999999,0|8
440,288,56898,1,8
472,192,57257,1,8
416,112,57617,2,0,B|408:56|440:16,1,99.9999999999999,8|0
336,32,58335,6,0,B|352:144|240:192,2,200,2|2|2
248,72,60132,1,8
152,32,60491,1,0
72,88,60850,1,8
168,128,61209,6,0,B|184:184|160:232,1,99.9999999999999,0|8
256,256,61928,2,0,B|232:309|183:330,1,99.9999999999999,0|8
96,360,62647,2,0,B|112:256|48:168,1,200,2|4
96,80,63724,5,0
184,120,64084,2,0,B|176:176|200:216,1,99.9999999999999,0|8
168,312,64802,2,0,B|209:349|256:352,1,99.9999999999999,0|8
336,288,65521,2,0,B|344:232|320:192,2,99.9999999999999,0|0|0
240,256,66599,1,8
248,160,66958,6,0,B|256:32|128:40,1,200,2|2
176,232,68395,2,0,B|168:360|296:352,1,200,2|2
368,280,69473,2,0,B|392:328|392:384,1,99.9999999999999,8|0
472,312,70191,5,0
496,216,70551,1,0
472,120,70910,1,8
408,40,71269,2,0,B|304:0,2,99.9999999999999,0|8|0
224,120,72706,6,0,B|208:176|224:224,1,99.9999999999999,8|0
120,224,73425,2,0,B|143:277|186:303,1,99.9999999999999,8|0
272,264,74144,6,0,B|288:320|264:368,2,99.9999999999999,0|0|0
344,192,75221,1,8
280,112,75581,2,0,B|264:56|288:8,2,99.9999999999999,0|0|0
344,192,76658,1,8
424,128,77018,6,0,B|440:192|416:256,1,99.9999999999999
504,280,77736,2,0,B|475:339|415:372,1,99.9999999999999,8|0
344,360,78455,6,0,B|248:296|256:168,1,200,2|2
256,88,79533,1,4
176,152,79892,6,0,B|184:208|152:248,1,99.9999999999999,0|8
248,288,80611,2,0,B|218:336|167:346,1,99.9999999999999,0|8
72,368,81329,2,0,B|112:272|48:176,1,200,2|0
8,88,82407,1,0
88,32,82766,6,0,B|112:88|168:104|232:96|256:48,1,200,2|2
384,208,84203,2,0,B|360:152|304:136|240:144|216:192,1,200,2|2
256,280,85281,1,0
336,336,85641,6,0,B|376:368|432:368,1,99.9999999999999,0|8
496,288,86359,2,0,B|464:248|464:192,1,99.9999999999999,0|8
360,192,87078,2,0,B|361:140|397:97,2,99.9999999999999,0|0|0
264,192,88155,5,0
168,160,88515,2,0,B|160:216|184:264,1,99.9999999999999,8|0
256,320,89233,2,0,B|312:328|360:304,1,99.9999999999999,8|0
424,240,89952,2,0,B|465:195|457:137|423:82|370:80,1,200,2|0
352,176,91030,1,2
256,152,91389,6,0,B|224:192|168:192,1,99.9999999999999,0|8
80,144,92108,2,0,B|40:176|40:232,1,99.9999999999999,0|8
40,328,92826,1,8
128,280,93185,1,0
168,376,93545,1,8
256,328,93904,1,0
224,232,94263,6,0,B|288:136|256:40,1,200,2|2
408,168,95700,2,0,B|344:264|376:360,1,200,2|2
456,296,96778,5,0
496,208,97138,2,0,B|504:152|480:112,1,99.9999999999999,0|0
424,32,97856,2,0,B|368:24|328:48,1,99.9999999999999,8|0
256,120,98575,2,0,B|296:168|288:224,2,99.9999999999999,8|0|8
64,192,100012,5,0
256,264,100730,1,8
160,88,101449,2,0,B|256:144|352:88,1,200,2|0
349,89,102527,1,0
432,32,102886,5,2
496,104,103245,1,8
480,200,103605,1,2
384,216,103964,1,8
392,152,110072,6,0,B|320:224|352:344,1,200,2|0
256,368,111150,1,0
200,288,111509,2,4,B|176:336|128:352,1,99.9999999999999,0|8
104,256,112227,2,0,B|54:277|7:258,1,99.9999999999999,0|8
48,168,112946,5,4
64,72,113305,1,8
160,32,113664,1,0
144,128,114023,1,8
240,88,114383,2,0,B|280:184|256:288,1,200,2|0
176,224,115461,1,0
104,160,115820,6,0,B|63:205|71:263|105:318|158:320,2,200,2|0|2
160,80,117617,1,0
256,56,117976,1,8
336,120,118335,1,8
240,144,118694,6,0,B|248:200|224:240,1,99.9999999999999,0|8
312,280,119413,2,0,B|282:328|238:343,1,99.9999999999999,0|8
136,352,120132,2,0,B|168:248|112:160,1,200,2|0
48,88,121209,5,0
128,24,121569,1,8
208,80,121928,1,0
304,48,122287,2,0,B|328:96|312:152,1,99.9999999999999,8|0
256,232,123006,2,0,B|268:284|316:316,2,99.9999999999999
208,144,124084,1,8
112,144,124443,6,0,B|192:240|104:320,1,200,2|2
296,368,125880,2,0,B|216:272|304:192,1,200,2|2
384,136,126958,2,0,B|400:192|384:240,1,99.9999999999999,8|0
400,336,127676,6,0,B|448:312|464:264,1,99.9999999999999
488,168,128395,1,8
464,72,128754,1,8
376,24,129114,2,0,B|328:48|280:32,1,99.9999999999999
112,144,130191,5,0
64,232,130551,1,8
160,224,130910,2,0,B|176:280|144:320,1,99.9999999999999,0|0
240,296,131629,6,0,B|256:352|296:376,2,99.9999999999999
256,200,132706,1,8
312,120,133066,2,0,B|296:64|256:40,2,99.9999999999999
256,200,134144,1,8
192,120,134503,6,0,B|168:168|168:216,1,99.9999999999999
72,208,135221,2,0,B|84:260|115:296,1,99.9999999999999,8|0
208,344,135940,2,0,B|296:328|304:240|256:192,1,200,2|2
256,96,137018,1,4
328,24,137377,6,0,B|440:48|448:168,1,200,2|0
352,192,138455,1,0
432,248,138814,2,0,B|432:304|464:344,1,99.9999999999999,0|8
368,376,139533,2,0,B|368:320|336:280,1,99.9999999999999,0|8
256,336,140251,5,0
264,240,140611,1,8
256,144,140970,2,0,B|216:176|160:176,1,99.9999999999999
104,96,141688,2,0,B|72:136|72:192,1,99.9999999999999,8|0
0,248,142407,2,0,B|40:280|96:280,1,99.9999999999999,8|0
160,352,143126,6,0,B|216:248|336:304,2,200,2|2|2
128,256,144922,1,0
104,160,145281,1,8
152,72,145641,6,0,B|256:56,1,99.9999999999999
256,160,146359,2,0,B|360:144,1,99.9999999999999,8|0
432,88,147078,1,8
432,88,147437,2,0,B|464:176|432:248|344:280,1,200,2|2
280,248,148515,1,2
256,152,148874,6,0,B|224:192|168:192,1,99.9999999999999,0|8
112,112,149593,2,0,B|72:144|72:200,1,99.9999999999999,0|8
48,296,150311,1,0
112,376,150670,1,0
216,368,151030,1,8
256,280,151389,1,8
224,184,151748,6,0,B|216:72|320:24,1,200,2|2
440,184,153185,2,0,B|448:296|344:344,1,200,2|2
256,304,154263,5,0
168,256,154623,2,0,B|152:200|176:160,1,99.9999999999999,8|0
264,104,155341,2,0,B|280:160|256:200,1,99.9999999999999
256,304,156060,2,0,B|312:288|352:312,2,99.9999999999999,8|0|8
168,344,157138,1,8
256,192,157497,12,4,160371
