osu file format v9

[General]
AudioFilename: happy generation.mp3
AudioLeadIn: 0
PreviewTime: 79806
Countdown: 0
SampleSet: Normal
StackLeniency: 0.7
Mode: 0
LetterboxInBreaks: 1

[Editor]
DistanceSpacing: 1.2
BeatDivisor: 4
GridSize: 8

[Metadata]
Title:HAPPY Generation
Artist:fripSide
Creator:Thite
Version:Insane
Source:School Heart's
Tags:nao project! wring moedoracd

[Difficulty]
HPDrainRate:6
CircleSize:4
OverallDifficulty:7
ApproachRate:8
SliderMultiplier:2
SliderTickRate:1

[Events]
//Background and Video events
0,0,"15482153a.jpg"
//Break Periods
2,104323,109322
//Storyboard Layer 0 (Background)
//Storyboard Layer 1 (Fail)
//Storyboard Layer 2 (Pass)
//Storyboard Layer 3 (Foreground)
//Storyboard Sound Samples
//Background Colour Transformations
3,100,163,162,255

[TimingPoints]
28156,359.281437125748,4,1,0,40,1,0
79892,-100,4,1,0,40,0,1
102527,-100,4,1,0,40,0,0
137377,-100,4,1,0,40,0,1
160371,-100,4,1,0,40,0,0

[Colours]
Combo1 : 128,255,128
Combo2 : 128,255,255
Combo3 : 255,255,128

[HitObjects]
96,144,28155,6,0,B|88:192,2,50,12|0|12
208,104,28515,2,0,B|256:120,2,50,8|0|8
112,32,28874,5,8
88,80,28964,1,0
72,128,29054,1,0
88,176,29144,1,0
120,216,29233,2,0,B|168:232,3,50,8|0|8|0
208,208,29593,6,0,B|232:256|208:320,1,100,4|0
208,104,29952,2,0,B|257:125|279:189,1,100
328,368,30311,2,0,B|240:288|320:192,1,200,2|0
352,96,30850,1,0
256,88,31030,6,2,B|256:200|368:240,1,200,6|2
136,304,31748,2,2,B|136:192|40:152,1,150,6|2
48,128,32108,2,2,B|96:160|160:168,1,100
256,136,32467,6,0,B|320:128|384:96,2,100,4|0|4
144,88,33006,1,8
144,88,33185,2,2,B|88:208|216:240,1,200
144,88,33724,1,0
88,192,33904,6,0,B|48:224,2,50,12|0|12
224,136,34263,2,0,B|272:152,2,50,12|0|12
152,272,34623,2,0,B|168:320,3,50,8|0|8|0
200,352,34982,2,0,B|248:360,3,50,8|0|8|0
304,368,35341,6,2,B|224:288|256:184,1,200,6|2
288,72,35880,1,2
168,80,36060,2,2,B|165:212|295:189,1,200
408,144,36599,2,0,B|424:192,2,50,8|0|8
40,192,37138,1,8
472,192,37497,1,8
256,16,37856,6,8,B|224:56|168:88,1,100
64,48,38215,2,0,B|34:89|19:152,1,100
136,192,38575,2,0,B|88:208,2,50,8|0|8
32,128,38934,5,0
136,192,39114,1,8
256,208,39293,1,0
368,176,39473,1,8
456,96,39653,2,2,B|368:128|416:216,1,150
415,215,40012,1,0
352,312,40191,2,0,B|320:352,2,50,8|0|8
256,24,40730,1,8
88,192,41090,6,0,B|112:248|128:304,1,100,4|0
8,320,41449,2,8,B|64:344|120:360,1,100
224,360,41808,2,2,B|128:264|232:192,1,200
230,193,42347,1,0
288,24,42527,6,2,B|384:120|280:192,1,200
168,144,43066,2,0,B|152:192,2,50,0|0|0
360,192,43425,1,0
360,192,43605,2,0,B|400:224,2,50
344,80,43964,6,2,B|256:136|256:256,1,200
256,368,44503,1,0
344,80,44682,2,8,B|400:104|464:112,1,100
352,192,45042,2,8,B|296:216|232:224,1,100
144,192,45401,5,0
240,120,45581,1,8
352,160,45760,1,0
232,168,45940,1,8
168,272,46120,1,0
264,200,46300,1,8
376,240,46479,2,0,B|424:264,2,50,0|0|0
264,304,46838,6,0,B|208:344|160:352,1,100,4|0
64,304,47197,2,8,B|54:235|70:189,1,100
176,160,47557,2,0,B|185:228|169:274,2,100
176,160,48096,1,0
56,48,48275,6,2,B|72:152|24:248,1,200
456,336,48994,2,2,B|440:232|488:136,1,200
272,256,49712,6,0,B|288:336|312:368,2,100
256,136,50251,1,8
144,96,50431,2,0,B|80:184|112:288,2,200,2|0|2
256,56,51329,1,0
256,56,51509,1,0
360,112,51688,1,0
360,112,51868,2,2,B|456:112|440:240|336:184,1,200,0|0
256,360,52587,6,2,B|240:256|128:216,1,200,6|2
8,208,53126,1,0
48,320,53305,1,8
64,200,53485,2,0,B|112:216|168:200,2,100,8|0|8
160,120,54024,2,0,B|240:128|264:224|224:272,2,200,2|0|2
256,32,54922,1,8
256,32,55102,2,0,B|208:24,2,50
360,72,55461,6,2,B|304:192|432:224,1,200
428,223,56000,1,0
336,344,56179,2,2,B|392:224|264:192,1,200
168,168,56718,2,0,B|120:192,2,50
96,72,57078,5,8
48,216,57257,1,0
192,248,57437,1,8
240,104,57616,1,0
240,104,57796,2,0,B|320:120,2,50,8|0|8
448,32,58335,6,2,B|496:144|440:256,2,200,6|2|6
328,24,59233,2,0,B|288:48|224:40,1,100
232,160,59593,2,2,B|264:208|248:264,2,100
208,40,60132,2,0,B|168:96|192:184|280:184,1,200,2|0
392,144,60670,2,0,B|416:192,2,50,8|0|8
208,40,61030,1,0
96,88,61209,6,0,B|104:144|80:208,2,100
96,88,61748,1,8
200,152,61928,2,0,B|240:191|261:256,2,100
96,88,62467,1,8
40,192,62647,2,0,B|48:272|40:312,1,100
112,192,63006,2,2,B|96:312|208:352,1,200
256,120,63724,5,0
344,40,63904,1,8
448,96,64084,2,0,B|464:176|480:208,1,100,4|0
352,192,64443,2,8,B|368:272|384:304,1,100
464,368,64802,5,0
456,216,64982,1,8
320,280,65161,1,0
312,128,65341,1,8
392,40,65521,6,0,B|392:104|304:152|240:96,2,200
241,97,66599,1,0
32,192,66958,6,8,B|56:256|56:320,1,100
128,192,67317,2,0,B|104:128|104:64,1,100
32,192,67676,1,8
72,304,67856,1,0
184,352,68036,2,8,B|240:352|304:360,1,100
408,360,68395,6,2,B|288:344|256:248,1,200
104,24,69114,2,2,B|224:40|256:136,1,200
192,232,69653,2,0,B|152:264,2,50,8|4|0
416,248,70191,6,8,B|432:304|456:360,1,100
384,152,70551,2,0,B|437:175|495:193,1,100
296,104,70910,2,8,B|346:74|394:38,1,100
256,40,71269,2,2,B|328:136|256:224,1,200
208,232,71718,5,0
160,216,71808,1,0
112,216,71898,1,0
64,192,71988,2,0,B|64:256|56:304,2,100,8|0|8
48,72,72527,6,2,B|104:88|184:96,1,100
464,72,72886,2,2,B|408:88|328:96,1,100
96,192,73245,6,2,B|152:208|232:216,1,100
416,192,73605,2,0,B|360:208|280:216,2,100,2|0|2
464,80,74144,5,4
360,24,74323,1,8
312,136,74503,1,0
416,192,74682,1,8
336,104,74862,5,0
232,48,75041,1,8
184,160,75221,1,0
288,216,75400,1,8
232,48,75581,6,2,B|248:120|256:168,1,100,6|2
368,192,75940,2,2,B|332:256|311:300,1,100,6|2
256,384,76299,1,0
160,304,76479,1,0
208,192,76658,1,8
168,80,76838,1,0
64,24,77018,6,8,B|48:104|32:144,1,100,12|8
160,152,77377,2,8,B|180:230|183:273,1,100
72,192,77736,1,0
72,312,77916,1,8
184,360,78096,1,0
272,280,78275,1,8
256,160,78455,6,0,B|160:192,1,100,8|0
344,104,78814,2,0,B|440:72,1,100,8|0
240,96,79173,2,0,B|304:136,3,50,8|0|8|0
320,152,79533,1,0
336,200,79623,1,0
344,248,79712,1,0
328,296,79802,1,0
288,320,79892,6,2,B|256:224|144:192,1,200,6|2
24,192,80431,1,0
120,120,80611,2,0,B|176:120|208:80,2,100,8|0|0
120,120,81150,1,0
176,224,81329,2,0,B|176:280|136:312,1,100,8|0
256,312,81688,2,2,B|256:232|336:192,1,150
392,176,82048,2,0,B|336:160|280:144,1,100
200,80,82407,2,8,B|256:64|312:48,1,100
408,8,82766,6,2,B|480:64|456:144,1,150
496,144,83126,2,0,B|456:192|392:208,1,100
296,216,83485,1,8
256,104,83664,1,0
176,192,83844,1,8
216,304,84023,1,0
256,104,84203,6,0,B|208:88,3,50,8|0|8|0
208,40,84563,2,0,B|160:56,3,50,8|0|8|0
120,88,84922,1,0
104,136,85012,1,0
120,184,85102,1,0
128,232,85191,1,0
104,272,85281,2,0,B|56:296,2,50,8|0|8
192,192,85641,6,0,B|248:208|336:208,1,100,4|0
312,328,86000,2,8,B|256:312|168:312,1,100
112,248,86359,2,0,B|128:192|128:104,1,100
112,32,86718,1,8
48,136,86898,1,8
40,184,86988,1,0
48,232,87078,6,0,B|56:280,2,50,8|0|8
152,168,87437,2,0,B|200:192,2,50,8|0|8
72,80,87796,1,0
72,80,87886,1,0
72,80,87976,1,0
104,192,88155,6,8,B|128:264|160:312,1,100
232,360,88515,2,0,B|256:288|288:240,1,100
392,264,88874,2,8,B|368:192|336:144,1,100
256,96,89233,2,0,B|208:112,2,50,8|0|8
376,72,89593,1,0
448,168,89772,1,8
432,288,89952,1,0
320,352,90132,1,8
200,328,90311,2,0,B|152:336,2,50
432,288,90670,1,8
256,24,91030,1,8
40,192,91389,5,4
72,304,91569,1,8
96,184,91748,2,0,B|88:120|96:72,1,100
168,272,92108,2,8,B|222:307|253:343,1,100
232,216,92467,1,0
256,96,92647,1,8
200,8,92826,6,2,B|256:112|368:104,1,200
312,376,93545,2,2,B|256:272|144:280,1,200,2|2
376,192,94263,6,0,B|400:272|432:312,1,100
488,192,94623,2,8,B|464:112|432:72,1,100
360,16,94982,1,0
464,72,95161,1,8
344,64,95341,1,0
304,176,95520,1,0
384,120,95700,6,0,B|400:168,2,50,8|0|8
256,208,96060,2,0,B|272:256,2,50,8|0|8
256,56,96419,1,8
256,104,96509,1,0
232,144,96599,1,0
120,192,96778,6,0,B|176:208|264:224,1,100
168,328,97138,2,8,B|112:312|24:296,1,100,4|0
32,192,97497,2,0,B|48:136|64:48,1,100,0|0
144,16,97856,2,0,B|192:8,2,50,0|0|0
176,136,98215,1,8
272,208,98395,1,8
392,192,98575,1,0
504,240,98754,2,0,B|488:296,2,50,8|0|8
472,120,99114,2,8,B|424:112|360:80,1,100
336,64,99383,1,0
304,32,99473,1,0
256,48,99563,1,0
208,72,99653,6,8,B|144:96|96:104,1,100
32,192,100012,2,0,B|40:240,2,50,8|0|8
152,176,100371,2,0,B|160:224,2,50,8|0|8
272,144,100730,1,8
280,192,100820,1,0
288,240,100910,1,0
296,288,101000,1,0
304,336,101090,6,0,B|256:360,2,50,8|0|8
416,288,101449,1,0
488,192,101629,1,8
448,80,101808,1,0
344,16,101988,2,8,B|288:32|224:64,1,100
256,368,102527,1,4
96,192,102886,6,0,B|88:144,2,50,8|0|8
296,192,103245,2,0,B|304:240,2,50,8|0|8
480,104,103605,1,0
480,104,103694,1,0
480,104,103784,2,0,B|472:56,2,50,8|0|0
104,192,110072,6,2,B|224:200|256:304,1,200,6|2
255,301,110611,1,0
144,344,110790,2,8,B|88:336|48:368,1,100
104,256,111150,2,8,B|112:200|80:160,1,100,0|8
136,56,111509,2,0,B|80:64|40:32,2,100
256,88,112048,1,0
200,192,112227,1,8
312,240,112407,1,0
224,64,112587,2,0,B|192:104,3,50,8|0|8|0
256,24,112946,6,2,B|256:136|352:192,1,200
472,192,113485,1,0
392,280,113664,2,8,B|328:304|264:312,1,100
144,192,114024,2,0,B|208:216|272:224,2,100,8|0|8
56,112,114563,2,0,B|24:152,2,50,8|0|8
144,192,114922,1,0
256,224,115102,1,8
72,288,115281,2,0,B|32:320,2,50,2|0|2
376,192,115820,6,2,B|256:216|256:328,1,200,6|2
255,328,116359,1,0
368,288,116539,2,2,B|488:264|488:152,1,200,6|2
432,48,117078,1,0
312,48,117257,2,0,B|288:96|304:144,1,100,0|8
208,216,117617,2,0,B|232:168|216:120,2,100,0|8|0
144,32,118155,1,8
144,32,118245,1,0
144,32,118335,1,0
144,32,118425,1,0
144,32,118515,1,0
80,176,118694,6,0,B|96:232|96:296,2,100,0|0|0
56,56,119233,2,0,B|16:24,2,50,0|0|0
80,176,119593,1,8
56,56,119772,6,0,B|112:80|184:88,1,100
256,24,120132,2,2,B|144:88|232:192,1,200
304,120,120670,1,0
376,192,120850,2,8,B|392:248|424:304,1,100
496,192,121209,5,0
456,80,121389,1,8
344,40,121569,2,0,B|272:48|224:48,1,100,4|0
104,192,121928,2,8,B|176:184|224:184,1,100
400,192,122287,2,0,B|328:200|280:200,2,100,8|0|8
400,192,122826,1,0
464,88,123006,6,2,B|352:152|456:248,1,200
232,192,123545,2,2,B|344:128|240:32,1,200
240,32,124084,1,0
256,352,124443,6,0,B|200:360|144:360,2,100,8|0|8
256,232,124982,2,0,B|312:224|368:224,2,100,8|0|8
144,192,125521,2,0,B|88:184,2,50,8|0|8
256,144,125880,6,2,B|144:224|256:304,2,200
472,32,126958,5,8
472,56,127048,1,0
472,80,127138,1,0
472,104,127227,1,0
472,128,127317,2,8,B|472:184|472:184|432:208,1,100,12|8
320,248,127676,6,8,B|320:192|320:192|360:168,1,100
472,128,128036,1,0
352,144,128215,1,8
256,72,128395,2,0,B|176:88|128:88,1,100
40,120,128754,2,0,B|56:224,2,100,8|0|8
136,192,129293,2,0,B|144:240,2,50,8|0|8
256,168,129653,2,0,B|248:120,2,50,8|0|8
176,256,130012,6,0,B|176:192|200:136,1,100
336,128,130371,2,8,B|336:192|312:248,1,100
136,312,130730,6,0,B|136:248|160:192,1,100
376,72,131090,2,0,B|376:136|352:192,2,100,8|0|8
256,88,131629,5,4
192,192,131808,1,8
296,248,131988,1,0
360,144,132167,1,8
240,168,132347,5,0
176,272,132526,1,8
280,328,132706,1,0
344,224,132885,1,8
176,272,133066,6,8,B|112:288|72:296,1,100,12|8
144,192,133425,2,8,B|208:176|248:168,1,100
360,136,133784,5,0
256,304,133964,1,8
88,192,134144,1,0
192,24,134324,1,8
256,128,134503,6,0,B|192:136|136:128,2,100,12|0|12
256,248,135042,2,0,B|241:310|214:360,2,100,8|0|8
256,128,135581,1,8
256,128,135670,1,0
256,128,135760,1,0
192,24,135940,6,0,B|144:48,2,50,8|0|8
312,48,136299,2,0,B|360:72,2,50,8|0|8
256,128,136658,6,0,B|208:144,1,50
240,192,136838,2,0,B|192:208,1,50,8|0
224,256,137018,2,0,B|176:272,1,50
208,320,137198,2,0,B|160:336,1,50,8|0
112,352,137377,6,2,B|192:256|80:184,1,200,6|2
82,185,137916,1,0
8,88,138096,2,8,B|72:104|136:104,1,100
192,16,138455,2,0,B|257:13|320:26,1,100
400,80,138814,1,8
456,192,138994,1,0
416,304,139173,2,0,B|400:352,2,50,8|0|8
456,192,139533,2,0,B|440:248|480:288,2,100
456,192,140072,1,0
400,80,140251,6,2,B|392:168|312:192,1,150
272,224,140611,2,2,B|248:176|256:96,1,100
176,40,140970,2,0,B|226:22|304:41,2,100
64,72,141509,1,8
40,192,141688,6,0,B|32:240,2,50,8|0|8
64,72,142048,2,0,B|72:24,2,50,8|0|8
144,160,142407,1,8
152,184,142497,1,0
160,208,142587,1,0
168,232,142676,1,0
176,256,142766,1,0
184,280,142856,1,0
192,304,142946,1,0
200,328,143036,1,0
208,352,143126,6,8,B|256:360|328:360,1,100,12|8
432,200,143485,2,8,B|384:192|312:192,1,100,0|0
216,192,143844,1,0
216,192,144024,1,8
256,80,144203,1,0
256,80,144383,1,8
368,48,144563,1,0
368,48,144653,1,0
368,48,144742,1,0
440,144,144922,2,0,B|464:192,2,50,8|0|8
392,256,145281,2,0,B|400:304,2,50,8|0|8
368,48,145641,6,0,B|296:64|224:64,1,100
184,152,146000,2,8,B|256:136|328:136,1,100
392,192,146359,2,0,B|408:264|408:336,1,100
304,344,146718,2,0,B|256:368,2,50,8|0|8
256,232,147078,2,0,B|208:216,2,50,8|0|8
304,344,147437,1,0
184,344,147617,1,8
88,272,147796,1,0
56,152,147976,1,8
96,40,148155,2,0,B|144:16,2,50,8|0|8
24,232,148515,1,2
256,112,148874,6,0,B|336:120|384:120,1,100,4|0
464,72,149233,1,8
256,112,149413,1,0
168,192,149593,2,0,B|176:248|160:296,1,100,8|0
48,248,149952,2,0,B|40:192|56:144,1,100
104,40,150311,6,0,B|112:152|224:184,2,200
222,183,151209,1,0
222,183,151389,1,0
320,256,151569,1,8
256,344,151748,6,0,B|184:352|128:344,2,100
328,248,152287,1,8
328,248,152467,2,0,B|400:240|456:248,2,100
256,344,153006,1,8
160,280,153185,6,0,B|112:264,2,50,8|0|8
240,192,153545,2,0,B|232:144,2,50,8|0|8
120,192,153904,1,8
120,192,153994,1,0
120,192,154084,1,0
72,80,154263,6,0,B|112:48|168:56,1,100
256,128,154623,2,0,B|232:184|256:232,1,100,12|0
304,336,154982,2,0,B|256:360,2,50,8|0|8
416,296,155341,1,8
416,296,155431,1,0
416,296,155521,1,0
472,192,155700,6,0,B|368:192,1,100
40,192,156060,2,2,B|144:192,1,100
104,80,156419,6,0,B|208:80,1,100
408,80,156778,2,2,B|304:80,1,100
216,160,157138,5,0
256,272,157317,1,8
256,192,157497,12,4,160371
