osu file format v9

[General]
AudioFilename: happy generation.mp3
AudioLeadIn: 0
PreviewTime: 79806
Countdown: 0
SampleSet: Normal
StackLeniency: 0.7
Mode: 0
LetterboxInBreaks: 1

[Editor]
DistanceSpacing: 1
BeatDivisor: 2
GridSize: 8

[Metadata]
Title:HAPPY Generation
Artist:fripSide
Creator:Thite
Version:Easy
Source:School Heart's
Tags:nao project! wring moedoracd

[Difficulty]
HPDrainRate:1
CircleSize:3
OverallDifficulty:2
ApproachRate:2
SliderMultiplier:0.799999999999999
SliderTickRate:1

[Events]
//Background and Video events
0,0,"15482153a.jpg"
//Break Periods
2,104323,108512
//Storyboard Layer 0 (Background)
//Storyboard Layer 1 (Fail)
//Storyboard Layer 2 (Pass)
//Storyboard Layer 3 (Foreground)
//Storyboard Sound Samples
//Background Colour Transformations
3,100,163,162,255

[TimingPoints]
28156,359.281437125748,4,1,0,40,1,0
79892,-100,4,1,0,40,0,1
102527,-100,4,1,0,40,0,0
137377,-100,4,1,0,40,0,1
160012,-100,4,1,0,40,0,0

[Colours]
Combo1 : 128,255,128
Combo2 : 128,255,255
Combo3 : 255,255,128

[HitObjects]
128,72,28155,2,2,B|56:192|128:304,1,240
184,352,29593,5,4
256,208,30311,1,8
368,328,31030,1,0
288,192,31748,1,8
416,56,32467,6,2,B|328:144|384:280,1,240,6|2
352,352,33904,2,2,B|264:264|128:320,1,240,6|2
56,344,35341,5,0
16,192,36060,1,8
80,40,36778,2,0,B|160:48,1,79.9999999999999,8|0
240,56,37497,1,0
256,192,37856,12,0,39653
392,32,41090,6,2,B|488:128|424:256,1,240,6|2
368,312,42527,2,2,B|272:408|144:344,1,240,2|0
128,272,43964,2,0,B|48:280,2,79.9999999999999
208,264,45042,1,8
168,192,45401,2,0,B|128:120,2,79.9999999999999
208,264,46479,1,8
256,328,46838,6,2,B|400:336|440:208,1,240,6|2
360,192,48275,2,2,B|347:48|215:26,1,240
136,48,49712,1,0
112,208,50431,1,0
248,120,51150,2,0,B|256:216|312:264,1,160,2|0
376,112,52587,6,0,B|392:192,1,79.9999999999999,12|0
472,192,53305,2,0,B|488:272,1,79.9999999999999,8|0
440,336,54024,2,2,B|392:264|304:256,1,160
224,264,55102,1,0
264,192,55461,6,0,B|240:112,1,79.9999999999999,8|0
168,144,56179,2,0,B|144:64,1,79.9999999999999,8|0
72,40,56898,2,2,B|8:96|24:192,1,160
48,336,58335,6,2,B|192:360|256:248,1,240
256,168,59772,1,0
336,192,60132,1,0
416,192,60491,1,8
296,264,61209,6,2,B|232:208|256:112,2,160
136,288,63365,1,8
120,128,64084,5,4
128,288,64802,1,8
256,192,65521,2,0,B|256:240|256:272,1,79.9999999999999
336,256,66239,2,0,B|336:304|336:336,1,79.9999999999999,8|0
416,344,66958,5,0
464,192,67676,1,8
384,56,68395,2,0,B|304:32,2,79.9999999999999,8|0|8
432,120,69473,2,0,B|424:184|440:224,1,79.9999999999999
352,136,70191,6,0,B|296:192,1,79.9999999999999,8|0
256,120,70910,2,0,B|200:176,1,79.9999999999999,0|0
128,136,71629,2,0,B|72:192,1,79.9999999999999,8|0
128,344,72706,6,2,B|256:392|360:320,1,240
392,248,74144,6,0,B|248:216|256:80,1,240,6|0
320,32,75581,1,8
416,160,76299,1,8
264,192,77018,6,0,B|184:192,1,79.9999999999999,4|0
176,272,77736,2,0,B|256:272,1,79.9999999999999,8|0
304,336,78455,1,0
400,208,79173,1,0
256,128,79892,6,2,B|256:264|160:344,1,240,6|2
136,264,81329,2,2,B|136:128|40:48,1,240
8,128,82766,5,0
40,288,83485,1,0
184,224,84203,2,0,B|256:288|256:368,1,160,8|0
304,208,85641,6,2,B|248:184|208:120|240:40|296:16,1,240
376,24,87078,2,0,B|384:112|456:160,1,160
296,152,88515,5,8
400,272,89233,1,0
256,208,89952,1,8
272,368,90670,1,0
208,320,91030,1,8
136,360,91389,6,2,B|8:296|56:160,1,240,6|2
136,184,92826,2,2,B|122:41|263:10,1,240
328,56,94263,5,0
224,176,94982,1,0
224,336,95700,2,0,B|304:296|384:328,1,160,8|0
432,264,96778,5,0
432,184,97138,2,2,B|344:168|336:72,1,160,6|2
280,16,98215,1,0
256,96,98575,2,2,B|240:184|144:192,1,160
256,328,100012,5,0
168,192,100730,1,0
256,56,101449,2,0,B|336:56,2,79.9999999999999,8|0|8
176,56,102527,1,8
96,56,102886,6,0,B|72:136,1,79.9999999999999,2|0
24,192,103605,2,0,B|48:272,1,79.9999999999999,2|0
256,328,110072,6,0,B|336:344,1,79.9999999999999,4|0
328,264,110790,2,0,B|408:280,1,79.9999999999999,8|0
488,296,111509,2,2,B|512:216|480:136,1,160
448,64,112587,1,8
376,32,112946,6,0,B|320:32|272:24,1,79.9999999999999
312,104,113664,2,0,B|256:104|208:96,1,79.9999999999999,8|0
152,88,114383,1,8
152,88,114742,1,0
216,24,115102,2,0,B|248:64|256:96,1,79.9999999999999,8|0
216,160,115820,6,2,B|160:184|120:248|152:328|208:352,1,240
280,328,117257,1,0
400,224,117976,1,0
248,144,118694,6,2,B|248:280|144:352,1,240
64,344,120132,1,0
24,192,120850,1,8
40,112,121209,6,0,B|120:104,1,79.9999999999999,8|4
144,184,121928,2,0,B|224:176,1,79.9999999999999,8|0
256,248,122647,2,0,B|168:248|128:328,1,160
56,288,123724,1,0
16,136,124443,5,0
168,192,125161,1,8
256,328,125880,2,0,B|352:368,1,79.9999999999999
344,280,126599,2,0,B|443:248,1,79.9999999999999
248,192,127676,6,0,B|256:272,1,79.9999999999999
176,248,128395,2,0,B|157:326,2,79.9999999999999,8|0|8
184,168,129473,1,0
256,24,130191,5,8
416,48,130910,1,8
480,192,131629,6,2,B|488:336|336:352,1,240,6|2
352,272,133066,2,2,B|208:280|192:128,1,240,6|2
200,56,134503,1,0
128,200,135221,2,0,B|112:280,1,79.9999999999999
40,240,135940,5,0
8,80,136658,1,0
128,120,137377,6,2,B|216:256|61:309,1,240,6|2
120,368,138814,2,2,B|232:296|352:336,1,240
432,344,140251,6,0,B|416:264,1,79.9999999999999
480,224,140970,2,0,B|464:144,1,79.9999999999999,8|0
456,64,141688,6,0,B|376:56,1,79.9999999999999,8|0
384,136,142407,2,0,B|304:128,1,79.9999999999999,8|0
192,72,143126,6,2,B|278:193|167:285,1,240,6|2
88,304,144563,2,0,B|24:256,2,79.9999999999999
232,368,146000,5,0
256,208,146718,1,8
120,288,147437,2,2,B|88:152|176:64,1,240
256,24,148874,6,2,B|256:152|400:192,1,240,6|2
416,112,150311,2,2,B|472:136|512:200|480:280|424:304,1,240
360,344,151748,6,0,B|280:352,1,79.9999999999999
256,280,152467,2,0,B|176:288,1,79.9999999999999,8|0
96,296,153185,2,2,B|32:224|104:152,1,160
168,112,154263,5,8
248,128,154623,2,2,B|216:208|248:288,1,160,6|2
320,312,155700,1,0
392,344,156060,2,2,B|424:264|392:184,1,160
256,104,157497,5,8
120,192,158215,1,8
280,184,158934,2,2,B|336:208|376:272|344:352|288:376,1,240
256,304,160371,1,4
