osu file format v7

[General]
AudioFilename: Koihime Mosou op flower_of_bravery.mp3
AudioLeadIn: 1004
PreviewTime: 60273
Countdown: 1
SampleSet: Normal
StackLeniency: 0.7
Mode: 0
LetterboxInBreaks: 1

[Editor]
DistanceSpacing: 1
BeatDivisor: 4
GridSize: 16

[Metadata]
Title:Flower of Bravery
Artist:fripSide
Creator:minyeob
Version:Insane
Source:Koihime Musou
Tags:yongtw123 hutka

[Difficulty]
HPDrainRate:7
CircleSize:5
OverallDifficulty:7
SliderMultiplier:2.2
SliderTickRate:1

[Events]
//Background and Video events
0,0,"bfacc8f1b9abbdd618_funnyalmond_2758889.jpg"
//Break Periods
2,17144,19202
2,89776,91833
2,162407,173939
2,187276,192886
//Storyboard Layer 0 (Background)
//Storyboard Layer 1 (Fail)
//Storyboard Layer 2 (Pass)
//Storyboard Layer 3 (Foreground)
//Storyboard Sound Samples
//Background Colour Transformations
3,100,163,162,255

[TimingPoints]
1155,394.736842105263,4,1,1,100,1,0
20039,-200,4,2,1,100,0,0
26325,-200,4,1,1,70,0,0
32444,-100,4,1,1,100,0,0
45174,-100,4,1,1,70,0,0
51588,-100,4,1,1,80,0,0
53266,-100,4,1,1,90,0,0
60470,-100,4,1,1,100,0,0
92444,-200,4,2,1,100,0,0
98957,-200,4,1,1,70,0,0
105273,-100,4,1,1,100,0,0
118003,-100,4,1,1,70,0,0
123628,-100,4,1,1,85,0,0
132904,-100,4,1,1,100,0,0
193496,-100,4,1,1,70,0,0
200108,-100,4,1,1,100,0,0

[Colours]
Combo1 : 0,0,255
Combo2 : 255,0,128
Combo3 : 128,128,255
Combo4 : 0,128,128

[HitObjects]
256,352,1155,2,8,B|256:160,1,165
254,55,1747,1,0
349,83,1944,2,0,B|255:150|255:150|126:61,1,220,8|8
94,41,2536,1,0
35,106,2733,2,0,B|108:191,1,110,0|8
43,251,3128,2,0,B|118:340,1,110,0|8
187,286,3523,1,0
254,229,3720,1,0
254,229,3819,1,0
254,229,3918,1,8
319,170,4115,5,0
392,122,4312,2,0,B|433:84|433:84|373:27,1,110
392,123,4707,2,0,B|433:161|433:161|373:218,1,110,8|0
456,264,5102,2,0,B|400:320|400:320|352:264|352:264|288:328|288:328|216:264,1,330
135,275,5891,2,0,B|134:163,1,110
133,76,6286,1,8
220,77,6483,2,0,B|464:77,1,220
440,77,7076,1,12
448,192,7470,5,4
271,194,7865,1,8
182,193,8062,1,0
179,105,8260,2,0,B|318:104,1,110
179,105,8655,2,0,B|40:106,1,110,8|0
64,192,9049,1,0
64,208,9148,1,0
64,224,9247,1,0
64,312,9444,1,8
151,312,9641,1,0
256,288,9839,5,0
256,271,9937,1,0
256,254,10036,1,0
255,237,10135,1,0
255,220,10233,1,12
255,186,10431,1,0
178,142,10628,6,0,B|176:64|176:64|280:64,2,165
181,307,11615,2,0,B|40:380,1,110
181,307,12010,2,0,B|303:365,1,110
177,80,12602,1,12
320,96,12997,5,0
320,224,13194,1,0
192,224,13391,1,0
192,96,13589,1,0
256,160,13983,5,0
256,160,14181,1,0
256,192,14378,12,4,16944
96,192,20102,5,2
208,192,20497,1,0
208,80,20891,1,2
320,80,21286,1,0
432,80,21681,2,2,B|432:176,1,55,0|2
432,190,22076,1,0
432,244,22273,2,2,B|271:245,2,110
432,190,23260,5,0
432,80,23655,1,0
320,80,24049,1,2
208,80,24444,1,0
96,80,24839,2,2,B|96:176,1,55,2|0
96,192,25233,2,0,B|96:288,1,55,2|0
96,304,25628,5,2
151,305,25826,1,0
151,305,25924,1,0
151,305,26023,1,6
288,304,26418,6,0,B|384:304|384:304|384:208,1,165
384,234,27207,1,0
384,128,27602,1,0
384,80,27799,1,0
384,32,27997,2,0,B|272:32|272:32|272:112,1,165
272,85,28786,1,0
272,85,28983,2,0,B|272:144,1,55,0|8
272,192,29378,1,0
272,247,29576,2,0,B|0:246,2,220
256,144,31747,5,0
256,144,31944,1,0
96,64,32536,5,0
96,64,32635,1,0
96,64,32733,2,8,B|160:64|160:64|160:128,1,110,0|0
98,173,33128,2,0,B|140:212|140:212|222:214,1,110,8|0
280,215,33523,2,0,B|340:214|340:214|381:162,1,110,0|0
309,110,33918,2,0,B|334:56|334:56|429:58,1,110,8|0
464,93,34312,1,0
435,176,34510,1,0
435,176,34608,1,0
435,176,34707,1,8
394,254,34905,2,8,B|362:312|362:312|196:312,2,220,0|0|0
320,192,35891,6,0,B|192:192,1,110
224,104,36286,1,8
311,104,36483,1,0
320,16,36681,2,0,B|173:16,1,110
121,17,37076,1,8
33,17,37273,1,0
33,104,37470,1,0
32,192,37668,1,0
32,192,37766,2,4,B|31:260|31:260|96:260|96:260|98:183|98:183|172:183|172:183|170:277|170:277|172:289,1,385
170,372,38654,1,12
384,256,39049,6,0,B|384:64,1,165
256,64,39641,1,0
256,64,39839,1,0
178,105,40036,1,0
106,155,40233,2,0,B|106:315,1,110,8|0
179,313,40628,2,0,B|313:313,1,110
364,267,41023,1,8
439,222,41220,1,0
508,176,41418,2,0,B|508:3,1,165,0|8
160,38,42010,1,0
160,128,42207,6,0,B|384:128,1,220,0|8
436,195,42799,1,0
376,255,42997,2,0,B|376:317,2,55,8|0|8
311,195,43391,2,0,B|238:196,2,55,8|0|8
376,134,43786,2,2,B|375:76,1,55,8|0
286,80,44082,2,0,B|286:143,1,55,0|8
197,134,44378,1,0
108,135,44576,1,8
108,178,44674,1,0
108,222,44773,1,8
109,265,44872,1,0
109,309,44970,1,12
256,256,45168,5,0
256,256,45365,2,0,B|256:64,2,165
168,103,46352,1,0
255,91,46549,1,0
342,105,46747,1,0
374,189,46944,2,2,B|132:189,1,220
256,288,47536,5,0
256,288,47733,1,0
256,111,48128,1,0
79,111,48523,2,0,B|204:111,1,110,8|0
432,111,48918,2,0,B|307:111,1,110,8|0
171,282,49510,5,0
256,300,49707,1,8
341,281,49904,1,0
256,260,50102,2,0,B|256:103,1,110
256,61,50497,1,10
181,15,50694,2,0,B|255:-17|255:-17|348:23,2,165,0|0|8
256,128,51681,5,12
194,245,51977,1,4
325,245,52273,1,12
400,199,52470,2,0,B|381:144|381:144|300:144,1,110
112,199,52865,2,0,B|131:144|131:144|212:144,1,110,8|0
256,128,53260,5,12
321,242,53556,1,4
190,242,53852,1,12
256,32,54247,5,0
256,32,54444,1,8
416,64,54839,5,0
416,320,55233,1,8
96,320,55628,1,0
96,64,56023,1,8
192,128,56418,5,0
320,128,56615,1,0
320,256,56812,1,8
192,256,57010,1,0
256,128,57207,5,0
192,192,57404,1,0
256,256,57602,1,8
320,192,57799,1,0
256,192,58391,12,0,60168
256,192,60562,5,12
256,192,60760,1,12
448,64,61154,6,0,B|318:65,1,110
249,65,61549,1,8
160,65,61747,1,0
72,63,61944,2,0,B|72:181,1,110
72,261,62339,1,8
159,261,62536,1,0
246,262,62733,2,0,B|311:261|311:261|310:190,1,110
309,127,63128,1,8
220,127,63326,1,0
132,127,63523,1,0
132,214,63720,2,4,B|365:214,1,220
440,215,64312,6,0,B|439:64,1,110
439,105,64608,1,8
250,129,64904,1,0
339,155,65102,2,0,B|249:216|249:216|139:142,1,220,0|8
90,95,65694,1,0
23,152,65891,2,0,B|23:272,1,110,0|0
25,350,66286,1,8
112,350,66483,2,12,B|344:351,1,220,4|4
331,350,67076,1,12
256,192,67470,5,4
218,112,67668,1,0
252,33,67865,1,8
287,113,68062,1,0
338,184,68260,2,8,B|162:185,2,165,0|8|0
448,192,69049,5,0
424,229,69148,1,0
398,264,69247,1,0
341,331,69444,1,8
304,306,69543,1,0
268,279,69641,1,0
197,226,69839,2,0,B|140:168|140:168|38:167,2,165,0|8|0
254,319,70628,5,8
407,231,71023,1,0
366,152,71220,1,8
258,12,71615,1,0
182,70,71812,1,8
260,112,72010,1,0
184,174,72207,1,8
19,254,72602,1,8
75,321,72799,1,0
133,254,72997,2,8,B|282:254,1,110,0|8
352,256,73391,5,0
352,224,73490,1,0
352,192,73589,1,8
352,160,73687,1,0
352,128,73786,5,4
256,32,74181,1,8
109,129,74576,2,0,B|185:222,1,110
249,162,74970,2,0,B|342:80,1,110,8|0
400,33,75365,1,0
468,87,75562,1,0
400,143,75760,1,8
469,196,75957,1,0
401,251,76154,1,0
332,195,76352,1,0
297,167,76451,1,0
266,136,76549,1,8
199,77,76747,5,0
137,139,76944,2,0,B|69:140,2,55,0|0|0
197,202,77339,2,0,B|197:263,2,55,0|0|0
259,139,77733,2,0,B|354:138|354:138|355:300|355:300,1,220
356,351,78326,1,0
268,351,78523,2,0,B|267:199,1,110
264,48,79115,1,0
209,215,79510,2,0,B|369:215,1,110,0|4
448,288,80102,5,0
392,120,80497,1,8
339,287,80891,1,0
307,204,81089,1,0
274,122,81286,1,8
218,289,81681,5,0
166,120,82076,1,8
111,286,82470,1,0
142,203,82668,1,0
168,121,82865,1,8
202,40,83062,1,0
256,128,83260,6,0,B|256:224,1,55,0|0
256,271,83556,2,0,B|341:271,1,55
399,271,83852,1,0
399,183,84049,1,0
398,94,84247,1,0
396,6,84444,2,0,B|309:7,1,55,8|0
296,7,84641,2,0,B|297:79,1,55,0|0
303,125,84839,5,0
303,125,84937,1,0
303,125,85036,1,0
303,125,85135,1,0
303,125,85233,1,0
303,125,85332,1,0
303,125,85431,1,0
303,125,85530,1,0
303,125,85628,5,8
252,200,85826,1,0
202,272,86023,1,0
127,225,86220,1,10
228,80,86615,1,14
162,21,86812,1,14
256,192,87010,12,4,89576
75,191,92733,5,2
166,130,93128,1,0
261,75,93523,1,2
310,99,93720,1,0
336,147,93918,1,2
339,201,94115,1,0
310,247,94312,2,0,B|222:265|107:196,2,165,0|2|0
437,191,95891,5,0
346,130,96286,1,2
251,75,96681,1,2
202,99,96878,1,0
176,147,97076,1,2
173,201,97273,1,0
202,247,97470,2,2,B|290:265|405:196,2,165,0|2|4
227,198,98852,1,0
258,152,99049,5,4
258,41,99444,1,0
159,90,99839,2,0,B|389:92,1,220
489,89,101023,1,0
490,199,101418,1,2
490,253,101615,1,0
462,254,101714,1,0
434,254,101812,1,2
378,254,102010,1,0
323,254,102207,6,0,B|381:171|307:84,1,165
193,101,102997,2,0,B|135:184|209:271,1,165
256,320,103786,5,2
201,319,103983,1,0
256,320,104181,1,2
310,320,104378,1,0
256,320,104576,1,2
256,265,104773,2,0,B|256:213,1,27.5
256,192,104970,1,6
256,96,105168,5,6
96,64,105365,6,0,B|96:192,1,110,0|0
96,320,105760,2,0,B|96:192,1,110,8|0
159,63,106155,2,0,B|159:191,1,110,0|0
157,319,106549,2,0,B|157:191,1,110,8|0
262,168,106944,1,0
309,266,107141,1,0
352,300,107240,1,0
403,319,107339,1,8
493,256,107536,2,0,B|461:149|319:121,1,220
331,123,108128,1,12
416,64,108523,6,0,B|416:192,1,110
416,320,108918,2,0,B|416:192,1,110,8|0
352,64,109312,2,0,B|352:192,1,110
352,320,109707,2,0,B|352:192,1,110,8|0
250,168,110102,1,0
203,266,110299,1,0
159,299,110398,1,0
109,319,110497,1,8
19,256,110694,2,8,B|51:149|193:121,1,220,0|0
181,123,111286,1,12
256,64,111483,5,0
350,121,111681,2,0,B|350:238,1,110
251,280,112076,1,8
152,232,112273,1,0
155,120,112470,1,0
253,65,112668,2,0,B|253:6,6,55
157,119,113457,5,0
152,228,113655,1,8
251,275,113852,1,0
351,231,114049,2,0,B|350:115,1,110
350,121,114345,1,0
350,121,114444,1,8
256,32,114641,1,0
256,32,114839,5,0
102,189,115233,1,8
255,347,115628,1,0
401,262,115924,1,8
384,97,116220,1,0
280,58,116418,1,8
170,65,116615,1,0
87,137,116812,1,8
64,244,117010,1,0
139,324,117207,1,8
246,348,117405,5,0
286,330,117503,1,0
326,346,117602,1,8
366,330,117701,1,0
405,348,117799,2,0,B|405:194,1,110,0|8
405,105,118293,1,0
273,105,118589,1,0
96,128,118983,5,0
42,198,119181,1,0
96,266,119378,1,0
152,198,119576,5,12
361,197,119970,1,12
256,320,120365,2,0,B|256:96,1,220,0|8
256,11,120957,1,0
204,81,121155,2,0,B|355:80,1,110
315,168,121549,2,0,B|191:168,1,110
116,168,121944,1,0
114,255,122141,2,0,B|478:255,1,330
256,192,122931,12,8,123918
256,64,124312,5,4
167,64,124510,1,4
167,64,124608,1,4
168,151,124806,1,4
168,151,124905,1,4
168,327,125299,6,0,B|44:327,2,110
256,328,125891,1,4
257,239,126089,1,4
257,239,126187,1,4
345,239,126385,1,4
345,239,126483,1,4
256,128,126878,5,0
256,128,127076,1,0
256,0,127470,5,0
32,192,127865,1,8
256,352,128260,1,2
480,192,128655,1,8
256,128,129049,5,0
320,192,129247,1,0
256,256,129444,1,8
192,192,129641,1,0
256,64,129839,5,0
128,192,130036,1,0
256,320,130233,1,8
384,192,130431,1,0
223,332,131023,6,4,B|223:185|223:185|127:185|127:185|127:121|127:121|223:121|223:121|223:57|223:57|287:57|287:57|287:121|287:121|383:121|383:121|383:185|383:185|287:185|287:185|286:344,1,990,4|12
256,160,133194,5,12
256,160,133391,1,12
64,64,133786,6,0,B|64:192,1,110
63,262,134181,1,8
150,262,134378,1,0
152,173,134576,2,8,B|386:172,1,220,0|8
372,83,135168,1,0
284,83,135365,2,0,B|155:83,1,110
235,146,135760,2,0,B|95:146,1,110,8|0
187,208,136155,1,12
112,258,136352,1,0
146,285,136451,1,0
185,303,136549,1,8
226,286,136648,1,0
262,261,136747,1,4
352,224,136944,6,0,B|352:96,1,110
352,25,137339,1,8
264,27,137536,1,0
264,71,137635,1,0
264,114,137733,2,0,B|114:114,1,110
65,115,138128,2,0,B|64:242,1,110,8|0
152,226,138523,1,8
239,226,138720,1,0
239,226,138819,1,8
370,226,139115,1,8
371,21,139510,6,4,B|371:145,1,110
233,95,139904,1,0
96,64,140102,5,0
416,128,140497,1,8
96,224,140891,1,0
416,288,141286,1,8
256,352,141681,6,0,B|255:207,1,110
255,242,141977,1,0
257,110,142273,1,0
216,32,142470,2,0,C|260:-5|316:49,3,110,0|8|0|12
384,42,143260,6,0,B|448:93|470:220|389:357,1,330
331,285,144049,1,0
264,228,144247,1,0
194,174,144444,1,8
126,229,144641,1,0
56,283,144839,2,0,B|6:225|16:73|123:34|242:49|306:86,1,440
384,128,145826,1,0
449,186,146023,1,4
468,225,146122,1,0
477,267,146220,1,0
488,309,146319,1,0
494,352,146418,1,4
256,192,146615,12,0,147602
256,64,147997,5,0
128,160,148194,1,8
192,288,148391,1,0
320,288,148589,1,8
384,160,148786,1,0
256,192,148983,5,0
256,192,149082,1,0
256,192,149181,1,12
256,192,149576,12,0,150760
167,324,151155,5,0
166,236,151352,1,8
167,323,151549,1,0
255,323,151747,2,12,B|255:99,1,220,4|4
255,103,152339,1,12
345,24,152733,5,0
468,149,153128,1,8
320,244,153523,1,0
195,118,153918,1,8
119,162,154115,1,0
47,213,154312,2,0,B|111:310,1,110
182,257,154707,2,0,B|282:183,1,110,8|0
340,137,155102,2,0,B|421:233,1,110
410,221,155398,1,0
256,320,155694,5,0
256,320,155891,1,8
193,203,156187,1,0
324,204,156483,1,8
96,96,156878,5,0
253,45,157076,1,8
409,95,157273,1,0
469,248,157470,5,8
420,274,157569,1,4
370,297,157668,1,4
317,313,157766,1,4
263,325,157865,1,12
209,312,157964,1,4
157,288,158062,1,4
104,271,158161,1,4
55,245,158260,1,12
256,192,158358,12,0,159444
256,192,159641,12,4,162207
256,96,174839,5,8
180,242,175135,1,0
344,242,175431,1,8
256,192,175826,6,0,B|256:320,2,110,0|8|0
256,96,176418,5,8
180,242,176714,1,0
344,242,177010,1,8
256,160,177405,6,0,B|256:32,2,110,0|8|0
256,256,177997,5,8
201,160,178194,1,0
201,160,178293,1,8
311,160,178490,1,0
311,160,178589,1,8
200,32,178983,6,0,B|360:32,2,110,0|8|0
256,192,179576,12,8,180760
256,32,181155,5,0
151,68,181352,1,0
84,155,181549,1,8
111,261,181747,1,0
201,323,181944,1,0
308,343,182141,1,0
404,289,182339,1,8
449,189,182536,1,0
384,96,182733,5,0
339,63,182832,1,0
284,53,182931,1,8
196,118,183128,1,0
185,172,183227,1,0
220,214,183326,1,8
325,243,183523,1,8
364,204,183622,1,0
348,151,183720,1,8
296,130,183819,1,0
264,174,183918,1,8
224,320,184312,6,0,B|320:320,11,73.3333333333333
256,192,185891,12,4,187076
256,64,193786,5,4
256,320,194576,1,4
96,192,195365,5,4
416,192,196155,1,4
256,64,196944,5,4
256,320,197339,1,4
96,192,197733,1,4
416,192,198128,1,4
256,64,198523,5,12
256,64,198819,1,12
256,64,199115,1,12
227,128,199312,5,0
205,178,199411,1,0
253,204,199510,1,0
301,179,199608,1,0
281,127,199707,1,0
64,320,200102,6,0,B|194:319,1,110
263,319,200497,1,8
352,319,200694,1,0
439,319,200891,2,0,B|439:201,1,110
440,123,201286,1,8
353,123,201483,1,0
266,122,201681,2,0,B|201:123|201:123|202:194,1,110
203,257,202076,1,8
292,257,202273,1,0
380,257,202470,1,0
380,170,202668,2,4,B|147:170,1,220,4|8
71,171,203260,6,0,B|71:44,2,110,8|0|8
71,259,203852,1,0
115,259,203951,1,0
158,259,204049,2,0,B|298:258,1,110
356,260,204444,2,0,B|355:134,1,110,8|0
256,96,204839,5,10
128,288,205135,1,10
384,288,205431,1,10
256,192,205826,5,0
256,192,206023,1,0
256,192,206220,5,0
256,192,206319,1,0
256,192,206418,1,0
107,97,206812,1,8
257,5,207207,1,0
408,95,207602,1,8
496,247,207997,2,0,B|398:303,1,110,0|0
322,341,208391,2,0,B|232:242,1,110,8|0
172,304,208786,1,0
172,304,208885,1,12
104,247,209082,1,0
104,247,209181,1,12
63,169,209378,1,0
96,96,209576,5,8
146,167,209773,1,4
146,167,209872,1,12
196,95,210069,1,4
196,95,210168,1,8
255,30,210365,2,0,B|418:30,1,110
426,93,210760,2,0,B|277:93,1,110,8|0
256,160,211155,1,0
293,183,211253,1,12
361,238,211451,1,0
329,267,211549,1,12
256,352,211747,5,4
256,256,211944,2,4,B|256:192,1,55,12|4
256,160,212141,2,4,B|256:96,1,55,12|4
256,64,212339,2,12,B|256:0,2,55,4|4|12
256,192,212733,12,0,213918
256,64,214312,5,10
96,160,214510,1,0
160,320,214707,1,10
352,320,214905,1,0
416,160,215102,1,0
256,192,215497,5,14
75,296,215891,6,12,B|14:227|-2:116|43:5|196:-14|358:-49|426:178,1,660
293,201,217273,5,0
468,64,217470,6,12,B|529:133|545:244|500:355|347:374|185:409|117:182,1,660
253,350,219049,5,4
32,192,219444,1,8
256,0,219839,1,0
480,192,220233,1,8
160,288,220628,5,0
256,288,220826,1,0
352,288,221023,1,8
352,192,221220,1,0
352,96,221418,1,0
256,96,221615,1,0
160,96,221812,1,8
160,192,222010,1,4
256,192,222207,12,0,223786
256,96,223983,5,6
160,256,224181,1,6
352,256,224378,1,6
416,32,224576,2,0,B|32:32,1,330
256,160,225562,1,0
256,192,225661,1,0
256,224,225760,1,0
256,192,225957,12,4,228128
