osu file format v7

[General]
AudioFilename: Koihime Mosou op flower_of_bravery.mp3
AudioLeadIn: 1004
PreviewTime: 60273
Countdown: 1
SampleSet: Normal
StackLeniency: 0.7
Mode: 0
LetterboxInBreaks: 1

[Editor]
DistanceSpacing: 0.600000023841858
BeatDivisor: 4
GridSize: 8

[Metadata]
Title:Flower of Bravery
Artist:fripSide
Creator:minyeob
Version:Easy
Source:Koihime Musou
Tags:yongtw123 hutka

[Difficulty]
HPDrainRate:4
CircleSize:4
OverallDifficulty:4
SliderMultiplier:1.4
SliderTickRate:1

[Events]
//Background and Video events
0,0,"bfacc8f1b9abbdd618_funnyalmond_2758889.jpg"
//Break Periods
2,17144,18782
//Storyboard Layer 0 (Background)
//Storyboard Layer 1 (Fail)
//Storyboard Layer 2 (Pass)
//Storyboard Layer 3 (Foreground)
//Storyboard Sound Samples
//Background Colour Transformations
3,100,163,162,255

[TimingPoints]
1155,394.736842105263,4,1,1,100,1,0
20039,-200,4,2,0,100,0,0
26325,-100,4,1,1,70,0,0
32444,-100,4,1,1,100,0,0
45174,-100,4,1,1,70,0,0
51588,-100,4,1,1,80,0,0
53266,-100,4,1,1,90,0,0
60470,-100,4,1,1,100,0,0

[Colours]
Combo1 : 0,0,255
Combo2 : 255,0,128
Combo3 : 128,128,255
Combo4 : 0,128,128

[HitObjects]
256,352,1155,2,0,B|256:192,1,140,0|8
255,127,1944,2,0,B|79:127,1,140,0|8
114,211,2733,1,0
112,295,3128,1,8
196,295,3523,1,0
480,96,4312,5,0
395,95,4707,1,8
310,94,5102,1,0
142,94,5891,2,12,B|141:163|209:214|311:202,2,210
57,93,7470,5,8
58,177,7865,1,0
58,261,8260,1,8
214,321,9049,1,8
214,236,9444,1,0
215,151,9839,2,0,B|142:151,2,70,8|0|8
183,73,10628,6,0,B|257:29|342:89,3,140,8|0|8|0
380,127,12207,2,0,B|384:205|352:304|214:348,1,280,8|0
158,301,13391,1,0
158,301,13589,1,0
90,194,14181,1,4
352,64,15365,5,0
256,64,15760,1,8
160,64,16154,1,0
256,64,16549,1,8
256,160,16944,1,4
256,64,20102,5,2
170,208,20891,1,0
254,209,21286,1,2
338,209,21681,1,2
256,320,23260,5,2
172,174,24049,1,0
256,174,24444,1,2
340,175,24839,1,2
337,305,26418,6,0,B|433:305|433:305|433:240,2,140
168,307,27997,2,0,B|72:307|72:307|72:242,2,140
126,143,29576,2,0,B|253:68|416:153,2,280
256,192,31944,1,0
106,267,32733,6,0,B|105:372,2,70,0|0|8
106,182,33523,1,0
190,183,33918,1,8
273,183,34312,1,0
356,183,34707,1,8
358,56,35299,2,0,B|254:56,1,70,0|8
157,241,35891,6,0,B|322:242,1,140,0|8
297,157,36681,1,0
212,158,37076,1,8
128,157,37470,2,4,B|128:90|187:33|283:38,2,210
43,155,39049,5,0
43,238,39444,1,0
43,322,39839,1,0
210,323,40628,2,0,B|364:323,1,140,0|8
434,323,41418,1,0
326,193,42207,6,4,B|169:192,3,140
126,133,43786,2,4,B|422:133,1,280
469,306,45365,6,0,B|446:184|331:156,1,210
253,156,46352,1,0
127,155,46944,2,8,B|128:8,1,140,8|8
43,17,47733,2,0,B|43:176,1,140
43,241,48523,5,0
127,242,48918,1,0
210,242,49312,1,0
210,157,49707,1,0
294,157,50102,1,0
100,90,51681,5,4
100,90,51977,1,4
100,90,52273,1,0
101,215,52865,1,8
185,215,53260,5,4
185,215,53556,1,4
185,215,53852,1,0
184,340,54444,1,8
268,340,54839,5,2
351,340,55233,1,2
435,340,55628,2,0,B|436:193,1,140,2|2
472,124,56418,2,6,B|396:64|231:55|77:81|45:143,1,420
256,192,58391,12,4,60168
128,248,61154,6,0,B|107:141|173:61|293:69,1,280,0|0
288,160,62339,1,8
384,136,62733,2,0,B|405:243|339:323|219:315,1,280
433,329,64312,6,0,B|433:208,1,80
433,212,64707,1,8
348,210,65102,2,0,B|200:210,1,140,0|8
123,211,65891,2,8,B|123:327,1,105,8|8
185,317,66483,2,10,B|427:317,1,210,14|14
394,232,67470,5,4
394,147,67865,1,8
309,148,68260,2,0,B|139:148,2,140,0|8|0
312,231,69444,1,8
312,315,69839,2,0,B|140:315,1,140,0|8
168,231,70628,5,6
168,105,71220,1,2
168,20,71615,1,2
66,91,72207,1,2
67,175,72602,1,2
68,259,72997,1,2
480,96,73786,5,0
401,126,74181,1,8
323,159,74576,2,0,B|324:256|426:270,1,140,0|8
403,180,75365,2,4,B|491:179|500:261|521:348|362:363,1,280
259,160,76944,6,4,B|184:120|94:180,2,140,4|12|4
321,216,78128,1,8
382,273,78523,2,4,B|439:196|372:114,1,140,4|12
495,9,79707,1,8
495,93,80102,6,6,B|414:54|261:29|97:56|52:80,1,420
17,121,81681,2,6,B|21:226|25:291|124:321|219:308|257:256|286:200|286:166,1,420
363,171,83260,2,0,B|513:171,2,140
362,86,84444,1,2
277,86,84839,2,0,B|278:258,1,140,0|8
336,285,85628,5,8
383,215,86023,1,0
383,215,86220,1,8
449,108,86812,1,8
256,192,87010,12,4,89576
