osu file format v12

[General]
AudioFilename: fripSide - eternal reality.mp3
AudioLeadIn: 0
PreviewTime: 51834
Countdown: 1
SampleSet: Soft
StackLeniency: 0.7
Mode: 0
LetterboxInBreaks: 1
WidescreenStoryboard: 1

[Editor]
DistanceSpacing: 0.7
BeatDivisor: 4
GridSize: 8

[Metadata]
Title:Eternal Reality
TitleUnicode:Eternal Reality
Artist:fripSide
ArtistUnicode:fripSide
Creator:4 X
Version:Insane
Source:Toaru Kagaku no Railgun S
Tags:fripSide Eternal Reality Toaru Kagaku no Railgun S Misaka Mikoto Shirai Kuroko Saten Ruiko Uiharu Kazari
BeatmapID:342161
BeatmapSetID:136764

[Difficulty]
HPDrainRate:7
CircleSize:5
OverallDifficulty:8
ApproachRate:9
SliderMultiplier:1.7
SliderTickRate:2

[Events]
//Background and Video events
0,0,"BG.jpg",0,0
//Break Periods
2,161311,188649
//Storyboard Layer 0 (Background)
//Storyboard Layer 1 (Fail)
//Storyboard Layer 2 (Pass)
//Storyboard Layer 3 (Foreground)
//Storyboard Sound Samples
//Background Colour Transformations
3,100,163,162,255

[TimingPoints]
560,413.793103448276,4,2,1,100,1,0
560,-100,4,2,1,100,0,0
51834,-80,4,2,1,100,0,1
58248,-80,4,2,1,100,0,0
58455,-80,4,2,1,100,0,1
64868,-80,4,2,1,100,0,0
65075,-80,4,2,1,100,0,1
78110,-80,4,2,1,100,0,0
78317,-80,4,2,1,100,0,1
84730,-80,4,2,1,100,0,0
84937,-80,4,2,1,100,0,1
86386,-80,4,2,1,100,0,0
86592,-100,4,2,1,100,0,1
86799,-100,4,2,1,100,0,0
114730,-80,4,2,1,100,0,1
127765,-80,4,2,1,100,0,0
127972,-80,4,2,1,100,0,1
141006,-80,4,2,1,100,0,0
141213,-80,4,2,1,100,0,1
147627,-80,4,2,1,100,0,0
147834,-100,4,2,1,100,0,1
148041,-100,4,2,1,100,0,0
177627,-100,4,2,1,100,0,1
177834,-100,4,2,1,100,0,0
184248,-100,4,2,1,100,0,1
184455,-100,4,2,1,100,0,0
190868,-80,4,2,1,100,0,1
203903,-80,4,2,1,100,0,0
204110,-80,4,2,1,100,0,1
217144,-80,4,2,1,100,0,0
217351,-80,4,2,1,100,0,1
224075,-80,4,2,1,5,0,1
228937,-80,4,2,1,5,0,0

[HitObjects]
256,192,2215,1,0,0:0:0:0:
320,256,2525,1,0,0:0:0:0:
344,264,2628,2,0,P|408:296|456:280,1,85
432,96,3249,5,0,0:0:0:0:
408,80,3353,1,0,0:0:0:0:
384,64,3456,2,0,P|344:48|288:96,1,85
248,72,3870,2,0,L|160:72,1,85
136,72,4180,1,0,0:0:0:0:
112,80,4284,2,0,P|64:112|80:168,1,85
256,328,4904,5,0,0:0:0:0:
272,304,5008,1,0,0:0:0:0:
288,280,5111,2,0,P|328:240|304:200,1,85
296,168,5525,2,0,L|224:96,1,85
216,88,5835,1,0,0:0:0:0:
184,80,5939,1,0,0:0:0:0:
128,88,6146,2,0,P|64:144|96:248,1,170
192,312,6766,5,0,0:0:0:0:
312,248,6973,1,0,0:0:0:0:
368,104,7180,1,0,0:0:0:0:
232,64,7387,1,0,0:0:0:0:
216,88,7491,1,0,0:0:0:0:
200,112,7594,1,0,0:0:0:0:
104,224,7801,1,0,0:0:0:0:
120,248,7904,1,0,0:0:0:0:
136,272,8008,1,0,0:0:0:0:
296,304,8215,2,0,L|336:272,3,42.5
368,248,8628,2,0,L|416:200,1,42.5
424,184,8835,6,0,P|448:136|432:88,1,85
392,72,9249,2,0,P|352:48|304:72,1,85
296,80,9560,1,0,0:0:0:0:
272,104,9663,1,0,0:0:0:0:
176,192,9870,5,0,0:0:0:0:
168,160,9973,1,0,0:0:0:0:
160,128,10077,2,0,P|144:80|96:56,2,85
168,152,10594,2,0,L|208:224,1,42.5
208,216,10801,2,0,L|256:264,1,42.5
264,264,11008,2,0,L|312:312,3,42.5
400,256,11525,5,0,0:0:0:0:
408,224,11628,1,0,0:0:0:0:
416,200,11732,1,0,0:0:0:0:
416,104,11939,2,0,P|384:64|328:72,1,85
232,104,12353,1,0,0:0:0:0:
200,104,12456,1,0,0:0:0:0:
168,104,12560,1,0,0:0:0:0:
96,232,12766,2,0,P|80:192|104:136,1,85
248,184,13180,1,0,0:0:0:0:
248,216,13284,1,0,0:0:0:0:
248,248,13387,1,0,0:0:0:0:
400,296,13594,6,0,L|400:232,3,42.5
400,224,14008,2,0,L|400:176,3,42.5
400,152,14422,1,0,0:0:0:0:
400,120,14525,1,0,0:0:0:0:
400,88,14628,1,0,0:0:0:0:
208,72,14835,6,0,L|160:72,2,42.5
240,80,15146,1,0,0:0:0:0:
264,96,15249,2,0,P|304:128|304:176,1,85
304,192,15560,2,0,L|304:256,3,42.5
160,288,16077,1,0,0:0:0:0:
160,256,16180,1,0,0:0:0:0:
160,224,16284,1,0,0:0:0:0:
80,112,16491,1,0,0:0:0:0:
112,104,16594,1,0,0:0:0:0:
144,96,16697,1,0,0:0:0:0:
320,72,16904,5,0,0:0:0:0:
344,88,17008,1,0,0:0:0:0:
368,104,17111,2,0,L|432:160,2,85
344,88,17628,2,0,L|280:72,3,42.5
64,80,18146,6,0,P|136:120|136:152,1,85
144,176,18560,1,0,0:0:0:0:
152,208,18663,1,0,0:0:0:0:
160,240,18766,1,0,0:0:0:0:
312,296,18973,6,0,P|352:248|352:208,1,85
336,168,19387,2,0,L|312:104,3,42.5
296,112,19801,2,0,L|240:80,3,42.5
232,88,20215,1,0,0:0:0:0:
96,216,20422,5,0,0:0:0:0:
216,296,20628,1,0,0:0:0:0:
352,200,20835,1,0,0:0:0:0:
216,72,21042,1,0,0:0:0:0:
368,80,21249,5,0,0:0:0:0:
392,104,21353,1,0,0:0:0:0:
408,128,21456,1,0,0:0:0:0:
416,160,21560,1,0,0:0:0:0:
424,192,21663,2,0,L|424:232,8,21.25
224,264,22284,5,0,0:0:0:0:
224,232,22387,1,0,0:0:0:0:
224,200,22491,1,0,0:0:0:0:
176,80,22697,2,0,L|216:56,3,42.5
256,56,23111,2,0,L|304:56,1,42.5
344,64,23318,6,0,P|416:72|448:184,1,170
392,256,23939,2,0,P|328:248|312:208,1,85
296,136,24353,2,0,P|280:96|224:72,1,85
88,80,24766,5,0,0:0:0:0:
88,112,24870,1,0,0:0:0:0:
88,144,24973,2,0,P|88:192|136:232,1,85
200,272,25387,2,0,P|240:296|280:280,1,85
336,216,25801,2,0,P|344:152|384:128,1,85
224,72,26215,2,0,P|160:144|176:240,1,170
432,72,27042,6,0,L|432:160,1,85
432,184,27353,1,0,0:0:0:0:
432,216,27456,1,0,0:0:0:0:
400,328,27663,1,0,0:0:0:0:
368,320,27766,1,0,0:0:0:0:
336,312,27870,2,0,P|288:288|280:256,1,85
272,232,28180,1,0,0:0:0:0:
272,200,28284,2,0,P|272:144|248:112,1,85
104,72,28697,6,0,P|72:112|88:160,1,85
88,280,29111,2,0,P|96:232|136:200,1,85
144,184,29422,1,0,0:0:0:0:
168,168,29525,1,0,0:0:0:0:
256,64,29732,6,0,L|304:88,3,42.5
328,104,30146,2,0,L|384:136,1,42.5
400,144,30353,6,0,P|440:176|440:224,1,85
440,240,30663,1,0,0:0:0:0:
432,272,30766,2,0,P|392:312|336:320,1,85
256,312,31180,2,0,P|224:272|224:232,1,85
224,208,31491,1,0,0:0:0:0:
224,176,31594,2,0,P|224:128|192:96,1,85
176,80,31904,1,0,0:0:0:0:
152,64,32008,2,0,P|88:56|64:96,2,85
168,88,32525,2,0,L|208:160,3,42.5
128,312,33042,5,0,0:0:0:0:
152,296,33146,1,0,0:0:0:0:
176,280,33249,2,0,P|224:256|240:208,1,85
248,128,33663,1,0,0:0:0:0:
360,72,33870,1,0,0:0:0:0:
384,96,33973,1,0,0:0:0:0:
400,120,34077,1,0,0:0:0:0:
400,264,34284,6,0,P|368:296|304:296,1,85
248,208,34697,2,0,P|248:144|216:112,1,85
112,104,35111,2,0,P|88:144|104:216,1,85
136,280,35525,1,0,0:0:0:0:
288,248,35732,1,0,0:0:0:0:
208,112,35939,1,0,0:0:0:0:
360,88,36146,6,0,L|400:136,4,42.5
432,248,36766,1,0,0:0:0:0:
416,272,36870,1,0,0:0:0:0:
392,296,36973,1,0,0:0:0:0:
256,304,37180,5,0,0:0:0:0:
240,280,37284,1,0,0:0:0:0:
224,256,37387,1,0,0:0:0:0:
104,200,37594,5,0,0:0:0:0:
104,168,37697,1,0,0:0:0:0:
104,136,37801,2,0,P|104:88|144:56,1,85
152,48,38111,1,0,0:0:0:0:
184,48,38215,1,0,0:0:0:0:
288,80,38422,1,0,0:0:0:0:
304,104,38525,1,0,0:0:0:0:
320,128,38628,1,0,0:0:0:0:
240,224,38835,2,0,L|192:208,3,42.5
168,192,39249,2,0,L|112:176,1,42.5
80,160,39456,6,0,P|48:128|56:80,1,85
72,72,39766,1,0,0:0:0:0:
104,64,39870,2,0,P|160:48|192:56,1,85
208,72,40180,1,0,0:0:0:0:
216,96,40284,2,0,P|232:144|280:152,1,85
288,168,40594,2,0,L|352:176,1,42.5
360,184,40801,2,0,L|424:200,3,42.5
424,216,41215,2,0,L|464:264,1,42.5
432,288,41422,1,0,0:0:0:0:
408,312,41525,6,0,L|320:320,1,85
296,312,41835,1,0,0:0:0:0:
264,312,41939,2,0,L|152:312,1,85
152,312,42249,1,0,0:0:0:0:
120,304,42353,2,0,P|80:280|64:232,2,85
152,312,42870,1,0,0:0:0:0:
184,304,42973,1,0,0:0:0:0:
208,280,43077,1,0,0:0:0:0:
216,248,43180,1,0,0:0:0:0:
112,64,43387,5,0,0:0:0:0:
144,56,43491,1,0,0:0:0:0:
176,48,43594,2,0,P|224:32|280:64,1,85
288,48,43904,1,0,0:0:0:0:
312,56,44008,2,0,P|360:80|376:128,1,85
344,224,44422,2,0,L|304:184,4,42.5
120,128,45042,5,0,0:0:0:0:
112,160,45146,1,0,0:0:0:0:
104,192,45249,1,0,0:0:0:0:
208,296,45456,1,0,0:0:0:0:
240,288,45560,1,0,0:0:0:0:
272,280,45663,1,0,0:0:0:0:
408,280,45870,2,0,L|424:240,2,42.5
376,272,46180,2,0,L|328:248,3,42.5
256,112,46697,6,0,P|240:72|192:48,1,85
80,112,47111,1,0,0:0:0:0:
80,144,47215,1,0,0:0:0:0:
80,176,47318,2,0,P|96:240|136:256,1,85
240,296,47732,1,0,0:0:0:0:
336,208,47939,1,0,0:0:0:0:
344,176,48042,1,0,0:0:0:0:
352,144,48146,1,0,0:0:0:0:
232,72,48353,5,0,0:0:0:0:
200,64,48456,1,0,0:0:0:0:
168,56,48560,2,0,P|112:56|80:96,1,85
88,200,48973,2,0,P|96:256|144:296,2,85
120,160,49491,2,0,L|168:120,1,42.5
176,120,49697,2,0,L|232:112,3,42.5
320,72,50215,6,0,L|368:96,1,42.5
376,136,50422,2,0,L|392:216,1,42.5
384,224,50628,2,0,L|384:296,1,42.5
344,280,50835,2,0,L|272:320,3,42.5
272,312,51249,2,0,L|216:328,1,42.5
184,304,51456,2,0,L|104:304,3,42.5
120,304,51870,6,0,P|72:264|64:208,1,106.25
64,184,52180,1,0,0:0:0:0:
64,144,52284,1,0,0:0:0:0:
176,64,52491,2,0,L|232:96,3,53.125
264,96,52904,2,0,L|320:128,1,53.125
352,136,53111,6,0,P|408:152|424:216,1,106.25
344,288,53525,1,0,0:0:0:0:
192,272,53835,5,0,0:0:0:0:
168,248,53939,1,0,0:0:0:0:
152,112,54146,2,0,L|200:80,3,53.125
232,72,54560,2,0,L|288:72,1,53.125
320,72,54766,6,0,P|376:80|416:144,1,106.25
400,232,55180,2,0,P|368:184|312:168,1,106.25
288,160,55491,1,0,0:0:0:0:
248,168,55594,1,0,0:0:0:0:
216,184,55697,1,0,0:0:0:0:
192,208,55801,1,0,0:0:0:0:
96,288,56008,6,0,P|64:240|80:176,1,106.25
80,160,56318,1,0,0:0:0:0:
96,128,56422,2,0,P|112:64|168:40,1,106.25
184,40,56732,1,0,0:0:0:0:
224,40,56835,1,0,0:0:0:0:
368,48,57042,5,0,0:0:0:0:
392,80,57146,1,0,0:0:0:0:
408,112,57249,1,0,0:0:0:0:
400,248,57456,1,0,0:0:0:0:
384,280,57560,1,0,0:0:0:0:
360,304,57663,1,0,0:0:0:0:
176,272,57870,2,0,L|144:216,3,53.125
144,192,58284,2,0,L|144:128,1,53.125
152,104,58491,1,0,0:0:0:0:
360,72,58801,5,0,0:0:0:0:
376,104,58904,1,0,0:0:0:0:
368,248,59111,2,0,L|304:272,3,53.125
272,272,59525,2,0,L|208:280,1,53.125
176,280,59732,2,0,P|120:264|96:200,1,106.25
96,120,60146,2,0,P|96:64|152:40,1,106.25
168,40,60456,1,0,0:0:0:0:
208,48,60560,1,0,0:0:0:0:
400,88,60766,6,0,L|400:152,3,53.125
400,192,61180,2,0,L|400:256,1,53.125
400,280,61387,1,0,0:0:0:0:
272,296,61594,1,0,0:0:0:0:
240,280,61697,1,0,0:0:0:0:
208,264,61801,1,0,0:0:0:0:
104,224,62111,6,0,L|72:176,1,53.125
152,104,62422,2,0,L|208:152,3,53.125
224,176,62835,2,0,P|256:232|320:240,1,106.25
384,144,63249,2,0,P|432:176|448:248,1,106.25
296,256,63663,1,0,0:0:0:0:
136,288,63870,6,0,L|104:224,1,53.125
104,200,64077,2,0,L|104:136,3,53.125
120,112,64491,2,0,L|144:80,12,26.5625
384,160,65422,5,0,0:0:0:0:
352,176,65525,2,0,P|304:208|296:272,1,106.25
264,280,65835,2,0,L|200:304,1,53.125
176,304,66042,2,0,L|104:304,3,53.125
96,144,66560,6,0,L|136:96,2,53.125
88,176,66870,1,0,0:0:0:0:
88,216,66973,1,0,0:0:0:0:
104,248,67077,1,0,0:0:0:0:
136,264,67180,1,0,0:0:0:0:
320,128,67387,6,0,L|280:80,2,53.125
336,160,67697,1,0,0:0:0:0:
352,192,67801,1,0,0:0:0:0:
336,224,67904,1,0,0:0:0:0:
320,256,68008,2,0,P|280:304|216:312,1,106.25
200,312,68318,1,0,0:0:0:0:
160,304,68422,1,0,0:0:0:0:
144,80,68732,5,0,0:0:0:0:
176,96,68835,1,0,0:0:0:0:
320,96,69042,2,0,L|368:144,1,53.125
368,168,69249,2,0,L|368:240,1,53.125
360,256,69456,2,0,L|320:304,1,53.125
288,304,69663,2,0,L|216:304,1,53.125
200,304,69870,1,0,0:0:0:0:
112,128,70077,1,0,0:0:0:0:
264,88,70284,5,0,0:0:0:0:
296,104,70387,1,0,0:0:0:0:
328,120,70491,1,0,0:0:0:0:
312,272,70697,2,0,L|264:304,4,53.125
344,248,71215,1,0,0:0:0:0:
376,224,71318,2,0,P|432:184|432:136,1,106.25
424,120,71628,1,0,0:0:0:0:
392,96,71732,6,0,P|320:64|272:104,1,106.25
272,96,72042,1,0,0:0:0:0:
248,120,72146,2,0,P|208:160|144:152,1,106.25
120,168,72456,1,0,0:0:0:0:
88,192,72560,2,0,P|48:240|72:304,1,106.25
72,312,72870,1,0,0:0:0:0:
104,328,72973,1,0,0:0:0:0:
344,304,73180,5,0,0:0:0:0:
360,272,73284,1,0,0:0:0:0:
376,240,73387,1,0,0:0:0:0:
304,104,73594,2,0,L|336:56,2,53.125
272,128,73904,1,0,0:0:0:0:
248,152,74008,1,0,0:0:0:0:
224,176,74111,1,0,0:0:0:0:
200,200,74215,1,0,0:0:0:0:
88,128,74422,5,0,0:0:0:0:
88,168,74525,1,0,0:0:0:0:
88,208,74628,1,0,0:0:0:0:
192,280,74835,2,0,P|248:296|312:256,1,106.25
392,208,75249,1,0,0:0:0:0:
392,168,75353,1,0,0:0:0:0:
392,128,75456,1,0,0:0:0:0:
296,80,75663,2,0,P|248:56|192:80,1,106.25
168,208,76077,5,0,0:0:0:0:
184,240,76180,1,0,0:0:0:0:
192,272,76284,1,0,0:0:0:0:
344,280,76491,2,0,L|288:320,2,53.125
352,96,76904,2,0,L|296:80,1,53.125
264,80,77111,2,0,L|200:80,1,53.125
168,88,77318,2,0,L|120:128,3,53.125
104,160,77732,2,0,L|80:224,3,53.125
104,256,78146,2,0,L|144:312,1,53.125
176,328,78353,6,0,P|240:336|272:296,1,106.25
344,248,78766,2,0,P|344:184|376:136,1,106.25
392,120,79077,1,0,0:0:0:0:
424,96,79180,1,0,0:0:0:0:
224,96,79387,1,0,0:0:0:0:
192,112,79491,1,0,0:0:0:0:
160,128,79594,1,0,0:0:0:0:
96,256,79801,6,0,L|48:224,2,53.125
136,280,80111,2,0,L|208:304,1,53.125
224,304,80318,2,0,L|288:312,1,53.125
320,312,80525,2,0,L|384:304,3,53.125
416,152,81042,5,0,0:0:0:0:
392,128,81146,1,0,0:0:0:0:
360,112,81249,1,0,0:0:0:0:
208,88,81456,1,0,0:0:0:0:
176,112,81560,1,0,0:0:0:0:
144,128,81663,1,0,0:0:0:0:
88,256,81870,2,0,P|120:304|192:320,1,106.25
288,312,82284,6,0,L|336:272,1,53.125
352,256,82491,2,0,P|384:200|392:192,3,53.125
368,152,82904,2,0,L|336:104|336:104,1,53.125
312,72,83111,2,0,P|256:56|176:80,1,106.25
176,72,83422,1,0,0:0:0:0:
144,88,83525,2,0,P|88:128|72:192,1,106.25
168,312,83939,5,0,0:0:0:0:
384,256,84146,6,0,L|408:200,3,53.125
400,168,84560,2,0,L|392:136,8,26.5625
288,264,85180,5,0,0:0:0:0:
288,232,85284,1,0,0:0:0:0:
288,200,85387,1,0,0:0:0:0:
376,80,85491,2,0,L|320:48,3,53.125
296,56,85904,1,0,0:0:0:0:
256,56,86008,2,0,L|200:56,1,53.125
168,64,86215,6,0,P|96:72|64:208,1,212.5
120,256,86835,2,0,P|184:248|200:208,1,85
216,136,87249,2,0,P|232:96|288:72,1,85
424,80,87663,5,0,0:0:0:0:
424,112,87766,1,0,0:0:0:0:
424,144,87870,2,0,P|424:192|376:232,1,85
312,272,88284,2,0,P|272:296|232:280,1,85
176,216,88697,2,0,P|168:152|128:128,1,85
288,72,89111,2,0,P|352:144|336:240,1,170
80,72,89939,6,0,L|80:160,1,85
80,184,90249,1,0,0:0:0:0:
80,216,90353,1,0,0:0:0:0:
112,328,90560,1,0,0:0:0:0:
144,320,90663,1,0,0:0:0:0:
176,312,90766,2,0,P|224:288|232:256,1,85
240,232,91077,1,0,0:0:0:0:
240,200,91180,2,0,P|240:144|264:112,1,85
408,72,91594,6,0,P|440:112|424:160,1,85
424,280,92008,2,0,P|416:232|376:200,1,85
368,184,92318,1,0,0:0:0:0:
344,168,92422,1,0,0:0:0:0:
256,64,92628,6,0,L|208:88,3,42.5
184,104,93042,2,0,L|128:136,1,42.5
112,144,93249,6,0,P|72:176|72:224,1,85
72,240,93560,1,0,0:0:0:0:
80,272,93663,2,0,P|120:312|176:320,1,85
256,312,94077,2,0,P|288:272|288:232,1,85
288,208,94387,1,0,0:0:0:0:
288,176,94491,2,0,P|288:128|320:96,1,85
336,80,94801,1,0,0:0:0:0:
360,64,94904,2,0,P|424:56|448:96,2,85
344,88,95422,2,0,L|304:160,3,42.5
384,312,95939,5,0,0:0:0:0:
360,296,96042,1,0,0:0:0:0:
336,280,96146,2,0,P|288:256|272:208,1,85
264,128,96560,1,0,0:0:0:0:
152,72,96766,1,0,0:0:0:0:
128,96,96870,1,0,0:0:0:0:
112,120,96973,1,0,0:0:0:0:
112,264,97180,6,0,P|144:296|208:296,1,85
264,208,97594,2,0,P|264:144|296:112,1,85
400,104,98008,2,0,P|424:144|408:216,1,85
376,280,98422,1,0,0:0:0:0:
224,248,98628,1,0,0:0:0:0:
304,112,98835,1,0,0:0:0:0:
152,88,99042,6,0,L|112:136,4,42.5
80,248,99663,1,0,0:0:0:0:
96,272,99766,1,0,0:0:0:0:
120,296,99870,1,0,0:0:0:0:
256,304,100077,5,0,0:0:0:0:
272,280,100180,1,0,0:0:0:0:
288,256,100284,1,0,0:0:0:0:
408,200,100491,5,0,0:0:0:0:
408,168,100594,1,0,0:0:0:0:
408,136,100697,2,0,P|408:88|368:56,1,85
360,48,101008,1,0,0:0:0:0:
328,48,101111,1,0,0:0:0:0:
224,80,101318,1,0,0:0:0:0:
208,104,101422,1,0,0:0:0:0:
192,128,101525,1,0,0:0:0:0:
272,224,101732,2,0,L|320:208,3,42.5
344,192,102146,2,0,L|400:176,1,42.5
432,160,102353,6,0,P|464:128|456:80,1,85
440,72,102663,1,0,0:0:0:0:
408,64,102766,2,0,P|352:48|320:56,1,85
304,72,103077,1,0,0:0:0:0:
296,96,103180,2,0,P|280:144|232:152,1,85
224,168,103491,2,0,L|160:176,1,42.5
152,184,103697,2,0,L|88:200,3,42.5
88,216,104111,2,0,L|48:264,1,42.5
80,288,104318,1,0,0:0:0:0:
104,312,104422,6,0,L|192:320,1,85
216,312,104732,1,0,0:0:0:0:
248,312,104835,2,0,L|360:312,1,85
360,312,105146,1,0,0:0:0:0:
392,304,105249,2,0,P|432:280|448:232,2,85
360,312,105766,1,0,0:0:0:0:
328,304,105870,1,0,0:0:0:0:
304,280,105973,1,0,0:0:0:0:
296,248,106077,1,0,0:0:0:0:
400,64,106284,5,0,0:0:0:0:
368,56,106387,1,0,0:0:0:0:
336,48,106491,2,0,P|288:32|232:64,1,85
224,48,106801,1,0,0:0:0:0:
200,56,106904,2,0,P|152:80|136:128,1,85
168,224,107318,2,0,L|208:184,4,42.5
392,128,107939,5,0,0:0:0:0:
400,160,108042,1,0,0:0:0:0:
408,192,108146,1,0,0:0:0:0:
304,296,108353,1,0,0:0:0:0:
272,288,108456,1,0,0:0:0:0:
240,280,108560,1,0,0:0:0:0:
104,280,108766,2,0,L|88:240,2,42.5
136,272,109077,2,0,L|184:248,3,42.5
256,112,109594,6,0,P|272:72|320:48,1,85
432,112,110008,1,0,0:0:0:0:
432,144,110111,1,0,0:0:0:0:
432,176,110215,2,0,P|416:240|376:256,1,85
272,296,110628,1,0,0:0:0:0:
176,208,110835,1,0,0:0:0:0:
168,176,110939,1,0,0:0:0:0:
160,144,111042,1,0,0:0:0:0:
280,72,111249,5,0,0:0:0:0:
312,64,111353,1,0,0:0:0:0:
344,56,111456,2,0,P|400:56|432:96,1,85
424,200,111870,2,0,P|416:256|368:296,2,85
392,160,112387,2,0,L|344:120,1,42.5
336,120,112594,2,0,L|280:112,3,42.5
192,72,113111,6,0,L|144:96,1,42.5
136,136,113318,2,0,L|120:216,1,42.5
128,224,113525,2,0,L|128:296,1,42.5
168,280,113732,2,0,L|240:320,3,42.5
240,312,114146,2,0,L|296:328,1,42.5
328,304,114353,2,0,L|408:304,3,42.5
392,304,114766,6,0,P|440:264|448:208,1,106.25
448,184,115077,1,0,0:0:0:0:
448,144,115180,1,0,0:0:0:0:
336,64,115387,2,0,L|280:96,3,53.125
248,96,115801,2,0,L|192:128,1,53.125
160,136,116008,6,0,P|104:152|88:216,1,106.25
168,288,116422,1,0,0:0:0:0:
320,272,116732,5,0,0:0:0:0:
344,248,116835,1,0,0:0:0:0:
360,112,117042,2,0,L|312:80,3,53.125
280,72,117456,2,0,L|224:72,1,53.125
192,72,117663,6,0,P|136:80|96:144,1,106.25
112,232,118077,2,0,P|144:184|200:168,1,106.25
224,160,118387,1,0,0:0:0:0:
264,168,118491,1,0,0:0:0:0:
296,184,118594,1,0,0:0:0:0:
320,208,118697,1,0,0:0:0:0:
416,288,118904,6,0,P|448:240|432:176,1,106.25
432,160,119215,1,0,0:0:0:0:
416,128,119318,2,0,P|400:64|344:40,1,106.25
328,40,119628,1,0,0:0:0:0:
288,40,119732,1,0,0:0:0:0:
144,48,119939,5,0,0:0:0:0:
120,80,120042,1,0,0:0:0:0:
104,112,120146,1,0,0:0:0:0:
112,248,120353,1,0,0:0:0:0:
128,280,120456,1,0,0:0:0:0:
152,304,120560,1,0,0:0:0:0:
336,272,120766,2,0,L|368:216,3,53.125
368,192,121180,2,0,L|368:128,1,53.125
360,104,121387,1,0,0:0:0:0:
152,72,121697,5,0,0:0:0:0:
136,104,121801,1,0,0:0:0:0:
144,248,122008,2,0,L|208:272,3,53.125
240,272,122422,2,0,L|304:280,1,53.125
336,280,122628,2,0,P|392:264|416:200,1,106.25
416,120,123042,2,0,P|416:64|360:40,1,106.25
344,40,123353,1,0,0:0:0:0:
304,48,123456,1,0,0:0:0:0:
112,88,123663,6,0,L|112:152,3,53.125
112,192,124077,2,0,L|112:256,1,53.125
112,280,124284,1,0,0:0:0:0:
240,296,124491,1,0,0:0:0:0:
272,280,124594,1,0,0:0:0:0:
304,264,124697,1,0,0:0:0:0:
408,224,125008,6,0,L|440:176,1,53.125
360,104,125318,2,0,L|304:152,3,53.125
288,176,125732,2,0,P|256:232|192:240,1,106.25
128,144,126146,2,0,P|80:176|64:248,1,106.25
216,256,126560,1,0,0:0:0:0:
376,288,126766,6,0,L|408:224,1,53.125
408,200,126973,2,0,L|408:136,3,53.125
392,112,127387,2,0,L|368:80,12,26.5625
128,160,128318,5,0,0:0:0:0:
160,176,128422,2,0,P|208:208|216:272,1,106.25
248,280,128732,2,0,L|312:304,1,53.125
336,304,128939,2,0,L|408:304,3,53.125
416,144,129456,6,0,L|376:96,2,53.125
424,176,129766,1,0,0:0:0:0:
424,216,129870,1,0,0:0:0:0:
408,248,129973,1,0,0:0:0:0:
376,264,130077,1,0,0:0:0:0:
192,128,130284,6,0,L|232:80,2,53.125
176,160,130594,1,0,0:0:0:0:
160,192,130697,1,0,0:0:0:0:
176,224,130801,1,0,0:0:0:0:
192,256,130904,2,0,P|232:304|296:312,1,106.25
312,312,131215,1,0,0:0:0:0:
352,304,131318,1,0,0:0:0:0:
368,80,131628,5,0,0:0:0:0:
336,96,131732,1,0,0:0:0:0:
192,96,131939,2,0,L|144:144,1,53.125
144,168,132146,2,0,L|144:240,1,53.125
152,256,132353,2,0,L|192:304,1,53.125
224,304,132560,2,0,L|296:304,1,53.125
312,304,132766,1,0,0:0:0:0:
400,128,132973,1,0,0:0:0:0:
248,88,133180,5,0,0:0:0:0:
216,104,133284,1,0,0:0:0:0:
184,120,133387,1,0,0:0:0:0:
200,272,133594,2,0,L|248:304,4,53.125
168,248,134111,1,0,0:0:0:0:
136,224,134215,2,0,P|80:184|80:136,1,106.25
88,120,134525,1,0,0:0:0:0:
120,96,134628,6,0,P|192:64|240:104,1,106.25
240,96,134939,1,0,0:0:0:0:
264,120,135042,2,0,P|304:160|368:152,1,106.25
392,168,135353,1,0,0:0:0:0:
424,192,135456,2,0,P|464:240|440:304,1,106.25
440,312,135766,1,0,0:0:0:0:
408,328,135870,1,0,0:0:0:0:
168,304,136077,5,0,0:0:0:0:
152,272,136180,1,0,0:0:0:0:
136,240,136284,1,0,0:0:0:0:
208,104,136491,2,0,L|176:56,2,53.125
240,128,136801,1,0,0:0:0:0:
264,152,136904,1,0,0:0:0:0:
288,176,137008,1,0,0:0:0:0:
312,200,137111,1,0,0:0:0:0:
424,128,137318,5,0,0:0:0:0:
424,168,137422,1,0,0:0:0:0:
424,208,137525,1,0,0:0:0:0:
320,280,137732,2,0,P|264:296|200:256,1,106.25
120,208,138146,1,0,0:0:0:0:
120,168,138249,1,0,0:0:0:0:
120,128,138353,1,0,0:0:0:0:
216,80,138560,2,0,P|264:56|320:80,1,106.25
344,208,138973,5,0,0:0:0:0:
328,240,139077,1,0,0:0:0:0:
320,272,139180,1,0,0:0:0:0:
168,280,139387,2,0,L|224:320,2,53.125
160,96,139801,2,0,L|216:80,1,53.125
248,80,140008,2,0,L|312:80,1,53.125
344,88,140215,2,0,L|392:128,3,53.125
408,160,140628,2,0,L|432:224,3,53.125
408,256,141042,2,0,L|368:312,1,53.125
336,328,141249,6,0,P|272:336|240:296,1,106.25
168,248,141663,2,0,P|168:184|136:136,1,106.25
120,120,141973,1,0,0:0:0:0:
88,96,142077,1,0,0:0:0:0:
288,96,142284,1,0,0:0:0:0:
320,112,142387,1,0,0:0:0:0:
352,128,142491,1,0,0:0:0:0:
416,256,142697,6,0,L|464:224,2,53.125
376,280,143008,2,0,L|304:304,1,53.125
288,304,143215,2,0,L|224:312,1,53.125
192,312,143422,2,0,L|128:304,3,53.125
96,152,143939,5,0,0:0:0:0:
120,128,144042,1,0,0:0:0:0:
152,112,144146,1,0,0:0:0:0:
304,88,144353,1,0,0:0:0:0:
336,112,144456,1,0,0:0:0:0:
368,128,144560,1,0,0:0:0:0:
424,256,144766,2,0,P|392:304|320:320,1,106.25
224,312,145180,6,0,L|176:272,1,53.125
160,256,145387,2,0,P|128:200|120:192,3,53.125
144,152,145801,2,0,L|176:104|176:104,1,53.125
200,72,146008,2,0,P|256:56|336:80,1,106.25
336,72,146318,1,0,0:0:0:0:
368,88,146422,2,0,P|424:128|440:192,1,106.25
344,312,146835,5,0,0:0:0:0:
128,256,147042,6,0,L|104:200,3,53.125
112,168,147456,2,0,L|120:136,8,26.5625
352,64,148077,6,0,P|392:96|392:160,1,85
384,240,148491,2,0,P|368:304|328:320,1,85
208,288,148904,2,0,P|240:248|248:200,1,85
240,64,149318,2,0,P|200:88|184:160,1,85
88,296,149732,2,0,P|72:240|104:192,1,85
152,64,150146,2,0,P|128:112|152:168,1,85
232,224,150560,2,0,P|264:272|320:288,1,85
400,208,150973,1,0,0:0:0:0:
320,80,151180,1,0,0:0:0:0:
200,72,151387,6,0,P|144:96|120:144,1,85
112,304,151801,2,0,P|152:256|200:240,1,85
336,296,152215,2,0,P|384:280|416:216,1,85
384,104,152628,2,0,P|336:72|280:72,1,85
136,88,153042,2,0,P|96:112|80:168,1,85
160,288,153456,2,0,P|184:240|240:200,1,85
360,232,153870,2,0,P|408:184|416:136,1,85
256,48,154284,1,0,0:0:0:0:
128,176,154491,1,0,0:0:0:0:
248,312,154697,6,0,P|272:264|256:208,1,85
120,128,155111,2,0,P|152:88|208:80,1,85
352,56,155525,2,0,P|408:72|424:112,1,85
408,264,155939,2,0,P|352:264|328:224,1,85
184,288,156353,2,0,P|128:280|120:232,1,85
112,80,156766,2,0,P|160:56|224:72,1,85
408,64,157180,2,0,P|352:64|312:96,1,85
224,176,157594,1,0,0:0:0:0:
336,312,157801,1,0,0:0:0:0:
400,168,158008,6,0,P|384:104|352:80,1,85
200,56,158422,2,0,P|160:72|136:128,1,85
80,256,158835,2,0,P|120:304|168:320,1,85
304,304,159249,5,0,0:0:0:0:
320,280,159353,1,0,0:0:0:0:
336,256,159456,1,0,0:0:0:0:
408,152,159663,2,0,P|424:96|392:64,1,85
320,56,160077,6,0,L|296:96,1,42.5
256,88,160284,2,0,L|232:128,1,42.5
184,128,160491,2,0,L|152:168,1,42.5
112,160,160697,2,0,L|80:200,1,42.5
88,224,160904,1,0,0:0:0:0:
96,256,161008,1,0,0:0:0:0:
120,288,161111,1,0,0:0:0:0:
256,192,189249,12,0,190697,0:0:0:0:
392,80,190904,6,0,P|440:120|448:176,1,106.25
448,200,191215,1,0,0:0:0:0:
448,240,191318,1,0,0:0:0:0:
320,328,191525,2,0,L|264:304,1,53.125
232,288,191732,2,0,L|184:256,3,53.125
160,248,192146,6,0,P|104:232|88:168,1,106.25
168,96,192560,1,0,0:0:0:0:
320,112,192870,5,0,0:0:0:0:
344,136,192973,1,0,0:0:0:0:
376,272,193180,2,0,L|320:296,1,53.125
288,304,193387,2,0,L|232:304,3,53.125
192,312,193801,6,0,P|136:304|96:240,1,106.25
112,152,194215,2,0,P|144:200|200:216,1,106.25
240,208,194525,2,0,L|296:184,3,53.125
416,96,195042,6,0,P|448:144|432:208,1,106.25
432,224,195353,1,0,0:0:0:0:
416,256,195456,2,0,P|400:320|344:344,1,106.25
328,344,195766,1,0,0:0:0:0:
288,344,195870,1,0,0:0:0:0:
144,336,196077,5,0,0:0:0:0:
120,304,196180,1,0,0:0:0:0:
104,272,196284,1,0,0:0:0:0:
112,136,196491,1,0,0:0:0:0:
128,104,196594,1,0,0:0:0:0:
152,80,196697,1,0,0:0:0:0:
360,96,196904,2,0,L|384:144,3,53.125
384,184,197318,2,0,L|384:240,1,53.125
368,272,197525,1,0,0:0:0:0:
152,312,197835,5,0,0:0:0:0:
136,280,197939,1,0,0:0:0:0:
184,112,198146,2,0,L|232:88,1,53.125
256,96,198353,2,0,L|320:104,3,53.125
336,104,198766,2,0,P|392:120|416:184,1,106.25
416,264,199180,2,0,P|416:320|360:344,1,106.25
344,344,199491,1,0,0:0:0:0:
304,336,199594,1,0,0:0:0:0:
128,296,199801,6,0,L|128:240,3,53.125
128,192,200215,2,0,L|128:128,1,53.125
128,104,200422,1,0,0:0:0:0:
240,88,200628,1,0,0:0:0:0:
272,104,200732,1,0,0:0:0:0:
304,120,200835,1,0,0:0:0:0:
408,160,201146,6,0,L|440:208,1,53.125
360,288,201456,2,0,L|312:240,3,53.125
280,216,201870,2,0,P|248:160|184:152,1,106.25
144,112,202284,2,0,P|176:56|240:48,1,106.25
256,48,202594,6,0,L|328:72,1,53.125
336,80,202801,2,0,L|384:120,1,53.125
400,144,203008,2,0,L|424:208,3,53.125
424,240,203422,1,0,0:0:0:0:
400,288,203525,2,0,L|368:304,12,26.5625
64,224,204456,5,0,0:0:0:0:
96,208,204560,2,0,P|144:176|152:112,1,106.25
184,104,204870,2,0,L|240:64,1,53.125
280,88,205077,2,0,L|328:128,3,53.125
416,240,205594,6,0,L|376:288,2,53.125
424,208,205904,1,0,0:0:0:0:
424,168,206008,1,0,0:0:0:0:
408,136,206111,1,0,0:0:0:0:
376,120,206215,1,0,0:0:0:0:
192,256,206422,6,0,L|232:304,2,53.125
176,224,206732,1,0,0:0:0:0:
160,192,206835,1,0,0:0:0:0:
176,160,206939,1,0,0:0:0:0:
192,128,207042,2,0,P|232:80|296:72,1,106.25
312,72,207353,1,0,0:0:0:0:
352,80,207456,1,0,0:0:0:0:
368,304,207766,5,0,0:0:0:0:
336,288,207870,1,0,0:0:0:0:
192,288,208077,2,0,L|144:240,1,53.125
144,216,208284,2,0,L|144:144,1,53.125
152,128,208491,2,0,L|192:80,1,53.125
224,80,208697,2,0,L|296:80,1,53.125
312,80,208904,1,0,0:0:0:0:
400,256,209111,1,0,0:0:0:0:
248,296,209318,5,0,0:0:0:0:
216,280,209422,1,0,0:0:0:0:
184,264,209525,1,0,0:0:0:0:
200,112,209732,2,0,L|248:80,4,53.125
168,136,210249,1,0,0:0:0:0:
136,160,210353,2,0,P|80:200|80:248,1,106.25
88,264,210663,1,0,0:0:0:0:
120,288,210766,6,0,P|192:320|240:280,1,106.25
240,288,211077,1,0,0:0:0:0:
264,264,211180,2,0,P|304:224|368:232,1,106.25
392,216,211491,1,0,0:0:0:0:
424,192,211594,2,0,P|464:144|440:80,1,106.25
440,72,211904,1,0,0:0:0:0:
408,56,212008,1,0,0:0:0:0:
168,80,212215,5,0,0:0:0:0:
152,112,212318,1,0,0:0:0:0:
136,144,212422,1,0,0:0:0:0:
208,280,212628,2,0,L|176:328,2,53.125
240,256,212939,1,0,0:0:0:0:
264,232,213042,1,0,0:0:0:0:
288,208,213146,1,0,0:0:0:0:
312,184,213249,1,0,0:0:0:0:
424,256,213456,5,0,0:0:0:0:
424,216,213560,1,0,0:0:0:0:
424,176,213663,1,0,0:0:0:0:
320,104,213870,2,0,P|264:88|200:128,1,106.25
120,176,214284,1,0,0:0:0:0:
120,216,214387,1,0,0:0:0:0:
120,256,214491,1,0,0:0:0:0:
224,320,214697,1,0,0:0:0:0:
264,320,214801,1,0,0:0:0:0:
304,320,214904,1,0,0:0:0:0:
344,280,215008,6,0,L|368:224,3,53.125
376,200,215422,2,0,L|400:144,1,53.125
384,120,215628,2,0,L|336:72,1,53.125
296,64,215835,2,0,L|240:56,3,53.125
192,56,216249,2,0,L|128:72,1,53.125
104,88,216456,2,0,L|72:144,1,53.125
88,192,216663,2,0,L|136:232,3,53.125
160,264,217077,2,0,P|208:296|216:296,1,53.125
360,208,217387,6,0,P|296:200|264:240,1,106.25
168,136,217801,2,0,P|168:200|136:248,1,106.25
120,264,218111,1,0,0:0:0:0:
88,288,218215,1,0,0:0:0:0:
288,288,218422,1,0,0:0:0:0:
320,272,218525,1,0,0:0:0:0:
352,256,218628,1,0,0:0:0:0:
416,128,218835,6,0,L|464:160,2,53.125
384,112,219146,2,0,L|320:88,1,53.125
296,80,219353,2,0,L|224:72,3,53.125
208,88,219766,2,0,L|144:112,1,53.125
96,232,220077,5,0,0:0:0:0:
120,256,220180,1,0,0:0:0:0:
152,272,220284,1,0,0:0:0:0:
304,296,220491,1,0,0:0:0:0:
336,272,220594,1,0,0:0:0:0:
368,256,220697,1,0,0:0:0:0:
424,128,220904,2,0,P|392:80|320:64,1,106.25
176,80,221318,6,0,L|144:128,3,53.125
120,168,221732,2,0,L|96:224,1,53.125
112,248,221939,2,0,L|160:296,1,53.125
208,304,222146,2,0,L|256:280,3,53.125
288,240,222560,2,0,L|304:184,1,53.125
296,152,222766,2,0,L|272:96,1,53.125
248,72,222973,2,0,L|168:80,1,53.125
152,112,223180,6,0,L|144:144,16,26.5625
256,192,224111,12,0,228973,0:0:0:0:
