osu file format v12

[General]
AudioFilename: fripSide - eternal reality.mp3
AudioLeadIn: 0
PreviewTime: 51834
Countdown: 1
SampleSet: Soft
StackLeniency: 0.7
Mode: 0
LetterboxInBreaks: 1
WidescreenStoryboard: 1

[Editor]
DistanceSpacing: 0.7
BeatDivisor: 4
GridSize: 8

[Metadata]
Title:Eternal Reality
TitleUnicode:Eternal Reality
Artist:fripSide
ArtistUnicode:fripSide
Creator:4 X
Version:Hard
Source:Toaru Kagaku no Railgun S
Tags:fripSide Eternal Reality Toaru Kagaku no Railgun S Misaka Mikoto Shirai Kuroko Saten Ruiko Uiharu Kazari
BeatmapID:342162
BeatmapSetID:136764

[Difficulty]
HPDrainRate:6
CircleSize:4
OverallDifficulty:6
ApproachRate:8
SliderMultiplier:1.6
SliderTickRate:2

[Events]
//Background and Video events
0,0,"BG.jpg",0,0
//Break Periods
2,86828,90637
2,148070,176913
2,180138,183534
//Storyboard Layer 0 (Background)
//Storyboard Layer 1 (Fail)
//Storyboard Layer 2 (Pass)
//Storyboard Layer 3 (Foreground)
//Storyboard Sound Samples
//Background Colour Transformations
3,100,163,162,255

[TimingPoints]
560,413.793103448276,4,2,1,100,1,0
560,-100,4,2,1,100,0,0
51834,-80,4,2,1,100,0,1
58248,-80,4,2,1,100,0,0
58455,-80,4,2,1,100,0,1
64868,-80,4,2,1,100,0,0
65075,-80,4,2,1,100,0,1
78110,-80,4,2,1,100,0,0
78317,-80,4,2,1,100,0,1
84730,-80,4,2,1,100,0,0
84937,-80,4,2,1,100,0,1
86386,-80,4,2,1,100,0,0
86592,-100,4,2,1,100,0,1
86799,-100,4,2,1,100,0,0
114730,-80,4,2,1,100,0,1
127765,-80,4,2,1,100,0,0
127972,-80,4,2,1,100,0,1
141006,-80,4,2,1,100,0,0
141213,-80,4,2,1,100,0,1
147627,-80,4,2,1,100,0,0
147834,-100,4,2,1,100,0,1
148041,-100,4,2,1,100,0,0
177627,-100,4,2,1,100,0,1
177834,-100,4,2,1,100,0,0
184248,-100,4,2,1,100,0,1
184455,-100,4,2,1,100,0,0
190868,-80,4,2,1,100,0,1
203903,-80,4,2,1,100,0,0
204110,-80,4,2,1,100,0,1
217144,-80,4,2,1,100,0,0
217351,-80,4,2,1,100,0,1
224075,-80,4,2,1,5,0,1
228937,-80,4,2,1,5,0,0

[HitObjects]
256,192,2215,1,0,0:0:0:0:
368,280,3249,6,0,P|392:232|368:176,1,80
360,112,3663,1,0,0:0:0:0:
272,64,3870,1,0,0:0:0:0:
120,280,4904,6,0,P|96:248|104:184,1,80
128,112,5318,1,0,0:0:0:0:
216,48,5525,1,0,0:0:0:0:
256,288,6560,6,0,P|296:272|328:208,1,80
392,184,6973,2,0,P|416:152|408:96,1,80
232,48,7387,5,0,0:0:0:0:
208,64,7491,1,0,0:0:0:0:
184,80,7594,1,0,0:0:0:0:
112,152,7801,2,0,P|88:200|112:248,1,80
160,280,8215,2,0,L|216:280,6,40
176,192,9042,6,0,P|192:144|232:128,1,80
288,88,9456,1,0,0:0:0:0:
312,80,9560,1,0,0:0:0:0:
336,72,9663,1,0,0:0:0:0:
416,128,9870,2,0,P|448:160|448:216,1,80
416,272,10284,1,0,0:0:0:0:
392,280,10387,1,0,0:0:0:0:
368,296,10491,1,0,0:0:0:0:
240,272,10697,6,0,P|192:280|160:256,1,80
120,192,11111,1,0,0:0:0:0:
104,168,11215,1,0,0:0:0:0:
88,144,11318,1,0,0:0:0:0:
240,64,11525,5,0,0:0:0:0:
328,104,11732,1,0,0:0:0:0:
400,176,11939,1,0,0:0:0:0:
384,280,12146,2,0,P|344:312|312:304,1,80
288,304,12456,1,0,0:0:0:0:
264,296,12560,1,0,0:0:0:0:
152,248,12766,6,0,P|112:224|104:184,1,80
112,112,13180,1,0,0:0:0:0:
128,88,13284,1,0,0:0:0:0:
144,64,13387,1,0,0:0:0:0:
328,64,13594,5,0,0:0:0:0:
416,136,13801,1,0,0:0:0:0:
376,240,14008,2,0,P|352:272|304:280,1,80
248,224,14422,2,0,P|224:192|168:160,1,80
112,72,15042,5,0,0:0:0:0:
96,176,15249,2,0,P|88:216|104:272,1,80
176,312,15663,2,0,P|224:336|264:328,1,80
352,312,16077,1,0,0:0:0:0:
376,296,16180,1,0,0:0:0:0:
400,280,16284,1,0,0:0:0:0:
416,176,16491,6,0,P|432:128|416:80,1,80
320,80,16904,2,0,P|272:56|224:72,1,80
160,96,17318,2,0,P|112:112|96:160,1,80
80,248,17732,1,0,0:0:0:0:
104,264,17835,1,0,0:0:0:0:
128,272,17939,2,0,P|176:280|208:232,1,80
256,312,18353,6,0,P|256:272|280:232,1,80
368,240,18766,2,0,P|408:208|416:160,1,80
352,72,19180,1,0,0:0:0:0:
248,72,19387,2,0,P|200:64|160:104,1,80
112,144,19801,2,0,P|88:184|104:240,1,80
176,312,20215,2,0,P|208:336|264:328,1,80
312,304,20628,1,0,0:0:0:0:
392,256,20835,1,0,0:0:0:0:
320,216,21042,1,0,0:0:0:0:
384,152,21249,2,0,L|416:128,8,40
280,104,22284,6,0,L|288:56,2,40
208,152,22697,2,0,L|200:192,10,40
256,192,25180,5,0,0:0:0:0:
256,192,25387,1,0,0:0:0:0:
256,192,27042,5,0,0:0:0:0:
256,192,28491,5,0,0:0:0:0:
256,192,28697,1,0,0:0:0:0:
392,280,29111,5,0,0:0:0:0:
416,144,29525,1,0,0:0:0:0:
304,64,29939,1,0,0:0:0:0:
120,112,30353,6,0,P|96:152|104:216,1,80
168,264,30766,2,0,P|216:296|256:296,1,80
336,264,31180,1,0,0:0:0:0:
376,112,31387,5,0,0:0:0:0:
352,104,31491,1,0,0:0:0:0:
328,96,31594,2,0,P|288:72|232:80,1,80
176,88,32008,1,0,0:0:0:0:
104,144,32215,1,0,0:0:0:0:
104,224,32422,1,0,0:0:0:0:
152,304,32628,1,0,0:0:0:0:
248,320,32835,1,0,0:0:0:0:
360,96,33249,6,0,P|304:72|256:96,1,80
192,112,33663,1,0,0:0:0:0:
112,192,33870,2,0,P|112:232|144:296,1,80
208,312,34284,5,0,0:0:0:0:
304,304,34491,1,0,0:0:0:0:
256,224,34697,1,0,0:0:0:0:
200,152,34904,1,0,0:0:0:0:
312,152,35111,1,0,0:0:0:0:
256,192,35318,12,0,36973,0:0:0:0:
256,192,37387,5,0,0:0:0:0:
160,288,37801,6,0,P|104:264|96:232,1,80
96,224,38111,1,0,0:0:0:0:
96,200,38215,1,0,0:0:0:0:
136,96,38422,1,0,0:0:0:0:
232,48,38628,1,0,0:0:0:0:
392,288,39042,6,0,P|416:256|416:208,1,80
408,192,39353,1,0,0:0:0:0:
408,168,39456,1,0,0:0:0:0:
360,88,39663,2,0,P|328:64|280:64,1,80
192,64,40077,2,0,P|144:72|112:112,1,80
72,192,40491,1,0,0:0:0:0:
112,280,40697,1,0,0:0:0:0:
208,320,40904,5,0,0:0:0:0:
224,296,41008,1,0,0:0:0:0:
240,272,41111,2,0,P|264:224|256:192,1,80
208,128,41525,2,0,P|192:88|216:48,1,80
304,48,41939,2,0,P|352:48|384:80,1,80
392,88,42249,1,0,0:0:0:0:
408,112,42353,1,0,0:0:0:0:
408,200,42560,1,0,0:0:0:0:
384,288,42766,1,0,0:0:0:0:
248,312,42973,5,0,0:0:0:0:
224,296,43077,1,0,0:0:0:0:
200,280,43180,1,0,0:0:0:0:
128,208,43387,2,0,P|104:168|120:120,1,80
192,64,43801,2,0,P|224:40|280:48,1,80
376,64,44215,2,0,P|416:80|440:128,1,80
416,208,44628,1,0,0:0:0:0:
416,240,44732,1,0,0:0:0:0:
416,264,44835,1,0,0:0:0:0:
320,312,45042,1,0,0:0:0:0:
216,296,45249,1,0,0:0:0:0:
136,240,45456,6,0,P|104:216|96:168,1,80
120,96,45870,2,0,P|144:64|200:48,1,80
272,56,46284,1,0,0:0:0:0:
296,56,46387,1,0,0:0:0:0:
328,56,46491,1,0,0:0:0:0:
408,120,46697,6,0,P|432:152|432:216,1,80
408,264,47111,2,0,P|376:304|328:280,1,80
304,208,47525,1,0,0:0:0:0:
288,184,47628,1,0,0:0:0:0:
272,160,47732,1,0,0:0:0:0:
208,96,47939,2,0,P|176:56|128:48,1,80
96,88,48353,2,0,P|64:128|64:192,1,80
80,240,48766,1,0,0:0:0:0:
112,328,48973,1,0,0:0:0:0:
224,320,49180,5,0,0:0:0:0:
248,312,49284,1,0,0:0:0:0:
272,304,49387,1,0,0:0:0:0:
368,288,49594,2,0,P|408:272|440:240,1,80
416,152,50008,1,0,0:0:0:0:
256,192,50215,12,0,51870,0:0:0:0:
128,280,52284,6,0,P|176:304|232:280,1,100
288,288,52697,1,0,0:0:0:0:
368,280,52904,6,0,P|392:232|368:168,1,100
360,112,53318,1,0,0:0:0:0:
272,64,53525,1,0,0:0:0:0:
144,112,53835,5,0,0:0:0:0:
112,136,53939,1,0,0:0:0:0:
208,176,54146,2,0,P|256:192|272:248,1,100
120,280,54560,6,0,P|96:248|104:176,1,100
128,112,54973,1,0,0:0:0:0:
216,48,55180,1,0,0:0:0:0:
296,112,55491,5,0,0:0:0:0:
320,136,55594,1,0,0:0:0:0:
400,192,55801,2,0,P|408:256|376:320,1,100
256,288,56215,6,0,P|296:272|336:192,1,100
392,184,56628,2,0,P|416:152|408:88,1,100
232,48,57042,5,0,0:0:0:0:
208,64,57146,1,0,0:0:0:0:
184,80,57249,1,0,0:0:0:0:
112,152,57456,2,0,P|88:200|112:256,1,100
160,280,57870,2,0,L|224:280,6,50
176,192,58697,6,0,P|192:144|248:120,1,100
288,88,59111,1,0,0:0:0:0:
312,80,59215,1,0,0:0:0:0:
336,72,59318,1,0,0:0:0:0:
416,128,59525,2,0,P|448:160|448:224,1,100
416,272,59939,1,0,0:0:0:0:
392,280,60042,1,0,0:0:0:0:
368,296,60146,1,0,0:0:0:0:
240,272,60353,6,0,P|192:280|152:240,1,100
120,192,60766,1,0,0:0:0:0:
104,168,60870,1,0,0:0:0:0:
88,144,60973,1,0,0:0:0:0:
240,64,61180,5,0,0:0:0:0:
328,104,61387,1,0,0:0:0:0:
400,176,61594,1,0,0:0:0:0:
392,248,61801,2,0,P|344:312|312:304,1,100
288,304,62111,1,0,0:0:0:0:
264,296,62215,1,0,0:0:0:0:
152,248,62422,6,0,P|112:224|104:160,1,100
112,112,62835,1,0,0:0:0:0:
128,88,62939,1,0,0:0:0:0:
144,64,63042,1,0,0:0:0:0:
328,64,63249,5,0,0:0:0:0:
416,136,63456,1,0,0:0:0:0:
376,240,63663,2,0,P|352:272|288:280,1,100
248,224,64077,2,0,P|224:192|160:152,1,100
112,72,64697,5,0,0:0:0:0:
80,168,64904,1,0,0:0:0:0:
104,248,65111,1,0,0:0:0:0:
168,304,65318,1,0,0:0:0:0:
200,320,65422,1,0,0:0:0:0:
232,328,65525,1,0,0:0:0:0:
328,304,65732,1,0,0:0:0:0:
424,256,65939,1,0,0:0:0:0:
416,176,66146,6,0,P|432:128|408:72,1,100
320,80,66560,2,0,P|272:56|216:80,1,100
160,96,66973,2,0,P|112:112|96:168,1,100
80,248,67387,1,0,0:0:0:0:
104,264,67491,1,0,0:0:0:0:
128,272,67594,2,0,P|176:280|208:224,1,100
256,312,68008,6,0,P|256:272|288:224,1,100
368,240,68422,2,0,P|408:208|416:144,1,100
352,72,68835,1,0,0:0:0:0:
248,72,69042,2,0,P|200:64|160:112,1,100
112,144,69456,2,0,P|88:184|112:256,1,100
176,312,69870,2,0,P|208:336|272:328,1,100
312,304,70284,1,0,0:0:0:0:
392,256,70491,1,0,0:0:0:0:
320,216,70697,1,0,0:0:0:0:
384,152,70904,2,0,P|352:104|216:96,1,200
152,160,71525,1,0,0:0:0:0:
248,224,71732,1,0,0:0:0:0:
280,104,71939,6,0,L|288:48,2,50
376,168,72353,2,0,P|416:200|400:256,1,100
328,304,72766,1,0,0:0:0:0:
232,320,72973,1,0,0:0:0:0:
112,240,73180,5,0,0:0:0:0:
104,120,73387,1,0,0:0:0:0:
200,72,73594,2,0,P|248:40|312:48,1,100
376,64,74008,1,0,0:0:0:0:
400,88,74111,1,0,0:0:0:0:
424,120,74215,2,0,P|440:168|432:232,1,100
376,296,74628,1,0,0:0:0:0:
344,216,74835,1,0,0:0:0:0:
280,272,75042,1,0,0:0:0:0:
168,200,75249,6,0,L|104:200,2,50
224,120,75663,1,0,0:0:0:0:
152,80,75870,1,0,0:0:0:0:
104,136,76077,2,0,L|72:96,6,50
80,232,76904,2,0,P|80:296|128:320,1,100
192,304,77318,1,0,0:0:0:0:
296,304,77525,1,0,0:0:0:0:
392,256,77732,5,0,0:0:0:0:
408,160,77939,1,0,0:0:0:0:
368,80,78146,1,0,0:0:0:0:
256,56,78353,6,0,P|192:56|152:88,1,100
104,176,78766,2,0,P|88:224|120:280,1,100
224,296,79180,1,0,0:0:0:0:
256,296,79284,1,0,0:0:0:0:
288,288,79387,2,0,P|344:280|368:240,1,100
376,144,79801,5,0,0:0:0:0:
296,72,80008,1,0,0:0:0:0:
192,64,80215,2,0,P|128:56|88:96,1,100
88,176,80628,1,0,0:0:0:0:
80,208,80732,1,0,0:0:0:0:
64,240,80835,1,0,0:0:0:0:
176,248,81042,6,0,P|168:192|200:144,1,100
248,88,81456,2,0,P|296:64|368:80,1,100
424,104,81870,1,0,0:0:0:0:
440,136,81973,1,0,0:0:0:0:
456,168,82077,2,0,P|472:224|456:280,1,100
392,320,82491,1,0,0:0:0:0:
272,304,82697,1,0,0:0:0:0:
176,256,82904,1,0,0:0:0:0:
144,160,83111,1,0,0:0:0:0:
256,192,83318,12,0,86628,0:0:0:0:
256,192,91387,5,0,0:0:0:0:
256,192,91594,1,0,0:0:0:0:
120,280,92008,5,0,0:0:0:0:
96,144,92422,1,0,0:0:0:0:
208,64,92835,1,0,0:0:0:0:
392,112,93249,6,0,P|416:152|408:216,1,80
344,264,93663,2,0,P|296:296|256:296,1,80
176,264,94077,1,0,0:0:0:0:
136,112,94284,5,0,0:0:0:0:
160,104,94387,1,0,0:0:0:0:
184,96,94491,2,0,P|224:72|280:80,1,80
336,88,94904,1,0,0:0:0:0:
408,144,95111,1,0,0:0:0:0:
408,224,95318,1,0,0:0:0:0:
360,304,95525,1,0,0:0:0:0:
264,320,95732,1,0,0:0:0:0:
152,96,96146,6,0,P|208:72|256:96,1,80
320,112,96560,1,0,0:0:0:0:
400,192,96766,2,0,P|400:232|368:296,1,80
304,312,97180,5,0,0:0:0:0:
208,304,97387,1,0,0:0:0:0:
256,224,97594,1,0,0:0:0:0:
312,152,97801,1,0,0:0:0:0:
200,152,98008,1,0,0:0:0:0:
256,192,98215,12,0,99870,0:0:0:0:
256,192,100284,5,0,0:0:0:0:
352,288,100697,6,0,P|408:264|416:232,1,80
416,224,101008,1,0,0:0:0:0:
416,200,101111,1,0,0:0:0:0:
376,96,101318,1,0,0:0:0:0:
280,48,101525,1,0,0:0:0:0:
120,288,101939,6,0,P|96:256|96:208,1,80
104,192,102249,1,0,0:0:0:0:
104,168,102353,1,0,0:0:0:0:
152,88,102560,2,0,P|184:64|232:64,1,80
320,64,102973,2,0,P|368:72|400:112,1,80
440,192,103387,1,0,0:0:0:0:
400,280,103594,1,0,0:0:0:0:
304,320,103801,5,0,0:0:0:0:
288,296,103904,1,0,0:0:0:0:
272,272,104008,2,0,P|248:224|256:192,1,80
304,128,104422,2,0,P|320:88|296:48,1,80
208,48,104835,2,0,P|160:48|128:80,1,80
120,88,105146,1,0,0:0:0:0:
104,112,105249,1,0,0:0:0:0:
104,200,105456,1,0,0:0:0:0:
128,288,105663,1,0,0:0:0:0:
264,312,105870,5,0,0:0:0:0:
288,296,105973,1,0,0:0:0:0:
312,280,106077,1,0,0:0:0:0:
384,208,106284,2,0,P|408:168|392:120,1,80
320,64,106697,2,0,P|288:40|232:48,1,80
136,64,107111,2,0,P|96:80|72:128,1,80
96,208,107525,1,0,0:0:0:0:
96,240,107628,1,0,0:0:0:0:
96,264,107732,1,0,0:0:0:0:
192,312,107939,1,0,0:0:0:0:
296,296,108146,1,0,0:0:0:0:
376,240,108353,6,0,P|408:216|416:168,1,80
392,96,108766,2,0,P|368:64|312:48,1,80
240,56,109180,1,0,0:0:0:0:
216,56,109284,1,0,0:0:0:0:
184,56,109387,1,0,0:0:0:0:
104,120,109594,6,0,P|80:152|80:216,1,80
104,264,110008,2,0,P|136:304|184:280,1,80
208,208,110422,1,0,0:0:0:0:
224,184,110525,1,0,0:0:0:0:
240,160,110628,1,0,0:0:0:0:
304,96,110835,2,0,P|336:56|384:48,1,80
416,88,111249,2,0,P|448:128|448:192,1,80
432,240,111663,1,0,0:0:0:0:
400,328,111870,1,0,0:0:0:0:
288,320,112077,5,0,0:0:0:0:
264,312,112180,1,0,0:0:0:0:
240,304,112284,1,0,0:0:0:0:
144,288,112491,2,0,P|104:272|72:240,1,80
96,152,112904,1,0,0:0:0:0:
256,192,113111,12,0,114766,0:0:0:0:
384,280,115180,6,0,P|336:304|280:280,1,100
224,288,115594,1,0,0:0:0:0:
144,280,115801,6,0,P|120:232|152:160,1,100
152,112,116215,1,0,0:0:0:0:
240,64,116422,1,0,0:0:0:0:
368,112,116732,5,0,0:0:0:0:
400,136,116835,1,0,0:0:0:0:
304,176,117042,2,0,P|256:192|240:248,1,100
392,280,117456,6,0,P|416:248|408:176,1,100
384,112,117870,1,0,0:0:0:0:
296,48,118077,1,0,0:0:0:0:
216,112,118387,5,0,0:0:0:0:
192,136,118491,1,0,0:0:0:0:
112,192,118697,2,0,P|104:256|136:320,1,100
256,288,119111,6,0,P|216:272|176:200,1,100
120,184,119525,2,0,P|96:152|112:88,1,100
280,48,119939,5,0,0:0:0:0:
304,64,120042,1,0,0:0:0:0:
328,80,120146,1,0,0:0:0:0:
400,152,120353,2,0,P|424:200|400:256,1,100
352,280,120766,2,0,L|288:280,6,50
336,192,121594,6,0,P|320:144|272:120,1,100
224,88,122008,1,0,0:0:0:0:
200,80,122111,1,0,0:0:0:0:
176,72,122215,1,0,0:0:0:0:
96,128,122422,2,0,P|64:160|64:224,1,100
96,272,122835,1,0,0:0:0:0:
120,280,122939,1,0,0:0:0:0:
144,296,123042,1,0,0:0:0:0:
272,272,123249,6,0,P|320:280|360:248,1,100
392,192,123663,1,0,0:0:0:0:
408,168,123766,1,0,0:0:0:0:
424,144,123870,1,0,0:0:0:0:
272,64,124077,5,0,0:0:0:0:
184,104,124284,1,0,0:0:0:0:
112,176,124491,1,0,0:0:0:0:
120,248,124697,2,0,P|168:312|200:304,1,100
224,304,125008,1,0,0:0:0:0:
248,296,125111,1,0,0:0:0:0:
360,248,125318,6,0,P|400:224|408:168,1,100
400,112,125732,1,0,0:0:0:0:
384,88,125835,1,0,0:0:0:0:
368,64,125939,1,0,0:0:0:0:
184,64,126146,5,0,0:0:0:0:
96,136,126353,1,0,0:0:0:0:
136,240,126560,2,0,P|160:272|232:280,1,100
264,224,126973,2,0,P|288:192|360:160,1,100
400,72,127594,5,0,0:0:0:0:
432,168,127801,1,0,0:0:0:0:
408,248,128008,1,0,0:0:0:0:
344,304,128215,1,0,0:0:0:0:
312,320,128318,1,0,0:0:0:0:
280,328,128422,1,0,0:0:0:0:
184,304,128628,1,0,0:0:0:0:
88,256,128835,1,0,0:0:0:0:
104,184,129042,6,0,P|88:136|104:80,1,100
192,80,129456,2,0,P|240:56|296:72,1,100
352,96,129870,2,0,P|400:112|416:168,1,100
432,248,130284,1,0,0:0:0:0:
408,264,130387,1,0,0:0:0:0:
384,272,130491,2,0,P|336:280|304:224,1,100
256,312,130904,6,0,P|256:272|224:224,1,100
144,240,131318,2,0,P|104:208|96:152,1,100
160,72,131732,1,0,0:0:0:0:
264,72,131939,2,0,P|312:64|360:112,1,100
400,144,132353,2,0,P|424:184|408:248,1,100
336,312,132766,2,0,P|304:336|240:328,1,100
200,304,133180,1,0,0:0:0:0:
120,256,133387,1,0,0:0:0:0:
192,216,133594,1,0,0:0:0:0:
128,152,133801,2,0,P|160:104|296:96,1,200
360,160,134422,1,0,0:0:0:0:
264,224,134628,1,0,0:0:0:0:
232,104,134835,6,0,L|224:48,2,50
136,168,135249,2,0,P|96:200|112:256,1,100
184,304,135663,1,0,0:0:0:0:
280,320,135870,1,0,0:0:0:0:
400,240,136077,5,0,0:0:0:0:
408,120,136284,1,0,0:0:0:0:
312,72,136491,2,0,P|264:40|200:48,1,100
136,64,136904,1,0,0:0:0:0:
112,88,137008,1,0,0:0:0:0:
88,120,137111,2,0,P|72:168|80:232,1,100
136,296,137525,1,0,0:0:0:0:
168,216,137732,1,0,0:0:0:0:
232,272,137939,1,0,0:0:0:0:
344,200,138146,6,0,L|408:200,2,50
288,120,138560,1,0,0:0:0:0:
360,80,138766,1,0,0:0:0:0:
408,136,138973,2,0,L|440:96,6,50
432,232,139801,2,0,P|432:296|384:320,1,100
320,304,140215,1,0,0:0:0:0:
216,304,140422,1,0,0:0:0:0:
120,256,140628,5,0,0:0:0:0:
104,160,140835,1,0,0:0:0:0:
144,80,141042,1,0,0:0:0:0:
256,56,141249,6,0,P|320:56|360:88,1,100
408,176,141663,2,0,P|424:224|392:280,1,100
288,296,142077,1,0,0:0:0:0:
256,296,142180,1,0,0:0:0:0:
224,288,142284,2,0,P|168:280|144:240,1,100
136,144,142697,5,0,0:0:0:0:
216,72,142904,1,0,0:0:0:0:
320,64,143111,2,0,P|384:56|424:96,1,100
424,176,143525,1,0,0:0:0:0:
432,208,143628,1,0,0:0:0:0:
448,240,143732,1,0,0:0:0:0:
336,248,143939,6,0,P|344:192|312:144,1,100
264,88,144353,2,0,P|216:64|144:80,1,100
88,104,144766,1,0,0:0:0:0:
72,136,144870,1,0,0:0:0:0:
56,168,144973,2,0,P|40:224|56:280,1,100
120,320,145387,1,0,0:0:0:0:
240,304,145594,1,0,0:0:0:0:
336,256,145801,1,0,0:0:0:0:
368,160,146008,1,0,0:0:0:0:
256,192,146215,12,0,147870,0:0:0:0:
256,192,177663,5,0,0:0:0:0:
336,272,177973,2,0,P|384:248|416:168,1,120
296,80,178904,5,0,0:0:0:0:
192,88,179111,1,0,0:0:0:0:
128,168,179318,1,0,0:0:0:0:
120,264,179628,2,0,P|136:304|224:320,1,120
256,192,184284,5,0,0:0:0:0:
176,272,184594,2,0,P|128:248|96:168,1,120
216,80,185525,5,0,0:0:0:0:
320,88,185732,1,0,0:0:0:0:
384,168,185939,1,0,0:0:0:0:
392,264,186249,2,0,P|376:304|288:320,1,120
256,192,186766,12,0,190904,0:0:0:0:
384,104,191318,6,0,P|336:80|280:104,1,100
224,96,191732,1,0,0:0:0:0:
152,96,191939,6,0,P|120:152|144:208,1,100
152,272,192353,1,0,0:0:0:0:
240,320,192560,1,0,0:0:0:0:
368,272,192870,5,0,0:0:0:0:
400,248,192973,1,0,0:0:0:0:
304,208,193180,2,0,P|256:192|240:136,1,100
392,104,193594,6,0,P|416:136|408:208,1,100
384,272,194008,1,0,0:0:0:0:
296,336,194215,1,0,0:0:0:0:
216,272,194525,5,0,0:0:0:0:
192,248,194628,1,0,0:0:0:0:
112,192,194835,2,0,P|104:128|136:64,1,100
256,96,195249,6,0,P|216:112|184:184,1,100
120,200,195663,2,0,P|96:232|104:296,1,100
280,336,196077,5,0,0:0:0:0:
304,320,196180,1,0,0:0:0:0:
328,304,196284,1,0,0:0:0:0:
400,232,196491,2,0,P|424:184|392:128,1,100
352,104,196904,2,0,L|288:104,6,50
336,192,197732,6,0,P|320:240|272:256,1,100
224,296,198146,1,0,0:0:0:0:
200,304,198249,1,0,0:0:0:0:
176,312,198353,1,0,0:0:0:0:
96,256,198560,2,0,P|64:224|64:160,1,100
96,112,198973,1,0,0:0:0:0:
120,104,199077,1,0,0:0:0:0:
144,88,199180,1,0,0:0:0:0:
272,112,199387,6,0,P|320:104|360:144,1,100
392,192,199801,1,0,0:0:0:0:
408,216,199904,1,0,0:0:0:0:
424,240,200008,1,0,0:0:0:0:
272,320,200215,5,0,0:0:0:0:
184,280,200422,1,0,0:0:0:0:
112,208,200628,1,0,0:0:0:0:
120,136,200835,2,0,P|168:72|200:80,1,100
224,80,201146,1,0,0:0:0:0:
248,88,201249,1,0,0:0:0:0:
360,136,201456,6,0,P|400:160|408:216,1,100
400,272,201870,1,0,0:0:0:0:
384,296,201973,1,0,0:0:0:0:
368,320,202077,1,0,0:0:0:0:
184,320,202284,5,0,0:0:0:0:
96,248,202491,1,0,0:0:0:0:
136,144,202697,2,0,P|160:112|224:96,1,100
264,160,203111,2,0,P|288:192|352:224,1,100
400,312,203732,5,0,0:0:0:0:
432,216,203939,1,0,0:0:0:0:
408,136,204146,1,0,0:0:0:0:
344,80,204353,1,0,0:0:0:0:
312,64,204456,1,0,0:0:0:0:
280,56,204560,1,0,0:0:0:0:
184,80,204766,1,0,0:0:0:0:
88,128,204973,1,0,0:0:0:0:
96,208,205180,6,0,P|80:256|96:312,1,100
192,304,205594,2,0,P|240:328|304:312,1,100
352,288,206008,2,0,P|400:272|416:208,1,100
432,136,206422,1,0,0:0:0:0:
408,120,206525,1,0,0:0:0:0:
384,112,206628,2,0,P|336:104|304:160,1,100
256,72,207042,6,0,P|256:112|224:160,1,100
144,144,207456,2,0,P|104:176|96:232,1,100
160,312,207870,1,0,0:0:0:0:
264,312,208077,2,0,P|312:320|352:272,1,100
400,240,208491,2,0,P|424:200|408:128,1,100
368,104,208904,2,0,P|304:48|248:56,1,100
200,80,209318,1,0,0:0:0:0:
120,128,209525,1,0,0:0:0:0:
192,168,209732,1,0,0:0:0:0:
128,232,209939,2,0,P|160:280|296:288,1,200
360,224,210560,1,0,0:0:0:0:
264,160,210766,1,0,0:0:0:0:
232,280,210973,6,0,L|224:336,2,50
136,216,211387,2,0,P|96:184|112:128,1,100
184,80,211801,1,0,0:0:0:0:
280,64,212008,1,0,0:0:0:0:
400,144,212215,5,0,0:0:0:0:
408,264,212422,1,0,0:0:0:0:
312,312,212628,2,0,P|264:344|200:336,1,100
136,320,213042,1,0,0:0:0:0:
112,296,213146,1,0,0:0:0:0:
88,264,213249,2,0,P|72:216|80:152,1,100
136,88,213663,1,0,0:0:0:0:
168,168,213870,1,0,0:0:0:0:
232,112,214077,1,0,0:0:0:0:
344,184,214284,6,0,L|408:184,2,50
288,264,214697,1,0,0:0:0:0:
360,304,214904,1,0,0:0:0:0:
408,248,215111,2,0,L|440:288,6,50
432,152,215939,2,0,P|432:88|384:64,1,100
320,80,216353,1,0,0:0:0:0:
216,80,216560,1,0,0:0:0:0:
120,128,216766,5,0,0:0:0:0:
104,224,216973,1,0,0:0:0:0:
144,304,217180,1,0,0:0:0:0:
256,328,217387,6,0,P|320:328|360:296,1,100
408,208,217801,2,0,P|424:160|392:104,1,100
288,88,218215,1,0,0:0:0:0:
256,88,218318,1,0,0:0:0:0:
224,96,218422,2,0,P|168:104|144:144,1,100
136,240,218835,5,0,0:0:0:0:
216,312,219042,1,0,0:0:0:0:
320,320,219249,2,0,P|384:328|424:288,1,100
424,208,219663,1,0,0:0:0:0:
432,176,219766,1,0,0:0:0:0:
448,144,219870,1,0,0:0:0:0:
336,136,220077,6,0,P|344:192|312:240,1,100
264,296,220491,2,0,P|216:320|144:304,1,100
88,280,220904,1,0,0:0:0:0:
72,248,221008,1,0,0:0:0:0:
56,216,221111,2,0,P|40:160|56:104,1,100
120,64,221525,1,0,0:0:0:0:
240,80,221732,1,0,0:0:0:0:
336,128,221939,1,0,0:0:0:0:
368,224,222146,1,0,0:0:0:0:
256,192,222353,12,0,224008,0:0:0:0:
