osu file format v12

[General]
AudioFilename: fripSide - eternal reality.mp3
AudioLeadIn: 0
PreviewTime: 51834
Countdown: 1
SampleSet: Soft
StackLeniency: 0.7
Mode: 0
LetterboxInBreaks: 1
WidescreenStoryboard: 0

[Editor]
DistanceSpacing: 0.7
BeatDivisor: 4
GridSize: 8

[Metadata]
Title:Eternal Reality
TitleUnicode:Eternal Reality
Artist:fripSide
ArtistUnicode:fripSide
Creator:4 X
Version:Extra
Source:Toaru Kagaku no Railgun S
Tags:fripSide Eternal Reality Toaru Kagaku no Railgun S Misaka Mikoto Shirai Kuroko Saten Ruiko Uiharu Kazari
BeatmapID:342164
BeatmapSetID:136764

[Difficulty]
HPDrainRate:8
CircleSize:5
OverallDifficulty:10
ApproachRate:9
SliderMultiplier:1.7
SliderTickRate:2

[Events]
//Background and Video events
0,0,"BG.jpg",0,0
//Break Periods
2,177862,188649
//Storyboard Layer 0 (Background)
//Storyboard Layer 1 (Fail)
//Storyboard Layer 2 (Pass)
//Storyboard Layer 3 (Foreground)
//Storyboard Sound Samples
//Background Colour Transformations
3,100,163,162,255

[TimingPoints]
560,413.793103448276,4,2,1,100,1,0
560,-100,4,2,1,100,0,0
51870,-80,4,2,1,100,0,1
58284,-80,4,2,1,100,0,0
58491,-80,4,2,1,100,0,1
64868,-80,4,2,1,100,0,0
65075,-80,4,2,1,100,0,1
78110,-80,4,2,1,100,0,0
78317,-80,4,2,1,100,0,1
84730,-80,4,2,1,100,0,0
84937,-80,4,2,1,100,0,1
86386,-80,4,2,1,100,0,0
86592,-100,4,2,1,100,0,1
86799,-100,4,2,1,100,0,0
114730,-80,4,2,1,100,0,1
127765,-80,4,2,1,100,0,0
127972,-80,4,2,1,100,0,1
141006,-80,4,2,1,100,0,0
141213,-80,4,2,1,100,0,1
147627,-80,4,2,1,100,0,0
147834,-100,4,2,1,100,0,1
148041,-100,4,2,1,100,0,0
161075,-57.1428571428571,4,2,1,100,0,1
177627,-100,4,2,1,100,0,1
177834,-100,4,2,1,100,0,0
184248,-100,4,2,1,100,0,1
184455,-100,4,2,1,100,0,0
190868,-80,4,2,1,100,0,1
203903,-80,4,2,1,100,0,0
204110,-80,4,2,1,100,0,1
217144,-80,4,2,1,100,0,0
217351,-80,4,2,1,100,0,1
224075,-80,4,2,1,5,0,1
228937,-80,4,2,1,5,0,0

[HitObjects]
256,192,2215,1,0,0:0:0:0:
320,256,2525,1,0,0:0:0:0:
344,264,2628,2,0,P|408:296|456:280,1,85
432,96,3249,5,0,0:0:0:0:
408,80,3353,1,0,0:0:0:0:
384,64,3456,2,0,P|344:48|288:96,1,85
248,72,3870,2,0,L|160:72,1,85
136,72,4180,1,0,0:0:0:0:
112,80,4284,2,0,P|64:112|80:168,1,85
256,328,4904,5,0,0:0:0:0:
272,304,5008,1,0,0:0:0:0:
288,280,5111,2,0,P|328:240|304:200,1,85
296,168,5525,2,0,L|224:96,1,85
216,88,5835,1,0,0:0:0:0:
184,80,5939,1,0,0:0:0:0:
128,88,6146,2,0,P|64:144|96:248,1,170
192,312,6766,5,0,0:0:0:0:
312,248,6973,1,0,0:0:0:0:
368,104,7180,1,0,0:0:0:0:
232,64,7387,1,0,0:0:0:0:
216,88,7491,1,0,0:0:0:0:
200,112,7594,1,0,0:0:0:0:
104,224,7801,1,0,0:0:0:0:
120,248,7904,1,0,0:0:0:0:
136,272,8008,1,0,0:0:0:0:
312,312,8215,1,0,0:0:0:0:
336,296,8318,1,0,0:0:0:0:
360,272,8422,1,0,0:0:0:0:
376,248,8525,1,0,0:0:0:0:
400,232,8628,1,0,0:0:0:0:
416,208,8732,1,0,0:0:0:0:
424,184,8835,6,0,P|448:136|432:88,1,85
392,72,9249,2,0,P|352:48|304:72,1,85
296,80,9560,1,0,0:0:0:0:
272,104,9663,1,0,0:0:0:0:
176,192,9870,5,0,0:0:0:0:
168,160,9973,1,0,0:0:0:0:
176,128,10077,2,0,P|192:80|256:88,2,85
224,128,10594,1,0,0:0:0:0:
256,136,10697,1,0,0:0:0:0:
280,152,10801,1,0,0:0:0:0:
288,184,10904,1,0,0:0:0:0:
288,216,11008,1,0,0:0:0:0:
288,248,11111,1,0,0:0:0:0:
288,280,11215,1,0,0:0:0:0:
296,312,11318,1,0,0:0:0:0:
400,256,11525,5,0,0:0:0:0:
408,224,11628,1,0,0:0:0:0:
416,200,11732,1,0,0:0:0:0:
416,104,11939,2,0,P|384:64|328:72,1,85
232,104,12353,1,0,0:0:0:0:
200,104,12456,1,0,0:0:0:0:
168,104,12560,1,0,0:0:0:0:
96,232,12766,2,0,P|80:192|104:136,1,85
248,184,13180,1,0,0:0:0:0:
248,216,13284,1,0,0:0:0:0:
248,248,13387,1,0,0:0:0:0:
400,320,13594,5,0,0:0:0:0:
424,296,13697,1,0,0:0:0:0:
440,272,13801,1,0,0:0:0:0:
448,240,13904,1,0,0:0:0:0:
448,208,14008,1,0,0:0:0:0:
448,176,14111,1,0,0:0:0:0:
448,144,14215,1,0,0:0:0:0:
440,120,14318,1,0,0:0:0:0:
424,96,14422,1,0,0:0:0:0:
400,80,14525,1,0,0:0:0:0:
376,72,14628,1,0,0:0:0:0:
208,72,14835,6,0,L|160:72,2,42.5
240,80,15146,1,0,0:0:0:0:
264,96,15249,2,0,P|304:128|304:176,1,85
312,192,15560,1,0,0:0:0:0:
312,224,15663,1,0,0:0:0:0:
312,256,15766,1,0,0:0:0:0:
296,280,15870,1,0,0:0:0:0:
160,288,16077,1,0,0:0:0:0:
160,256,16180,1,0,0:0:0:0:
160,224,16284,1,0,0:0:0:0:
80,112,16491,1,0,0:0:0:0:
112,104,16594,1,0,0:0:0:0:
144,96,16697,1,0,0:0:0:0:
320,72,16904,5,0,0:0:0:0:
344,88,17008,1,0,0:0:0:0:
368,104,17111,2,0,L|432:160,2,85
344,88,17628,1,0,0:0:0:0:
320,72,17732,1,0,0:0:0:0:
288,64,17835,1,0,0:0:0:0:
256,72,17939,1,0,0:0:0:0:
64,80,18146,6,0,P|136:120|136:152,1,85
144,176,18560,1,0,0:0:0:0:
152,208,18663,1,0,0:0:0:0:
160,240,18766,1,0,0:0:0:0:
312,296,18973,6,0,P|352:248|352:208,1,85
352,168,19387,1,0,0:0:0:0:
344,136,19491,1,0,0:0:0:0:
328,112,19594,1,0,0:0:0:0:
304,96,19697,1,0,0:0:0:0:
280,80,19801,1,0,0:0:0:0:
248,72,19904,1,0,0:0:0:0:
216,72,20008,1,0,0:0:0:0:
184,72,20111,1,0,0:0:0:0:
152,72,20215,1,0,0:0:0:0:
104,224,20422,5,0,0:0:0:0:
216,280,20628,1,0,0:0:0:0:
280,184,20835,1,0,0:0:0:0:
272,72,21042,1,0,0:0:0:0:
368,80,21249,5,0,0:0:0:0:
392,104,21353,1,0,0:0:0:0:
408,128,21456,1,0,0:0:0:0:
416,160,21560,1,0,0:0:0:0:
416,192,21663,2,0,L|416:232,8,21.25
224,264,22284,5,0,0:0:0:0:
224,232,22387,1,0,0:0:0:0:
224,200,22491,1,0,0:0:0:0:
168,96,22697,1,0,0:0:0:0:
192,80,22801,1,0,0:0:0:0:
216,64,22904,1,0,0:0:0:0:
248,56,23008,1,0,0:0:0:0:
280,56,23111,1,0,0:0:0:0:
312,56,23215,1,0,0:0:0:0:
344,64,23318,6,0,P|416:72|448:184,1,170
392,256,23939,2,0,P|328:248|312:208,1,85
296,136,24353,2,0,P|280:96|224:72,1,85
88,80,24766,5,0,0:0:0:0:
88,112,24870,1,0,0:0:0:0:
88,144,24973,2,0,P|88:192|136:232,1,85
200,272,25387,2,0,P|240:296|280:280,1,85
336,216,25801,2,0,P|344:152|384:128,1,85
224,72,26215,2,0,P|160:144|176:240,1,170
432,72,27042,6,0,L|432:160,1,85
432,184,27353,1,0,0:0:0:0:
432,216,27456,1,0,0:0:0:0:
400,328,27663,1,0,0:0:0:0:
368,320,27766,1,0,0:0:0:0:
336,312,27870,2,0,P|288:288|280:256,1,85
272,232,28180,1,0,0:0:0:0:
272,200,28284,2,0,P|272:144|248:112,1,85
104,72,28697,6,0,P|72:112|88:160,1,85
88,280,29111,2,0,P|96:232|136:200,1,85
144,184,29422,1,0,0:0:0:0:
168,168,29525,1,0,0:0:0:0:
256,48,29732,5,0,0:0:0:0:
280,64,29835,1,0,0:0:0:0:
304,80,29939,1,0,0:0:0:0:
328,96,30042,1,0,0:0:0:0:
352,112,30146,1,0,0:0:0:0:
376,128,30249,1,0,0:0:0:0:
400,144,30353,6,0,P|440:176|440:224,1,85
440,240,30663,1,0,0:0:0:0:
432,272,30766,2,0,P|392:312|336:320,1,85
256,312,31180,2,0,P|224:272|224:232,1,85
224,208,31491,1,0,0:0:0:0:
224,176,31594,2,0,P|224:128|192:96,1,85
176,80,31904,1,0,0:0:0:0:
152,64,32008,2,0,P|88:56|64:96,2,85
176,80,32525,1,0,0:0:0:0:
200,96,32628,1,0,0:0:0:0:
216,120,32732,1,0,0:0:0:0:
224,152,32835,1,0,0:0:0:0:
128,312,33042,5,0,0:0:0:0:
152,296,33146,1,0,0:0:0:0:
176,280,33249,2,0,P|224:256|240:208,1,85
248,128,33663,1,0,0:0:0:0:
360,72,33870,1,0,0:0:0:0:
384,96,33973,1,0,0:0:0:0:
400,120,34077,1,0,0:0:0:0:
400,264,34284,6,0,P|368:296|304:296,1,85
248,208,34697,2,0,P|248:144|216:112,1,85
112,104,35111,2,0,P|88:144|104:216,1,85
136,280,35525,1,0,0:0:0:0:
288,248,35732,1,0,0:0:0:0:
208,112,35939,1,0,0:0:0:0:
336,56,36146,5,0,0:0:0:0:
368,64,36249,1,0,0:0:0:0:
392,80,36353,1,0,0:0:0:0:
416,104,36456,1,0,0:0:0:0:
432,128,36560,1,0,0:0:0:0:
432,248,36766,1,0,0:0:0:0:
416,272,36870,1,0,0:0:0:0:
392,296,36973,1,0,0:0:0:0:
256,304,37180,5,0,0:0:0:0:
240,280,37284,1,0,0:0:0:0:
224,256,37387,1,0,0:0:0:0:
104,200,37594,5,0,0:0:0:0:
104,168,37697,1,0,0:0:0:0:
104,136,37801,2,0,P|104:88|144:56,1,85
152,48,38111,1,0,0:0:0:0:
184,48,38215,1,0,0:0:0:0:
288,80,38422,1,0,0:0:0:0:
304,104,38525,1,0,0:0:0:0:
320,128,38628,1,0,0:0:0:0:
224,256,38835,1,0,0:0:0:0:
200,240,38939,1,0,0:0:0:0:
176,224,39042,1,0,0:0:0:0:
152,208,39146,1,0,0:0:0:0:
128,192,39249,1,0,0:0:0:0:
104,176,39353,1,0,0:0:0:0:
80,160,39456,6,0,P|48:128|56:80,1,85
72,72,39766,1,0,0:0:0:0:
104,64,39870,2,0,P|160:48|192:56,1,85
208,72,40180,1,0,0:0:0:0:
216,96,40284,2,0,P|232:144|280:152,1,85
288,152,40594,1,0,0:0:0:0:
320,152,40697,1,0,0:0:0:0:
352,152,40801,1,0,0:0:0:0:
384,160,40904,1,0,0:0:0:0:
408,176,41008,1,0,0:0:0:0:
424,200,41111,1,0,0:0:0:0:
432,224,41215,1,0,0:0:0:0:
432,256,41318,1,0,0:0:0:0:
424,288,41422,1,0,0:0:0:0:
408,312,41525,6,0,L|320:320,1,85
272,312,41835,1,0,0:0:0:0:
224,312,41939,2,0,L|112:312,1,85
104,280,42249,1,0,0:0:0:0:
96,248,42353,2,0,P|64:208|48:160,2,85
128,248,42870,1,0,0:0:0:0:
160,248,42973,1,0,0:0:0:0:
192,248,43077,1,0,0:0:0:0:
224,240,43180,1,0,0:0:0:0:
112,64,43387,5,0,0:0:0:0:
144,56,43491,1,0,0:0:0:0:
176,48,43594,2,0,P|224:32|280:64,1,85
288,48,43904,1,0,0:0:0:0:
312,56,44008,2,0,P|360:80|376:128,1,85
368,248,44422,1,0,0:0:0:0:
344,224,44525,1,0,0:0:0:0:
328,200,44628,1,0,0:0:0:0:
304,184,44732,1,0,0:0:0:0:
280,168,44835,1,0,0:0:0:0:
120,128,45042,5,0,0:0:0:0:
112,160,45146,1,0,0:0:0:0:
104,192,45249,1,0,0:0:0:0:
208,296,45456,1,0,0:0:0:0:
240,288,45560,1,0,0:0:0:0:
272,280,45663,1,0,0:0:0:0:
408,280,45870,2,0,L|424:240,2,42.5
376,272,46180,2,0,L|328:248,3,42.5
256,112,46697,6,0,P|240:72|192:48,1,85
80,112,47111,1,0,0:0:0:0:
80,144,47215,1,0,0:0:0:0:
80,176,47318,2,0,P|96:240|136:256,1,85
240,296,47732,1,0,0:0:0:0:
336,208,47939,1,0,0:0:0:0:
344,176,48042,1,0,0:0:0:0:
352,144,48146,1,0,0:0:0:0:
232,72,48353,5,0,0:0:0:0:
200,64,48456,1,0,0:0:0:0:
168,56,48560,2,0,P|112:56|80:96,1,85
88,200,48973,2,0,P|96:256|144:296,2,85
104,176,49491,1,0,0:0:0:0:
128,152,49594,1,0,0:0:0:0:
152,136,49697,1,0,0:0:0:0:
176,120,49801,1,0,0:0:0:0:
200,112,49904,1,0,0:0:0:0:
224,104,50008,1,0,0:0:0:0:
368,64,50215,5,0,0:0:0:0:
384,88,50318,1,0,0:0:0:0:
400,112,50422,1,0,0:0:0:0:
408,144,50525,1,0,0:0:0:0:
408,176,50628,1,0,0:0:0:0:
400,208,50732,1,0,0:0:0:0:
392,240,50835,1,0,0:0:0:0:
384,272,50939,1,0,0:0:0:0:
360,296,51042,1,0,0:0:0:0:
336,312,51146,1,0,0:0:0:0:
312,320,51249,1,0,0:0:0:0:
280,320,51353,1,0,0:0:0:0:
248,320,51456,1,0,0:0:0:0:
216,320,51560,1,0,0:0:0:0:
184,320,51663,1,0,0:0:0:0:
152,320,51766,1,0,0:0:0:0:
120,304,51870,6,0,P|72:264|64:208,1,106.25
64,184,52180,1,0,0:0:0:0:
64,144,52284,1,0,0:0:0:0:
152,48,52491,1,0,0:0:0:0:
184,64,52594,1,0,0:0:0:0:
216,80,52697,1,0,0:0:0:0:
248,96,52801,1,0,0:0:0:0:
280,112,52904,1,0,0:0:0:0:
312,128,53008,1,0,0:0:0:0:
352,136,53111,6,0,P|408:152|424:216,1,106.25
344,288,53525,1,0,0:0:0:0:
192,272,53835,5,0,0:0:0:0:
168,248,53939,1,0,0:0:0:0:
112,136,54146,1,0,0:0:0:0:
136,112,54249,1,0,0:0:0:0:
168,88,54353,1,0,0:0:0:0:
200,72,54456,1,0,0:0:0:0:
240,64,54560,1,0,0:0:0:0:
280,64,54663,1,0,0:0:0:0:
320,72,54766,6,0,P|376:80|416:144,1,106.25
400,232,55180,2,0,P|368:184|312:168,1,106.25
288,160,55491,1,0,0:0:0:0:
248,168,55594,1,0,0:0:0:0:
216,184,55697,1,0,0:0:0:0:
192,208,55801,1,0,0:0:0:0:
96,288,56008,6,0,P|64:240|80:176,1,106.25
80,160,56318,1,0,0:0:0:0:
96,128,56422,2,0,P|112:64|168:40,1,106.25
184,40,56732,1,0,0:0:0:0:
224,40,56835,1,0,0:0:0:0:
368,48,57042,5,0,0:0:0:0:
392,80,57146,1,0,0:0:0:0:
408,112,57249,1,0,0:0:0:0:
400,248,57456,1,0,0:0:0:0:
384,280,57560,1,0,0:0:0:0:
360,304,57663,1,0,0:0:0:0:
192,312,57870,1,0,0:0:0:0:
168,288,57973,1,0,0:0:0:0:
152,256,58077,1,0,0:0:0:0:
144,216,58180,1,0,0:0:0:0:
144,176,58284,1,0,0:0:0:0:
152,136,58387,1,0,0:0:0:0:
168,104,58491,1,0,0:0:0:0:
360,72,58801,5,0,0:0:0:0:
376,104,58904,1,0,0:0:0:0:
376,232,59111,1,0,0:0:0:0:
360,264,59215,1,0,0:0:0:0:
328,288,59318,1,0,0:0:0:0:
296,296,59422,1,0,0:0:0:0:
256,296,59525,1,0,0:0:0:0:
216,288,59628,1,0,0:0:0:0:
176,280,59732,2,0,P|120:264|96:200,1,106.25
96,120,60146,2,0,P|96:64|152:40,1,106.25
168,40,60456,1,0,0:0:0:0:
208,48,60560,1,0,0:0:0:0:
400,64,60766,5,0,0:0:0:0:
400,104,60870,1,0,0:0:0:0:
400,144,60973,1,0,0:0:0:0:
400,184,61077,1,0,0:0:0:0:
400,224,61180,1,0,0:0:0:0:
400,264,61284,1,0,0:0:0:0:
400,304,61387,1,0,0:0:0:0:
272,296,61594,1,0,0:0:0:0:
240,280,61697,1,0,0:0:0:0:
208,264,61801,1,0,0:0:0:0:
104,224,62111,6,0,L|72:176,1,53.125
128,64,62422,1,0,0:0:0:0:
160,88,62525,1,0,0:0:0:0:
184,112,62628,1,0,0:0:0:0:
208,144,62732,1,0,0:0:0:0:
224,176,62835,2,0,P|256:232|320:240,1,106.25
384,144,63249,2,0,P|432:176|448:248,1,106.25
296,256,63663,1,0,0:0:0:0:
144,304,63870,5,0,0:0:0:0:
120,280,63973,1,0,0:0:0:0:
104,248,64077,1,0,0:0:0:0:
88,216,64180,1,0,0:0:0:0:
80,176,64284,1,0,0:0:0:0:
88,136,64387,1,0,0:0:0:0:
120,112,64491,2,0,L|152:80,12,26.5625
448,160,65422,5,0,0:0:0:0:
416,176,65525,2,0,P|368:208|360:272,1,106.25
336,280,65835,1,0,0:0:0:0:
312,304,65939,1,0,0:0:0:0:
280,320,66042,1,0,0:0:0:0:
248,328,66146,1,0,0:0:0:0:
208,328,66249,1,0,0:0:0:0:
168,328,66353,1,0,0:0:0:0:
96,144,66560,6,0,L|136:96,2,53.125
88,176,66870,1,0,0:0:0:0:
88,216,66973,1,0,0:0:0:0:
104,248,67077,1,0,0:0:0:0:
136,264,67180,1,0,0:0:0:0:
320,128,67387,6,0,L|280:80,2,53.125
336,160,67697,1,0,0:0:0:0:
352,192,67801,1,0,0:0:0:0:
336,224,67904,1,0,0:0:0:0:
320,256,68008,2,0,P|280:304|216:312,1,106.25
200,312,68318,1,0,0:0:0:0:
160,304,68422,1,0,0:0:0:0:
144,80,68732,5,0,0:0:0:0:
176,96,68835,1,0,0:0:0:0:
320,96,69042,2,0,L|368:144,1,53.125
368,168,69249,2,0,L|368:240,1,53.125
360,256,69456,2,0,L|320:304,1,53.125
288,304,69663,2,0,L|216:304,1,53.125
200,304,69870,1,0,0:0:0:0:
112,128,70077,1,0,0:0:0:0:
264,88,70284,5,0,0:0:0:0:
296,104,70387,1,0,0:0:0:0:
328,120,70491,1,0,0:0:0:0:
312,272,70697,2,0,L|264:304,4,53.125
344,248,71215,1,0,0:0:0:0:
376,224,71318,2,0,P|432:184|432:136,1,106.25
424,120,71628,1,0,0:0:0:0:
392,96,71732,6,0,P|320:64|272:104,1,106.25
272,96,72042,1,0,0:0:0:0:
248,120,72146,2,0,P|208:160|144:152,1,106.25
120,168,72456,1,0,0:0:0:0:
88,192,72560,2,0,P|48:240|72:304,1,106.25
72,312,72870,1,0,0:0:0:0:
104,328,72973,1,0,0:0:0:0:
344,304,73180,5,0,0:0:0:0:
360,272,73284,1,0,0:0:0:0:
376,240,73387,1,0,0:0:0:0:
304,104,73594,2,0,L|336:56,2,53.125
272,128,73904,1,0,0:0:0:0:
248,152,74008,1,0,0:0:0:0:
224,176,74111,1,0,0:0:0:0:
200,200,74215,1,0,0:0:0:0:
88,128,74422,5,0,0:0:0:0:
88,168,74525,1,0,0:0:0:0:
88,208,74628,1,0,0:0:0:0:
192,280,74835,2,0,P|248:296|312:256,1,106.25
392,208,75249,1,0,0:0:0:0:
392,168,75353,1,0,0:0:0:0:
392,128,75456,1,0,0:0:0:0:
296,80,75663,2,0,P|248:56|192:80,1,106.25
168,208,76077,5,0,0:0:0:0:
184,240,76180,1,0,0:0:0:0:
192,272,76284,1,0,0:0:0:0:
344,280,76491,2,0,L|288:320,2,53.125
392,128,76904,1,0,0:0:0:0:
360,112,77008,1,0,0:0:0:0:
328,104,77111,1,0,0:0:0:0:
288,96,77215,1,0,0:0:0:0:
248,88,77318,1,0,0:0:0:0:
208,88,77422,1,0,0:0:0:0:
168,96,77525,1,0,0:0:0:0:
136,112,77628,1,0,0:0:0:0:
120,144,77732,1,0,0:0:0:0:
112,176,77835,1,0,0:0:0:0:
96,208,77939,1,0,0:0:0:0:
96,248,78042,1,0,0:0:0:0:
112,280,78146,1,0,0:0:0:0:
144,304,78249,1,0,0:0:0:0:
176,328,78353,6,0,P|240:336|272:296,1,106.25
344,248,78766,2,0,P|344:184|376:136,1,106.25
392,120,79077,1,0,0:0:0:0:
424,96,79180,1,0,0:0:0:0:
224,96,79387,1,0,0:0:0:0:
192,112,79491,1,0,0:0:0:0:
160,128,79594,1,0,0:0:0:0:
96,256,79801,6,0,L|48:224,2,53.125
128,280,80111,1,0,0:0:0:0:
160,304,80215,1,0,0:0:0:0:
192,320,80318,1,0,0:0:0:0:
232,328,80422,1,0,0:0:0:0:
272,328,80525,1,0,0:0:0:0:
312,328,80628,1,0,0:0:0:0:
344,312,80732,1,0,0:0:0:0:
376,296,80835,1,0,0:0:0:0:
416,152,81042,5,0,0:0:0:0:
392,128,81146,1,0,0:0:0:0:
360,112,81249,1,0,0:0:0:0:
208,88,81456,1,0,0:0:0:0:
176,112,81560,1,0,0:0:0:0:
144,128,81663,1,0,0:0:0:0:
88,256,81870,2,0,P|120:304|192:320,1,106.25
344,312,82284,5,0,0:0:0:0:
368,280,82387,1,0,0:0:0:0:
392,248,82491,1,0,0:0:0:0:
408,216,82594,1,0,0:0:0:0:
408,176,82697,1,0,0:0:0:0:
400,136,82801,1,0,0:0:0:0:
376,104,82904,1,0,0:0:0:0:
344,88,83008,1,0,0:0:0:0:
312,72,83111,2,0,P|256:56|176:80,1,106.25
176,72,83422,1,0,0:0:0:0:
144,88,83525,2,0,P|88:128|72:192,1,106.25
168,312,83939,5,0,0:0:0:0:
336,288,84146,5,0,0:0:0:0:
360,264,84249,1,0,0:0:0:0:
392,240,84353,1,0,0:0:0:0:
416,208,84456,1,0,0:0:0:0:
408,168,84560,2,0,L|392:128,8,26.5625
288,264,85180,5,0,0:0:0:0:
288,232,85284,1,0,0:0:0:0:
288,200,85387,1,0,0:0:0:0:
344,96,85594,1,0,0:0:0:0:
320,80,85697,1,0,0:0:0:0:
296,64,85801,1,0,0:0:0:0:
264,56,85904,1,0,0:0:0:0:
232,56,86008,1,0,0:0:0:0:
200,56,86111,1,0,0:0:0:0:
168,64,86215,6,0,P|96:72|64:200,1,212.5
120,256,86835,2,0,P|184:248|200:208,1,85
216,136,87249,2,0,P|232:96|288:72,1,85
424,80,87663,5,0,0:0:0:0:
424,112,87766,1,0,0:0:0:0:
424,144,87870,2,0,P|424:192|376:232,1,85
312,272,88284,2,0,P|272:296|232:280,1,85
176,216,88697,2,0,P|168:152|128:128,1,85
288,72,89111,2,0,P|352:144|336:240,1,170
80,72,89939,6,0,L|80:160,1,85
80,184,90249,1,0,0:0:0:0:
80,216,90353,1,0,0:0:0:0:
112,328,90560,1,0,0:0:0:0:
144,320,90663,1,0,0:0:0:0:
176,312,90766,2,0,P|224:288|232:256,1,85
240,232,91077,1,0,0:0:0:0:
240,200,91180,2,0,P|240:144|264:112,1,85
408,72,91594,6,0,P|440:112|424:160,1,85
424,280,92008,2,0,P|416:232|376:200,1,85
368,184,92318,1,0,0:0:0:0:
344,168,92422,1,0,0:0:0:0:
256,48,92628,5,0,0:0:0:0:
232,64,92732,1,0,0:0:0:0:
208,80,92835,1,0,0:0:0:0:
184,96,92939,1,0,0:0:0:0:
160,112,93042,1,0,0:0:0:0:
136,128,93146,1,0,0:0:0:0:
112,144,93249,6,0,P|72:176|72:224,1,85
72,240,93560,1,0,0:0:0:0:
80,272,93663,2,0,P|120:312|176:320,1,85
256,312,94077,2,0,P|288:272|288:232,1,85
288,208,94387,1,0,0:0:0:0:
288,176,94491,2,0,P|288:128|320:96,1,85
336,80,94801,1,0,0:0:0:0:
360,64,94904,2,0,P|424:56|448:96,2,85
336,80,95422,1,0,0:0:0:0:
312,96,95525,1,0,0:0:0:0:
296,120,95628,1,0,0:0:0:0:
288,152,95732,1,0,0:0:0:0:
384,312,95939,5,0,0:0:0:0:
360,296,96042,1,0,0:0:0:0:
336,280,96146,2,0,P|288:256|272:208,1,85
264,128,96560,1,0,0:0:0:0:
152,72,96766,1,0,0:0:0:0:
128,96,96870,1,0,0:0:0:0:
112,120,96973,1,0,0:0:0:0:
112,264,97180,6,0,P|144:296|208:296,1,85
264,208,97594,2,0,P|264:144|296:112,1,85
400,104,98008,2,0,P|424:144|408:216,1,85
376,280,98422,1,0,0:0:0:0:
224,248,98628,1,0,0:0:0:0:
304,112,98835,1,0,0:0:0:0:
176,56,99042,5,0,0:0:0:0:
144,64,99146,1,0,0:0:0:0:
120,80,99249,1,0,0:0:0:0:
96,104,99353,1,0,0:0:0:0:
80,128,99456,1,0,0:0:0:0:
80,248,99663,1,0,0:0:0:0:
96,272,99766,1,0,0:0:0:0:
120,296,99870,1,0,0:0:0:0:
256,304,100077,5,0,0:0:0:0:
272,280,100180,1,0,0:0:0:0:
288,256,100284,1,0,0:0:0:0:
408,200,100491,5,0,0:0:0:0:
408,168,100594,1,0,0:0:0:0:
408,136,100697,2,0,P|408:88|368:56,1,85
360,48,101008,1,0,0:0:0:0:
328,48,101111,1,0,0:0:0:0:
224,80,101318,1,0,0:0:0:0:
208,104,101422,1,0,0:0:0:0:
192,128,101525,1,0,0:0:0:0:
288,256,101732,1,0,0:0:0:0:
312,240,101835,1,0,0:0:0:0:
336,224,101939,1,0,0:0:0:0:
360,208,102042,1,0,0:0:0:0:
384,192,102146,1,0,0:0:0:0:
408,176,102249,1,0,0:0:0:0:
432,160,102353,6,0,P|464:128|456:80,1,85
440,72,102663,1,0,0:0:0:0:
408,64,102766,2,0,P|352:48|320:56,1,85
304,72,103077,1,0,0:0:0:0:
296,96,103180,2,0,P|280:144|232:152,1,85
224,152,103491,1,0,0:0:0:0:
192,152,103594,1,0,0:0:0:0:
160,152,103697,1,0,0:0:0:0:
128,160,103801,1,0,0:0:0:0:
104,176,103904,1,0,0:0:0:0:
88,200,104008,1,0,0:0:0:0:
80,224,104111,1,0,0:0:0:0:
80,256,104215,1,0,0:0:0:0:
88,288,104318,1,0,0:0:0:0:
104,312,104422,6,0,L|192:320,1,85
216,312,104732,1,0,0:0:0:0:
248,312,104835,2,0,L|360:312,1,85
360,312,105146,1,0,0:0:0:0:
392,304,105249,2,0,P|432:280|448:232,2,85
360,312,105766,1,0,0:0:0:0:
328,304,105870,1,0,0:0:0:0:
304,280,105973,1,0,0:0:0:0:
296,248,106077,1,0,0:0:0:0:
400,64,106284,5,0,0:0:0:0:
368,56,106387,1,0,0:0:0:0:
336,48,106491,2,0,P|288:32|232:64,1,85
224,48,106801,1,0,0:0:0:0:
200,56,106904,2,0,P|152:80|136:128,1,85
144,248,107318,1,0,0:0:0:0:
168,224,107422,1,0,0:0:0:0:
184,200,107525,1,0,0:0:0:0:
208,184,107628,1,0,0:0:0:0:
232,168,107732,1,0,0:0:0:0:
392,128,107939,5,0,0:0:0:0:
400,160,108042,1,0,0:0:0:0:
408,192,108146,1,0,0:0:0:0:
304,296,108353,1,0,0:0:0:0:
272,288,108456,1,0,0:0:0:0:
240,280,108560,1,0,0:0:0:0:
104,280,108766,2,0,L|88:240,2,42.5
136,272,109077,2,0,L|184:248,3,42.5
256,112,109594,6,0,P|272:72|320:48,1,85
432,112,110008,1,0,0:0:0:0:
432,144,110111,1,0,0:0:0:0:
432,176,110215,2,0,P|416:240|376:256,1,85
272,296,110628,1,0,0:0:0:0:
176,208,110835,1,0,0:0:0:0:
168,176,110939,1,0,0:0:0:0:
160,144,111042,1,0,0:0:0:0:
280,72,111249,5,0,0:0:0:0:
312,64,111353,1,0,0:0:0:0:
344,56,111456,2,0,P|400:56|432:96,1,85
424,200,111870,2,0,P|416:256|368:296,2,85
408,176,112387,1,0,0:0:0:0:
384,152,112491,1,0,0:0:0:0:
360,136,112594,1,0,0:0:0:0:
336,120,112697,1,0,0:0:0:0:
312,112,112801,1,0,0:0:0:0:
288,104,112904,1,0,0:0:0:0:
144,64,113111,5,0,0:0:0:0:
128,88,113215,1,0,0:0:0:0:
112,112,113318,1,0,0:0:0:0:
104,144,113422,1,0,0:0:0:0:
104,176,113525,1,0,0:0:0:0:
112,208,113628,1,0,0:0:0:0:
120,240,113732,1,0,0:0:0:0:
128,272,113835,1,0,0:0:0:0:
152,296,113939,1,0,0:0:0:0:
176,312,114042,1,0,0:0:0:0:
200,320,114146,1,0,0:0:0:0:
232,320,114249,1,0,0:0:0:0:
264,320,114353,1,0,0:0:0:0:
296,320,114456,1,0,0:0:0:0:
328,320,114560,1,0,0:0:0:0:
360,320,114663,1,0,0:0:0:0:
392,304,114766,6,0,P|440:264|448:208,1,106.25
448,184,115077,1,0,0:0:0:0:
448,144,115180,1,0,0:0:0:0:
360,48,115387,1,0,0:0:0:0:
328,64,115491,1,0,0:0:0:0:
296,80,115594,1,0,0:0:0:0:
264,96,115697,1,0,0:0:0:0:
232,112,115801,1,0,0:0:0:0:
200,128,115904,1,0,0:0:0:0:
160,136,116008,6,0,P|104:152|88:216,1,106.25
168,288,116422,1,0,0:0:0:0:
320,272,116732,5,0,0:0:0:0:
344,248,116835,1,0,0:0:0:0:
400,136,117042,1,0,0:0:0:0:
376,112,117146,1,0,0:0:0:0:
344,88,117249,1,0,0:0:0:0:
312,72,117353,1,0,0:0:0:0:
272,64,117456,1,0,0:0:0:0:
232,64,117560,1,0,0:0:0:0:
192,72,117663,6,0,P|136:80|96:144,1,106.25
112,232,118077,2,0,P|144:184|200:168,1,106.25
224,160,118387,1,0,0:0:0:0:
264,168,118491,1,0,0:0:0:0:
296,184,118594,1,0,0:0:0:0:
320,208,118697,1,0,0:0:0:0:
416,288,118904,6,0,P|448:240|432:176,1,106.25
432,160,119215,1,0,0:0:0:0:
416,128,119318,2,0,P|400:64|344:40,1,106.25
328,40,119628,1,0,0:0:0:0:
288,40,119732,1,0,0:0:0:0:
144,48,119939,5,0,0:0:0:0:
120,80,120042,1,0,0:0:0:0:
104,112,120146,1,0,0:0:0:0:
112,248,120353,1,0,0:0:0:0:
128,280,120456,1,0,0:0:0:0:
152,304,120560,1,0,0:0:0:0:
320,312,120766,1,0,0:0:0:0:
344,288,120870,1,0,0:0:0:0:
360,256,120973,1,0,0:0:0:0:
368,216,121077,1,0,0:0:0:0:
368,176,121180,1,0,0:0:0:0:
360,136,121284,1,0,0:0:0:0:
344,104,121387,1,0,0:0:0:0:
152,72,121697,5,0,0:0:0:0:
136,104,121801,1,0,0:0:0:0:
136,232,122008,1,0,0:0:0:0:
152,264,122111,1,0,0:0:0:0:
184,288,122215,1,0,0:0:0:0:
216,296,122318,1,0,0:0:0:0:
256,296,122422,1,0,0:0:0:0:
296,288,122525,1,0,0:0:0:0:
336,280,122628,2,0,P|392:264|416:200,1,106.25
416,120,123042,2,0,P|416:64|360:40,1,106.25
344,40,123353,1,0,0:0:0:0:
304,48,123456,1,0,0:0:0:0:
112,64,123663,5,0,0:0:0:0:
112,104,123766,1,0,0:0:0:0:
112,144,123870,1,0,0:0:0:0:
112,184,123973,1,0,0:0:0:0:
112,224,124077,1,0,0:0:0:0:
112,264,124180,1,0,0:0:0:0:
112,304,124284,1,0,0:0:0:0:
240,296,124491,1,0,0:0:0:0:
272,280,124594,1,0,0:0:0:0:
304,264,124697,1,0,0:0:0:0:
408,224,125008,6,0,L|440:176,1,53.125
384,64,125318,1,0,0:0:0:0:
352,88,125422,1,0,0:0:0:0:
328,112,125525,1,0,0:0:0:0:
304,144,125628,1,0,0:0:0:0:
288,176,125732,2,0,P|256:232|192:240,1,106.25
128,144,126146,2,0,P|80:176|64:248,1,106.25
216,256,126560,1,0,0:0:0:0:
368,304,126766,5,0,0:0:0:0:
392,280,126870,1,0,0:0:0:0:
408,248,126973,1,0,0:0:0:0:
424,216,127077,1,0,0:0:0:0:
432,176,127180,1,0,0:0:0:0:
424,136,127284,1,0,0:0:0:0:
400,104,127387,2,0,L|368:72,12,26.5625
64,160,128318,5,0,0:0:0:0:
96,176,128422,2,0,P|144:208|152:272,1,106.25
176,280,128732,1,0,0:0:0:0:
200,304,128835,1,0,0:0:0:0:
232,320,128939,1,0,0:0:0:0:
264,328,129042,1,0,0:0:0:0:
304,328,129146,1,0,0:0:0:0:
344,328,129249,1,0,0:0:0:0:
416,144,129456,6,0,L|376:96,2,53.125
424,176,129766,1,0,0:0:0:0:
424,216,129870,1,0,0:0:0:0:
408,248,129973,1,0,0:0:0:0:
376,264,130077,1,0,0:0:0:0:
192,128,130284,6,0,L|232:80,2,53.125
176,160,130594,1,0,0:0:0:0:
160,192,130697,1,0,0:0:0:0:
176,224,130801,1,0,0:0:0:0:
192,256,130904,2,0,P|232:304|296:312,1,106.25
312,312,131215,1,0,0:0:0:0:
352,304,131318,1,0,0:0:0:0:
368,80,131628,5,0,0:0:0:0:
336,96,131732,1,0,0:0:0:0:
192,96,131939,2,0,L|144:144,1,53.125
144,168,132146,2,0,L|144:240,1,53.125
152,256,132353,2,0,L|192:304,1,53.125
224,304,132560,2,0,L|296:304,1,53.125
312,304,132766,1,0,0:0:0:0:
400,128,132973,1,0,0:0:0:0:
248,88,133180,5,0,0:0:0:0:
216,104,133284,1,0,0:0:0:0:
184,120,133387,1,0,0:0:0:0:
200,272,133594,2,0,L|248:304,4,53.125
168,248,134111,1,0,0:0:0:0:
136,224,134215,2,0,P|80:184|80:136,1,106.25
88,120,134525,1,0,0:0:0:0:
120,96,134628,6,0,P|192:64|240:104,1,106.25
240,96,134939,1,0,0:0:0:0:
264,120,135042,2,0,P|304:160|368:152,1,106.25
392,168,135353,1,0,0:0:0:0:
424,192,135456,2,0,P|464:240|440:304,1,106.25
440,312,135766,1,0,0:0:0:0:
408,328,135870,1,0,0:0:0:0:
168,304,136077,5,0,0:0:0:0:
152,272,136180,1,0,0:0:0:0:
136,240,136284,1,0,0:0:0:0:
208,104,136491,2,0,L|176:56,2,53.125
240,128,136801,1,0,0:0:0:0:
264,152,136904,1,0,0:0:0:0:
288,176,137008,1,0,0:0:0:0:
312,200,137111,1,0,0:0:0:0:
424,128,137318,5,0,0:0:0:0:
424,168,137422,1,0,0:0:0:0:
424,208,137525,1,0,0:0:0:0:
320,280,137732,2,0,P|264:296|200:256,1,106.25
120,208,138146,1,0,0:0:0:0:
120,168,138249,1,0,0:0:0:0:
120,128,138353,1,0,0:0:0:0:
216,80,138560,2,0,P|264:56|320:80,1,106.25
344,208,138973,5,0,0:0:0:0:
328,240,139077,1,0,0:0:0:0:
320,272,139180,1,0,0:0:0:0:
168,280,139387,2,0,L|224:320,2,53.125
120,128,139801,1,0,0:0:0:0:
152,112,139904,1,0,0:0:0:0:
184,104,140008,1,0,0:0:0:0:
224,96,140111,1,0,0:0:0:0:
264,88,140215,1,0,0:0:0:0:
304,88,140318,1,0,0:0:0:0:
344,96,140422,1,0,0:0:0:0:
376,112,140525,1,0,0:0:0:0:
392,144,140628,1,0,0:0:0:0:
400,176,140732,1,0,0:0:0:0:
416,208,140835,1,0,0:0:0:0:
416,248,140939,1,0,0:0:0:0:
400,280,141042,1,0,0:0:0:0:
368,304,141146,1,0,0:0:0:0:
336,328,141249,6,0,P|272:336|240:296,1,106.25
168,248,141663,2,0,P|168:184|136:136,1,106.25
120,120,141973,1,0,0:0:0:0:
88,96,142077,1,0,0:0:0:0:
288,96,142284,1,0,0:0:0:0:
320,112,142387,1,0,0:0:0:0:
352,128,142491,1,0,0:0:0:0:
416,256,142697,6,0,L|464:224,2,53.125
384,280,143008,1,0,0:0:0:0:
352,304,143111,1,0,0:0:0:0:
320,320,143215,1,0,0:0:0:0:
280,328,143318,1,0,0:0:0:0:
240,328,143422,1,0,0:0:0:0:
200,328,143525,1,0,0:0:0:0:
168,312,143628,1,0,0:0:0:0:
136,296,143732,1,0,0:0:0:0:
96,152,143939,5,0,0:0:0:0:
120,128,144042,1,0,0:0:0:0:
152,112,144146,1,0,0:0:0:0:
304,88,144353,1,0,0:0:0:0:
336,112,144456,1,0,0:0:0:0:
368,128,144560,1,0,0:0:0:0:
424,256,144766,2,0,P|392:304|320:320,1,106.25
168,312,145180,5,0,0:0:0:0:
144,280,145284,1,0,0:0:0:0:
120,248,145387,1,0,0:0:0:0:
104,216,145491,1,0,0:0:0:0:
104,176,145594,1,0,0:0:0:0:
112,136,145697,1,0,0:0:0:0:
136,104,145801,1,0,0:0:0:0:
168,88,145904,1,0,0:0:0:0:
200,72,146008,2,0,P|256:56|336:80,1,106.25
336,72,146318,1,0,0:0:0:0:
368,88,146422,2,0,P|424:128|440:192,1,106.25
344,312,146835,5,0,0:0:0:0:
176,288,147042,5,0,0:0:0:0:
152,264,147146,1,0,0:0:0:0:
120,240,147249,1,0,0:0:0:0:
96,208,147353,1,0,0:0:0:0:
104,176,147456,2,0,L|96:128,8,26.5625
256,56,148077,6,0,P|296:88|296:152,1,85
384,240,148491,2,0,P|368:304|328:320,1,85
208,288,148904,2,0,P|240:248|248:200,1,85
240,64,149318,2,0,P|200:88|184:160,1,85
88,296,149732,2,0,P|72:240|104:192,1,85
152,64,150146,2,0,P|128:112|152:168,1,85
232,224,150560,2,0,P|264:272|320:288,1,85
400,208,150973,1,0,0:0:0:0:
320,80,151180,1,0,0:0:0:0:
200,72,151387,6,0,P|144:96|120:144,1,85
112,304,151801,2,0,P|152:256|200:240,1,85
336,296,152215,2,0,P|384:280|416:216,1,85
384,104,152628,2,0,P|336:72|280:72,1,85
136,88,153042,2,0,P|96:112|80:168,1,85
160,288,153456,2,0,P|184:240|240:200,1,85
360,232,153870,2,0,P|408:184|416:136,1,85
256,48,154284,1,0,0:0:0:0:
128,176,154491,1,0,0:0:0:0:
248,312,154697,6,0,P|272:264|256:208,1,85
120,128,155111,2,0,P|152:88|208:80,1,85
352,56,155525,2,0,P|408:72|424:112,1,85
408,264,155939,2,0,P|352:264|328:224,1,85
184,288,156353,2,0,P|128:280|120:232,1,85
112,80,156766,2,0,P|160:56|224:72,1,85
408,64,157180,2,0,P|352:64|312:96,1,85
224,176,157594,1,0,0:0:0:0:
336,312,157801,1,0,0:0:0:0:
400,168,158008,6,0,P|384:104|352:80,1,85
200,56,158422,2,0,P|160:72|136:128,1,85
80,256,158835,2,0,P|120:304|168:320,1,85
304,304,159249,5,0,0:0:0:0:
320,280,159353,1,0,0:0:0:0:
336,256,159456,1,0,0:0:0:0:
408,152,159663,2,0,P|424:96|392:64,1,85
280,56,160077,5,0,0:0:0:0:
248,64,160180,1,0,0:0:0:0:
216,64,160284,1,0,0:0:0:0:
184,72,160387,1,0,0:0:0:0:
152,80,160491,1,0,0:0:0:0:
128,96,160594,1,0,0:0:0:0:
104,112,160697,1,0,0:0:0:0:
88,136,160801,1,0,0:0:0:0:
80,168,160904,1,0,0:0:0:0:
80,200,161008,1,0,0:0:0:0:
88,232,161111,6,0,P|144:296|232:288,1,148.750001418591
256,304,161422,1,0,0:0:0:0:
304,304,161525,2,0,P|384:304|432:240,1,148.750001418591
424,208,161835,1,0,0:0:0:0:
416,152,161939,1,0,0:0:0:0:
384,112,162042,1,0,0:0:0:0:
344,80,162146,1,0,0:0:0:0:
296,72,162249,1,0,0:0:0:0:
248,64,162353,1,0,0:0:0:0:
72,152,162560,5,0,0:0:0:0:
96,200,162663,1,0,0:0:0:0:
120,248,162766,1,0,0:0:0:0:
296,288,162973,1,0,0:0:0:0:
344,272,163077,1,0,0:0:0:0:
392,256,163180,1,0,0:0:0:0:
344,80,163387,1,0,0:0:0:0:
296,64,163491,1,0,0:0:0:0:
248,64,163594,1,0,0:0:0:0:
200,64,163697,1,0,0:0:0:0:
144,64,163801,1,0,0:0:0:0:
96,88,163904,1,0,0:0:0:0:
64,128,164008,1,0,0:0:0:0:
120,288,164215,1,0,0:0:0:0:
304,320,164422,5,0,0:0:0:0:
352,312,164525,1,0,0:0:0:0:
384,272,164628,1,0,0:0:0:0:
408,224,164732,1,0,0:0:0:0:
416,176,164835,1,0,0:0:0:0:
408,128,164939,1,0,0:0:0:0:
368,96,165042,1,0,0:0:0:0:
328,64,165146,1,0,0:0:0:0:
280,64,165249,1,0,0:0:0:0:
240,96,165353,1,0,0:0:0:0:
232,144,165456,1,0,0:0:0:0:
232,200,165560,1,0,0:0:0:0:
232,248,165663,1,0,0:0:0:0:
200,288,165766,1,0,0:0:0:0:
152,296,165870,1,0,0:0:0:0:
104,280,165973,1,0,0:0:0:0:
72,240,166077,1,0,0:0:0:0:
64,192,166180,1,0,0:0:0:0:
64,136,166284,1,0,0:0:0:0:
72,88,166387,1,0,0:0:0:0:
112,48,166491,1,0,0:0:0:0:
160,40,166594,1,0,0:0:0:0:
208,40,166697,1,0,0:0:0:0:
264,40,166801,1,0,0:0:0:0:
312,40,166904,1,0,0:0:0:0:
400,104,167111,5,0,0:0:0:0:
432,144,167215,1,0,0:0:0:0:
440,192,167318,1,0,0:0:0:0:
368,296,167525,2,0,P|280:336|176:304,1,148.750001418591
184,312,167835,1,0,0:0:0:0:
136,296,167939,1,0,0:0:0:0:
96,264,168042,1,0,0:0:0:0:
72,216,168146,1,0,0:0:0:0:
64,168,168249,1,0,0:0:0:0:
80,120,168353,1,0,0:0:0:0:
112,80,168456,1,0,0:0:0:0:
160,56,168560,1,0,0:0:0:0:
208,48,168663,1,0,0:0:0:0:
256,48,168766,1,0,0:0:0:0:
304,40,168870,1,0,0:0:0:0:
352,48,168973,1,0,0:0:0:0:
392,80,169077,1,0,0:0:0:0:
424,120,169180,1,0,0:0:0:0:
432,168,169284,1,0,0:0:0:0:
432,216,169387,1,0,0:0:0:0:
288,304,169594,5,0,0:0:0:0:
248,272,169697,1,0,0:0:0:0:
200,248,169801,1,0,0:0:0:0:
120,112,170008,2,0,L|176:48,4,74.3750007092953
96,160,170525,2,0,L|80:232,4,74.3750007092953
152,160,171042,6,0,P|208:216|272:176,1,148.750001418591
280,144,171353,1,0,0:0:0:0:
296,96,171456,1,0,0:0:0:0:
416,64,171663,5,0,0:0:0:0:
416,112,171766,1,0,0:0:0:0:
408,160,171870,1,0,0:0:0:0:
392,208,171973,1,0,0:0:0:0:
376,256,172077,1,0,0:0:0:0:
352,296,172180,1,0,0:0:0:0:
304,320,172284,1,0,0:0:0:0:
136,320,172491,5,0,0:0:0:0:
104,280,172594,1,0,0:0:0:0:
72,240,172697,1,0,0:0:0:0:
88,96,172904,2,0,P|160:48|256:80,1,148.750001418591
392,80,173318,5,0,0:0:0:0:
344,88,173422,1,0,0:0:0:0:
296,96,173525,1,0,0:0:0:0:
248,104,173628,1,0,0:0:0:0:
200,112,173732,1,0,0:0:0:0:
152,120,173835,1,0,0:0:0:0:
104,144,173939,1,0,0:0:0:0:
80,192,174042,1,0,0:0:0:0:
72,240,174146,1,0,0:0:0:0:
96,272,174249,1,0,0:0:0:0:
120,296,174353,2,0,P|200:336|280:328,1,148.750001418591
312,336,174663,1,0,0:0:0:0:
360,328,174766,1,0,0:0:0:0:
400,296,174870,1,0,0:0:0:0:
416,248,174973,1,0,0:0:0:0:
424,200,175077,1,0,0:0:0:0:
416,152,175180,1,0,0:0:0:0:
384,112,175284,1,0,0:0:0:0:
344,80,175387,1,0,0:0:0:0:
296,64,175491,1,0,0:0:0:0:
248,48,175594,1,0,0:0:0:0:
200,40,175697,1,0,0:0:0:0:
152,48,175801,1,0,0:0:0:0:
112,72,175904,1,0,0:0:0:0:
80,112,176008,1,0,0:0:0:0:
64,160,176111,1,0,0:0:0:0:
64,216,176215,1,0,0:0:0:0:
88,264,176318,1,0,0:0:0:0:
128,304,176422,1,0,0:0:0:0:
176,320,176525,1,0,0:0:0:0:
224,328,176628,1,0,0:0:0:0:
280,328,176732,1,0,0:0:0:0:
328,328,176835,1,0,0:0:0:0:
376,304,176939,1,0,0:0:0:0:
392,256,177042,2,0,L|392:168,6,74.3750007092953
256,192,189249,12,0,190697,0:0:0:0:
392,80,190904,6,0,P|440:120|448:176,1,106.25
448,200,191215,1,0,0:0:0:0:
448,240,191318,1,0,0:0:0:0:
360,336,191525,1,0,0:0:0:0:
328,320,191628,1,0,0:0:0:0:
296,304,191732,1,0,0:0:0:0:
264,288,191835,1,0,0:0:0:0:
232,272,191939,1,0,0:0:0:0:
200,256,192042,1,0,0:0:0:0:
160,248,192146,6,0,P|104:232|88:168,1,106.25
168,96,192560,1,0,0:0:0:0:
320,112,192870,5,0,0:0:0:0:
344,136,192973,1,0,0:0:0:0:
400,248,193180,1,0,0:0:0:0:
376,272,193284,1,0,0:0:0:0:
344,296,193387,1,0,0:0:0:0:
312,312,193491,1,0,0:0:0:0:
272,320,193594,1,0,0:0:0:0:
232,320,193697,1,0,0:0:0:0:
192,312,193801,6,0,P|136:304|96:240,1,106.25
112,152,194215,2,0,P|144:200|200:216,1,106.25
224,224,194525,1,0,0:0:0:0:
264,216,194628,1,0,0:0:0:0:
296,200,194732,1,0,0:0:0:0:
320,176,194835,1,0,0:0:0:0:
416,96,195042,6,0,P|448:144|432:208,1,106.25
432,224,195353,1,0,0:0:0:0:
416,256,195456,2,0,P|400:320|344:344,1,106.25
328,344,195766,1,0,0:0:0:0:
288,344,195870,1,0,0:0:0:0:
144,336,196077,5,0,0:0:0:0:
120,304,196180,1,0,0:0:0:0:
104,272,196284,1,0,0:0:0:0:
112,136,196491,1,0,0:0:0:0:
128,104,196594,1,0,0:0:0:0:
152,80,196697,1,0,0:0:0:0:
320,72,196904,1,0,0:0:0:0:
344,96,197008,1,0,0:0:0:0:
360,128,197111,1,0,0:0:0:0:
368,168,197215,1,0,0:0:0:0:
368,208,197318,1,0,0:0:0:0:
360,248,197422,1,0,0:0:0:0:
344,280,197525,1,0,0:0:0:0:
152,312,197835,5,0,0:0:0:0:
136,280,197939,1,0,0:0:0:0:
136,152,198146,1,0,0:0:0:0:
152,120,198249,1,0,0:0:0:0:
184,96,198353,1,0,0:0:0:0:
216,88,198456,1,0,0:0:0:0:
256,88,198560,1,0,0:0:0:0:
296,96,198663,1,0,0:0:0:0:
336,104,198766,2,0,P|392:120|416:184,1,106.25
416,264,199180,2,0,P|416:320|360:344,1,106.25
344,344,199491,1,0,0:0:0:0:
304,336,199594,1,0,0:0:0:0:
112,320,199801,5,0,0:0:0:0:
112,280,199904,1,0,0:0:0:0:
112,240,200008,1,0,0:0:0:0:
112,200,200111,1,0,0:0:0:0:
112,160,200215,1,0,0:0:0:0:
112,120,200318,1,0,0:0:0:0:
112,80,200422,1,0,0:0:0:0:
240,88,200628,1,0,0:0:0:0:
272,104,200732,1,0,0:0:0:0:
304,120,200835,1,0,0:0:0:0:
408,160,201146,6,0,L|440:208,1,53.125
384,320,201456,1,0,0:0:0:0:
352,296,201560,1,0,0:0:0:0:
328,272,201663,1,0,0:0:0:0:
304,240,201766,1,0,0:0:0:0:
280,216,201870,2,0,P|248:160|184:152,1,106.25
144,112,202284,2,0,P|176:56|240:48,1,106.25
256,40,202594,5,0,0:0:0:0:
296,48,202697,1,0,0:0:0:0:
336,56,202801,1,0,0:0:0:0:
368,72,202904,1,0,0:0:0:0:
392,104,203008,1,0,0:0:0:0:
408,136,203111,1,0,0:0:0:0:
424,168,203215,1,0,0:0:0:0:
432,208,203318,1,0,0:0:0:0:
424,248,203422,1,0,0:0:0:0:
408,280,203525,2,0,L|392:320,12,26.5625
64,224,204456,5,0,0:0:0:0:
96,208,204560,2,0,P|144:176|152:112,1,106.25
176,104,204870,1,0,0:0:0:0:
200,80,204973,1,0,0:0:0:0:
232,64,205077,1,0,0:0:0:0:
264,56,205180,1,0,0:0:0:0:
304,56,205284,1,0,0:0:0:0:
344,56,205387,1,0,0:0:0:0:
416,240,205594,6,0,L|376:288,2,53.125
424,208,205904,1,0,0:0:0:0:
424,168,206008,1,0,0:0:0:0:
408,136,206111,1,0,0:0:0:0:
376,120,206215,1,0,0:0:0:0:
192,256,206422,6,0,L|232:304,2,53.125
176,224,206732,1,0,0:0:0:0:
160,192,206835,1,0,0:0:0:0:
176,160,206939,1,0,0:0:0:0:
192,128,207042,2,0,P|232:80|296:72,1,106.25
312,72,207353,1,0,0:0:0:0:
352,80,207456,1,0,0:0:0:0:
368,304,207766,5,0,0:0:0:0:
336,288,207870,1,0,0:0:0:0:
192,288,208077,2,0,L|144:240,1,53.125
144,216,208284,2,0,L|144:144,1,53.125
152,128,208491,2,0,L|192:80,1,53.125
224,80,208697,2,0,L|296:80,1,53.125
312,80,208904,1,0,0:0:0:0:
400,256,209111,1,0,0:0:0:0:
248,296,209318,5,0,0:0:0:0:
216,280,209422,1,0,0:0:0:0:
184,264,209525,1,0,0:0:0:0:
200,112,209732,2,0,L|248:80,4,53.125
168,136,210249,1,0,0:0:0:0:
136,160,210353,2,0,P|80:200|80:248,1,106.25
88,264,210663,1,0,0:0:0:0:
120,288,210766,6,0,P|192:320|240:280,1,106.25
240,288,211077,1,0,0:0:0:0:
264,264,211180,2,0,P|304:224|368:232,1,106.25
392,216,211491,1,0,0:0:0:0:
424,192,211594,2,0,P|464:144|440:80,1,106.25
440,72,211904,1,0,0:0:0:0:
408,56,212008,1,0,0:0:0:0:
168,80,212215,5,0,0:0:0:0:
152,112,212318,1,0,0:0:0:0:
136,144,212422,1,0,0:0:0:0:
208,280,212628,2,0,L|176:328,2,53.125
240,256,212939,1,0,0:0:0:0:
264,232,213042,1,0,0:0:0:0:
288,208,213146,1,0,0:0:0:0:
312,184,213249,1,0,0:0:0:0:
424,256,213456,5,0,0:0:0:0:
424,216,213560,1,0,0:0:0:0:
424,176,213663,1,0,0:0:0:0:
320,104,213870,2,0,P|264:88|200:128,1,106.25
120,176,214284,1,0,0:0:0:0:
120,216,214387,1,0,0:0:0:0:
120,256,214491,1,0,0:0:0:0:
224,320,214697,1,0,0:0:0:0:
264,320,214801,1,0,0:0:0:0:
304,320,214904,1,0,0:0:0:0:
328,288,215008,5,0,0:0:0:0:
352,264,215111,1,0,0:0:0:0:
376,232,215215,1,0,0:0:0:0:
392,200,215318,1,0,0:0:0:0:
400,168,215422,1,0,0:0:0:0:
400,128,215525,1,0,0:0:0:0:
376,104,215628,1,0,0:0:0:0:
352,80,215732,1,0,0:0:0:0:
320,64,215835,1,0,0:0:0:0:
280,56,215939,1,0,0:0:0:0:
240,56,216042,1,0,0:0:0:0:
200,56,216146,1,0,0:0:0:0:
160,56,216249,1,0,0:0:0:0:
128,72,216353,1,0,0:0:0:0:
104,104,216456,1,0,0:0:0:0:
80,136,216560,1,0,0:0:0:0:
72,168,216663,1,0,0:0:0:0:
72,208,216766,1,0,0:0:0:0:
88,240,216870,1,0,0:0:0:0:
112,272,216973,1,0,0:0:0:0:
144,296,217077,1,0,0:0:0:0:
176,312,217180,1,0,0:0:0:0:
360,208,217387,6,0,P|296:200|264:240,1,106.25
168,136,217801,2,0,P|168:200|136:248,1,106.25
120,264,218111,1,0,0:0:0:0:
88,288,218215,1,0,0:0:0:0:
288,288,218422,1,0,0:0:0:0:
320,272,218525,1,0,0:0:0:0:
352,256,218628,1,0,0:0:0:0:
416,128,218835,6,0,L|464:160,2,53.125
384,104,219146,1,0,0:0:0:0:
352,80,219249,1,0,0:0:0:0:
320,64,219353,1,0,0:0:0:0:
280,56,219456,1,0,0:0:0:0:
240,56,219560,1,0,0:0:0:0:
200,56,219663,1,0,0:0:0:0:
168,72,219766,1,0,0:0:0:0:
136,88,219870,1,0,0:0:0:0:
96,232,220077,5,0,0:0:0:0:
120,256,220180,1,0,0:0:0:0:
152,272,220284,1,0,0:0:0:0:
304,296,220491,1,0,0:0:0:0:
336,272,220594,1,0,0:0:0:0:
368,256,220697,1,0,0:0:0:0:
424,128,220904,2,0,P|392:80|320:64,1,106.25
168,72,221318,5,0,0:0:0:0:
144,104,221422,1,0,0:0:0:0:
120,136,221525,1,0,0:0:0:0:
104,168,221628,1,0,0:0:0:0:
104,208,221732,1,0,0:0:0:0:
112,248,221835,1,0,0:0:0:0:
136,280,221939,1,0,0:0:0:0:
168,296,222042,1,0,0:0:0:0:
208,304,222146,1,0,0:0:0:0:
240,288,222249,1,0,0:0:0:0:
272,272,222353,1,0,0:0:0:0:
288,240,222456,1,0,0:0:0:0:
304,208,222560,1,0,0:0:0:0:
312,176,222663,1,0,0:0:0:0:
304,136,222766,1,0,0:0:0:0:
296,104,222870,1,0,0:0:0:0:
264,88,222973,1,0,0:0:0:0:
224,80,223077,1,0,0:0:0:0:
176,96,223180,6,0,L|144:128,16,26.5625
256,192,224111,12,0,228973,0:0:0:0:
