osu file format v12

[General]
AudioFilename: fripSide - eternal reality.mp3
AudioLeadIn: 0
PreviewTime: 51834
Countdown: 1
SampleSet: Soft
StackLeniency: 0.7
Mode: 0
LetterboxInBreaks: 1
WidescreenStoryboard: 1

[Editor]
DistanceSpacing: 0.7
BeatDivisor: 4
GridSize: 8

[Metadata]
Title:Eternal Reality
TitleUnicode:Eternal Reality
Artist:fripSide
ArtistUnicode:fripSide
Creator:4 X
Version:Easy
Source:Toaru Kagaku no Railgun S
Tags:fripSide Eternal Reality Toaru Kagaku no Railgun S Misaka Mikoto Shirai Kuroko Saten Ruiko Uiharu Kazari
BeatmapID:342163
BeatmapSetID:136764

[Difficulty]
HPDrainRate:4
CircleSize:4
OverallDifficulty:4
ApproachRate:5
SliderMultiplier:1.2
SliderTickRate:4

[Events]
//Background and Video events
0,0,"BG.jpg",0,0
//Break Periods
2,148070,188049
//Storyboard Layer 0 (Background)
//Storyboard Layer 1 (Fail)
//Storyboard Layer 2 (Pass)
//Storyboard Layer 3 (Foreground)
//Storyboard Sound Samples
//Background Colour Transformations
3,100,163,162,255

[TimingPoints]
560,413.793103448276,4,2,1,100,1,0
560,-100,4,2,1,100,0,0
51834,-80,4,2,1,100,0,1
58248,-80,4,2,1,100,0,0
58455,-80,4,2,1,100,0,1
64868,-80,4,2,1,100,0,0
65075,-80,4,2,1,100,0,1
78110,-80,4,2,1,100,0,0
78317,-80,4,2,1,100,0,1
84730,-80,4,2,1,100,0,0
84937,-80,4,2,1,100,0,1
86386,-80,4,2,1,100,0,0
86592,-100,4,2,1,100,0,1
86799,-100,4,2,1,100,0,0
114730,-80,4,2,1,100,0,1
127765,-80,4,2,1,100,0,0
127972,-80,4,2,1,100,0,1
141006,-80,4,2,1,100,0,0
141213,-80,4,2,1,100,0,1
147627,-80,4,2,1,100,0,0
147834,-100,4,2,1,100,0,1
148041,-100,4,2,1,100,0,0
161075,-57.1428571428571,4,2,1,100,0,1
177627,-100,4,2,1,100,0,1
177834,-100,4,2,1,100,0,0
184248,-100,4,2,1,100,0,1
184455,-100,4,2,1,100,0,0
190868,-80,4,2,1,100,0,1
203903,-80,4,2,1,100,0,0
204110,-80,4,2,1,100,0,1
217144,-80,4,2,1,100,0,0
217351,-80,4,2,1,100,0,1
224075,-80,4,2,1,5,0,1
228937,-80,4,2,1,5,0,0

[HitObjects]
256,192,2215,1,0,0:0:0:0:
152,280,3456,6,0,P|88:232|80:184,1,120
104,112,4284,1,0,0:0:0:0:
176,64,4697,1,0,0:0:0:0:
328,80,5111,5,0,0:0:0:0:
360,104,5318,1,0,0:0:0:0:
392,136,5525,2,0,P|448:200|440:248,1,120
424,264,6146,1,0,0:0:0:0:
264,312,6560,6,0,L|192:280,1,60
208,224,6973,2,0,L|152:200,1,60
88,152,7594,1,0,0:0:0:0:
224,80,8008,6,0,P|264:64|352:88,1,120
424,160,8835,2,0,L|432:296,1,120
312,296,9663,2,0,L|312:168,1,120
208,136,10491,6,0,L|208:272,1,120
88,288,11318,2,0,L|88:152,1,120
160,56,12146,6,0,L|280:56,1,120
392,80,12973,2,0,L|392:208,1,120
312,304,13801,1,0,0:0:0:0:
232,224,14215,1,0,0:0:0:0:
120,200,14628,1,0,0:0:0:0:
128,72,15042,1,0,0:0:0:0:
240,64,15456,6,0,L|368:64,1,120
432,112,16284,2,0,L|432:232,1,120
360,320,17111,2,0,L|264:216,1,120
152,224,17939,2,0,L|64:136,1,120
256,192,18766,12,0,22077,0:0:0:0:
256,192,22284,12,0,23732,0:0:0:0:
256,192,25180,5,0,0:0:0:0:
256,192,25387,1,0,0:0:0:0:
256,192,27042,5,0,0:0:0:0:
256,192,28491,5,0,0:0:0:0:
256,192,28697,1,0,0:0:0:0:
384,288,29525,6,0,L|384:160,1,120
376,64,30353,2,0,L|256:64,1,120
136,80,31180,1,0,0:0:0:0:
96,192,31594,2,0,L|96:328,1,120
208,328,32422,2,0,L|336:328,1,120
416,248,33249,1,0,0:0:0:0:
416,112,33663,1,0,0:0:0:0:
288,104,34077,6,0,L|224:48,4,60
256,192,35111,12,0,36973,0:0:0:0:
360,296,37387,5,0,0:0:0:0:
408,192,37801,1,0,0:0:0:0:
360,88,38215,1,0,0:0:0:0:
256,192,38628,5,0,0:0:0:0:
256,192,39042,1,0,0:0:0:0:
152,88,39456,5,0,0:0:0:0:
112,192,39870,1,0,0:0:0:0:
152,304,40284,1,0,0:0:0:0:
272,320,40697,6,0,L|368:240,1,120
304,160,41525,2,0,L|400:64,1,120
256,56,42353,1,0,0:0:0:0:
152,104,42766,1,0,0:0:0:0:
88,192,43180,6,0,L|88:256,4,60
200,144,44422,1,0,0:0:0:0:
296,56,44835,2,0,P|360:56|416:96,1,120
432,208,45663,2,0,P|432:272|384:320,1,120
272,312,46491,2,0,L|152:312,1,120
88,240,47318,2,0,P|72:192|104:128,1,120
192,56,48146,2,0,P|272:56|320:88,1,120
304,208,48973,1,0,0:0:0:0:
392,272,49387,1,0,0:0:0:0:
304,320,49801,1,0,0:0:0:0:
256,192,50215,12,0,51870,0:0:0:0:
136,272,52697,5,0,0:0:0:0:
96,168,53111,1,0,0:0:0:0:
144,64,53525,1,0,0:0:0:0:
280,64,54353,6,0,L|440:64,2,150
288,168,56008,6,0,P|360:168|416:248,4,150
176,160,58077,1,0,0:0:0:0:
144,304,58491,1,0,0:0:0:0:
336,296,59318,5,0,0:0:0:0:
384,176,59732,1,0,0:0:0:0:
320,64,60146,1,0,0:0:0:0:
208,64,60973,6,0,L|56:64,2,150
192,152,62628,6,0,P|136:152|80:240,4,150
280,208,64697,1,0,0:0:0:0:
320,296,65111,1,0,0:0:0:0:
368,104,65939,5,0,0:0:0:0:
256,64,66353,1,0,0:0:0:0:
152,104,66766,1,0,0:0:0:0:
80,168,67594,6,0,L|80:320,2,150
168,168,69249,6,0,P|168:240|232:304,4,150
248,96,71318,1,0,0:0:0:0:
296,192,71732,1,0,0:0:0:0:
144,264,72560,5,0,0:0:0:0:
256,312,72973,1,0,0:0:0:0:
368,248,73387,1,0,0:0:0:0:
424,208,74215,6,0,L|424:48,2,150
320,184,75870,6,0,P|320:120|256:56,4,150
224,240,77939,1,0,0:0:0:0:
144,160,78353,1,0,0:0:0:0:
80,64,78766,6,0,L|232:64,1,150
224,152,79594,2,0,L|376:152,1,150
448,160,80422,2,0,L|448:320,1,150
336,320,81249,2,0,L|184:320,1,150
256,192,82077,12,0,84973,0:0:0:0:
256,192,85180,12,0,86628,0:0:0:0:
256,192,88077,5,0,0:0:0:0:
256,192,88284,1,0,0:0:0:0:
256,192,89939,5,0,0:0:0:0:
256,192,91388,5,0,0:0:0:0:
256,192,91594,1,0,0:0:0:0:
384,288,92422,6,0,L|384:160,1,120
376,64,93250,2,0,L|256:64,1,120
136,80,94077,1,0,0:0:0:0:
96,192,94491,2,0,L|96:328,1,120
208,328,95319,2,0,L|336:328,1,120
416,248,96146,1,0,0:0:0:0:
416,112,96560,1,0,0:0:0:0:
288,104,96974,6,0,L|224:48,4,60
256,192,98008,12,0,99870,0:0:0:0:
360,296,100284,5,0,0:0:0:0:
408,192,100698,1,0,0:0:0:0:
360,88,101112,1,0,0:0:0:0:
256,192,101525,5,0,0:0:0:0:
256,192,101939,1,0,0:0:0:0:
152,88,102353,5,0,0:0:0:0:
112,192,102767,1,0,0:0:0:0:
152,304,103181,1,0,0:0:0:0:
272,320,103594,6,0,L|368:240,1,120
304,160,104422,2,0,L|400:64,1,120
256,56,105250,1,0,0:0:0:0:
152,104,105663,1,0,0:0:0:0:
88,192,106077,6,0,L|88:256,4,60
200,144,107319,1,0,0:0:0:0:
296,56,107732,2,0,P|360:56|416:96,1,120
432,208,108560,2,0,P|432:272|384:320,1,120
272,312,109388,2,0,L|152:312,1,120
88,240,110215,2,0,P|72:192|104:128,1,120
192,56,111043,2,0,P|272:56|320:88,1,120
304,208,111870,1,0,0:0:0:0:
392,272,112284,1,0,0:0:0:0:
304,320,112698,1,0,0:0:0:0:
256,192,113112,12,0,114767,0:0:0:0:
136,272,115594,5,0,0:0:0:0:
96,168,116008,1,0,0:0:0:0:
144,64,116422,1,0,0:0:0:0:
280,64,117250,6,0,L|440:64,2,150
288,168,118905,6,0,P|360:168|416:248,4,150
176,160,120974,1,0,0:0:0:0:
144,304,121388,1,0,0:0:0:0:
336,296,122215,5,0,0:0:0:0:
384,176,122629,1,0,0:0:0:0:
320,64,123043,1,0,0:0:0:0:
208,64,123870,6,0,L|56:64,2,150
192,152,125525,6,0,P|136:152|80:240,4,150
280,208,127594,1,0,0:0:0:0:
320,296,128008,1,0,0:0:0:0:
368,104,128836,5,0,0:0:0:0:
256,64,129250,1,0,0:0:0:0:
152,104,129663,1,0,0:0:0:0:
80,168,130491,6,0,L|80:320,2,150
168,168,132146,6,0,P|168:240|232:304,4,150
248,96,134215,1,0,0:0:0:0:
296,192,134629,1,0,0:0:0:0:
144,264,135457,5,0,0:0:0:0:
256,312,135870,1,0,0:0:0:0:
368,248,136284,1,0,0:0:0:0:
424,208,137112,6,0,L|424:48,2,150
320,184,138767,6,0,P|320:120|256:56,4,150
224,240,140836,1,0,0:0:0:0:
144,160,141250,1,0,0:0:0:0:
80,64,141663,6,0,L|232:64,1,150
224,152,142491,2,0,L|376:152,1,150
448,160,143319,2,0,L|448:320,1,150
336,320,144146,2,0,L|184:320,1,150
256,192,144974,12,0,147870,0:0:0:0:
256,192,189249,12,0,190904,0:0:0:0:
136,272,191732,5,0,0:0:0:0:
96,168,192146,1,0,0:0:0:0:
144,64,192560,1,0,0:0:0:0:
280,64,193388,6,0,L|440:64,2,150
288,168,195043,6,0,P|360:168|416:248,4,150
176,160,197112,1,0,0:0:0:0:
144,304,197526,1,0,0:0:0:0:
336,296,198353,5,0,0:0:0:0:
384,176,198767,1,0,0:0:0:0:
320,64,199181,1,0,0:0:0:0:
208,64,200008,6,0,L|56:64,2,150
192,152,201663,6,0,P|136:152|80:240,4,150
280,208,203732,1,0,0:0:0:0:
320,296,204146,1,0,0:0:0:0:
368,104,204974,5,0,0:0:0:0:
256,64,205388,1,0,0:0:0:0:
152,104,205801,1,0,0:0:0:0:
80,168,206629,6,0,L|80:320,2,150
168,168,208284,6,0,P|168:240|232:304,4,150
248,96,210353,1,0,0:0:0:0:
296,192,210767,1,0,0:0:0:0:
144,264,211595,5,0,0:0:0:0:
256,312,212008,1,0,0:0:0:0:
368,248,212422,1,0,0:0:0:0:
424,208,213250,6,0,L|424:48,2,150
320,184,214905,6,0,P|320:120|256:56,4,150
224,240,216974,1,0,0:0:0:0:
144,160,217388,1,0,0:0:0:0:
80,64,217801,6,0,L|232:64,1,150
224,152,218629,2,0,L|376:152,1,150
448,160,219457,2,0,L|448:320,1,150
336,320,220284,2,0,L|184:320,1,150
256,192,221112,12,0,224008,0:0:0:0:
