osu file format v12

[General]
AudioFilename: Black Bullet.mp3
AudioLeadIn: 0
PreviewTime: -1
Countdown: 1
SampleSet: Soft
StackLeniency: 0.7
Mode: 0
LetterboxInBreaks: 1
WidescreenStoryboard: 1

[Editor]
DistanceSpacing: 1
BeatDivisor: 4
GridSize: 4
TimelineZoom: 1

[Metadata]
Title:Black Bullet (TV SIZE)
TitleUnicode:Black Bullet (TV SIZE)
Artist:fripSide
ArtistUnicode:fripSide
Creator:1stfrederick
Version:Hard
Source:Black Bullet
Tags:Rentarou
BeatmapID:405306
BeatmapSetID:165107

[Difficulty]
HPDrainRate:7
CircleSize:5
OverallDifficulty:6
ApproachRate:7
SliderMultiplier:1
SliderTickRate:1

[Events]
//Background and Video events
0,0,"BB.jpg",0,0
Video,0,"Black Bullet OP ( ブラック・ブレット Burakku Buretto) Opening [HD].avi"
//Break Periods
//Storyboard Layer 0 (Background)
//Storyboard Layer 1 (Fail)
//Storyboard Layer 2 (Pass)
//Storyboard Layer 3 (Foreground)
//Storyboard Sound Samples
//Background Colour Transformations
3,100,163,162,255

[TimingPoints]
0,384.615384615385,4,1,0,100,1,0
0,-83.3333333333333,4,2,1,100,0,0
12500,-76.9230769230769,4,2,1,100,0,0
36923,-71.4285714285714,4,2,1,100,0,0
49326,-62.5,4,2,1,100,0,0
77884,-76.9230769230769,4,2,1,100,0,0

[HitObjects]
72,72,192,6,0,L|164:104,2,89.9999972534181,0|8|0,0:0|0:0|0:0,0:0:0:0:
56,192,1153,2,0,P|100:264|120:288,1,89.9999972534181,0|8,0:0|0:0,0:0:0:0:
216,312,1826,1,8,0:0:0:0:
336,320,2211,2,0,L|416:276,1,89.9999972534181,8|0,0:0|0:0,0:0:0:0:
364,168,2884,2,0,P|352:120|328:96,2,59.9999981689454,0|0|0,0:0|0:0|0:0,0:0:0:0:
248,204,3653,2,0,B|112:248|124:248,1,119.999996337891,0|8,0:0|0:0,0:0:0:0:
52,276,4326,1,8,0:0:0:0:
60,156,4711,2,8,P|96:104|152:88,1,119.999996337891
268,76,5480,1,8,0:0:0:0:
344,168,5865,2,0,P|380:212|400:236,2,59.9999981689454,8|0|8,0:0|0:0|0:0,0:0:0:0:
252,172,6538,1,2,0:0:0:0:
108,208,7019,6,0,P|100:240|156:328,2,119.999996337891,0|8|0,0:0|0:0|0:0,0:0:0:0:
172,108,8173,1,8,0:0:0:0:
284,68,8557,2,0,P|348:36|388:32,2,89.9999972534181,0|8|8,0:0|0:0|0:0,0:0:0:0:
172,108,9519,1,8,0:0:0:0:
204,224,9903,2,0,L|248:312,1,89.9999972534181,0|8,0:0|0:0,0:0:0:0:
360,276,10576,1,8,0:0:0:0:
360,156,10961,1,8,0:0:0:0:
252,108,11346,2,0,P|192:72|120:56,2,119.999996337891,0|8|8,0:0|0:0|0:0,0:0:0:0:
92,216,12692,6,8,P|160:280|284:248,1,227.499989585877
400,200,13750,2,8,L|404:80,2,97.4999955368044,8|8|8,0:0|0:0|0:0,0:0:0:0:
380,328,14711,1,0,0:0:0:0:
248,328,15096,2,0,L|196:240,2,97.4999955368044,0|0|8,0:0|0:0|0:0,0:0:0:0:
256,92,16153,6,0,P|168:104|140:128,2,97.4999955368044,0|8|0,0:0|0:0|0:0,0:0:0:0:
296,180,17019,1,8,0:0:0:0:
336,268,17307,2,0,P|296:340|272:348,2,97.4999955368044
388,184,18173,2,0,L|436:128,1,64.9999970245363,0|8,0:0|0:0,0:0:0:0:
348,84,18653,1,8,0:0:0:0:
220,76,19038,6,0,P|148:72|64:124,1,162.499992561341
56,244,19903,1,8,0:0:0:0:
188,244,20288,2,0,L|260:244,2,64.9999970245363,8|0|8,0:0|0:0|0:0,0:0:0:0:
56,244,21057,2,0,P|68:160|84:128,2,97.4999955368044,0|8|0,0:0|0:0|0:0,0:0:0:0:
128,308,21923,5,0,0:0:0:0:
224,304,22211,1,8,0:0:0:0:
320,304,22500,2,0,B|392:304|432:264|436:252,2,129.999994049073,8|8|0,0:0|0:0|0:0,0:0:0:0:
216,224,23653,2,0,P|168:156|160:140,1,97.4999955368044
248,100,24230,2,0,P|300:80|340:80,2,64.9999970245363,8|8|8,0:0|0:0|0:0,0:0:0:0:
128,208,25096,6,0,P|160:288|180:296,2,97.4999955368044
140,112,25961,1,8,0:0:0:0:
268,88,26346,2,0,P|304:168|328:176,2,97.4999955368044,0|8|0,0:0|0:0|0:0,0:0:0:0:
140,112,27307,2,0,B|88:156|76:192|84:172,2,64.9999970245363,8|8|8,0:0|0:0|0:0,0:0:0:0:
160,240,28269,2,0,P|196:284|280:324,2,129.999994049073,0|8|0,0:0|0:0|0:0,0:0:0:0:
288,208,29423,2,8,P|348:140|360:112,2,97.4999955368044
196,116,30384,2,0,L|104:160,1,97.4999955368044,0|8,0:0|0:0,0:0:0:0:
64,204,30865,1,8,0:0:0:0:
152,248,31153,5,8,0:0:0:0:
224,316,31442,2,0,P|252:348|432:332,1,227.499989585877,8|0,0:0|0:0,0:0:0:0:
436,248,32403,1,8,0:0:0:0:
352,196,32692,1,8,0:0:0:0:
268,144,32980,2,0,P|172:100|120:108,2,129.999994049073,8|0|8,0:0|0:0|0:0,0:0:0:0:
256,192,34134,12,10,36730,0:0:0:0:
108,96,37211,6,0,L|112:224,1,104.999996795654,8|0,0:0|0:0,0:0:0:0:
104,304,37788,1,0,0:0:0:0:
204,340,38076,1,0,0:0:0:0:
308,324,38365,1,0,0:0:0:0:
412,288,38750,2,8,P|416:184|396:172,2,139.999995727539
272,288,39903,2,0,L|160:284,1,104.999996795654,8|4,0:0|0:0,0:0:0:0:
124,152,40576,6,0,B|172:168|248:56|244:56|168:24|148:48|228:148|288:144|304:128,1,279.999991455078
432,92,41730,1,0,0:0:0:0:
432,232,42115,2,0,P|416:268|372:308,2,69.9999978637696,0|8|0,0:0|0:0|0:0,0:0:0:0:
304,176,42884,2,0,P|264:124|232:116,2,69.9999978637696,0|0|4,0:0|0:0|0:0,0:0:0:0:
148,268,43942,6,0,P|108:200|112:148,2,104.999996795654
288,280,44903,1,0,0:0:0:0:
392,264,45288,2,8,L|420:192,2,69.9999978637696
288,276,45961,2,0,L|212:276|200:276,2,69.9999978637696,0|0|8,0:0|0:0|0:0,0:0:0:0:
256,192,46538,12,0,47980,0:0:0:0:
280,124,48365,6,10,B|352:124|380:128|416:120,2,104.999996795654
136,60,49519,5,8,0:0:0:0:
156,180,49807,2,0,P|200:260|244:280,1,120,0|8,0:0|0:0,0:0:0:0:
348,268,50384,1,8,0:0:0:0:
320,152,50769,2,8,P|380:152|420:68,2,160,8|0|8,0:0|0:0|0:0,0:0:0:0:
204,176,51826,2,0,P|144:204|144:304,1,160
256,292,52500,1,0,0:0:0:0:
256,292,52692,2,0,L|380:288,1,120
376,208,53173,2,0,L|264:212,2,80
376,128,53750,2,0,P|312:116|280:96,1,80
212,92,54134,2,8,P|128:140|116:144,1,80
84,188,54519,1,8,0:0:0:0:
104,264,54711,2,0,P|140:320|168:336,2,80,0|8|0,0:0|0:0|0:0,0:0:0:0:
80,148,55384,1,8,0:0:0:0:
136,92,55576,6,0,B|180:48|208:68|208:68|248:68,1,120,0|8,0:0|0:0,0:0:0:0:
364,92,56153,6,0,B|320:48|292:68|292:68|252:68,1,120,0|8,0:0|0:0,0:0:0:0:
252,148,56634,1,8,0:0:0:0:
264,228,56826,2,0,B|272:316|248:348|240:356,1,120
328,340,57307,1,0,0:0:0:0:
400,308,57500,1,0,0:0:0:0:
476,280,57692,1,0,0:0:0:0:
456,204,57884,1,0,0:0:0:0:
376,212,58076,1,0,0:0:0:0:
296,220,58269,2,0,P|248:136|264:132,1,160
404,108,59038,6,0,L|480:64,2,80
328,128,59615,2,0,L|236:128,2,80
256,192,60192,12,8,61538,0:0:0:0:
124,160,61923,6,8,B|132:200|208:256|88:256,1,120
92,280,62307,1,0,0:0:0:0:
168,304,62500,2,0,B|276:300|284:284|288:272,1,120,0|8,0:0|0:0,0:0:0:0:
360,252,62980,2,0,L|360:168,1,80
312,108,63365,2,0,B|272:88|216:68|208:52,1,120
168,52,63750,1,0,0:0:0:0:
128,56,63846,2,0,P|88:64|52:136,2,120
248,52,64711,1,0,0:0:0:0:
236,212,65096,6,0,L|228:292,1,80
348,292,65576,2,0,L|356:200,2,80
428,304,66153,1,0,0:0:0:0:
444,224,66346,2,0,L|448:104,1,120
356,100,66826,2,0,L|328:144,1,40
232,136,67211,1,8,0:0:0:0:
156,156,67403,2,0,P|76:224|64:236,1,120,0|8,0:0|0:0,0:0:0:0:
224,264,68076,6,0,B|284:272|308:264|308:260,1,80,0|8,0:0|0:0,0:0:0:0:
424,268,68557,2,8,P|504:268|520:248,2,80
412,148,69230,2,0,L|284:140,1,120
232,140,69711,1,0,0:0:0:0:
112,144,70000,1,0,0:0:0:0:
104,224,70192,1,0,0:0:0:0:
168,276,70384,1,8,0:0:0:0:
248,284,70576,2,8,L|328:288,1,80
256,192,71153,12,8,72403,0:0:0:0:
128,172,72692,6,0,B|204:172|224:184|224:184|264:272,1,160
360,292,73365,1,0,0:0:0:0:
356,212,73557,2,8,B|352:104|312:96|272:72,1,160
164,80,74230,1,8,0:0:0:0:
96,176,74519,2,0,P|68:240|132:288,2,160,0|8|0,0:0|0:0|0:0,0:0:0:0:
176,176,75480,1,8,0:0:0:0:
256,176,75673,2,0,L|376:176,1,120
256,192,76153,12,0,77500,0:0:0:0:
112,120,77980,6,0,L|116:204,2,64.9999970245363,8|0|8,0:0|0:0|0:0,0:0:0:0:
244,116,78750,1,0,0:0:0:0:
252,244,79134,2,0,P|256:328|308:320,2,129.999994049073,0|8|0,0:0|0:0|0:0,0:0:0:0:
376,208,80288,2,0,L|400:116,1,64.9999970245363,0|8,0:0|0:0,0:0:0:0:
264,116,80865,6,0,P|224:100|152:104,2,97.4999955368044
256,212,81730,1,8,0:0:0:0:
248,308,82019,2,0,P|316:308|360:280,2,97.4999955368044,0|8|0,0:0|0:0|0:0,0:0:0:0:
132,284,82980,1,0,0:0:0:0:
104,192,83269,2,8,B|96:92|140:92|140:92|168:60,1,129.999994049073
244,88,83942,2,2,L|304:92,3,32.4999985122681,2|2|2|6,0:0|0:0|0:0|0:0,0:0:0:0:
256,192,84423,12,0,86538,0:0:0:0:
