osu file format v9

[General]
AudioFilename: asadsdada.mp3
AudioLeadIn: 0
PreviewTime: 61589
Countdown: 0
SampleSet: Normal
StackLeniency: 0.3
Mode: 0
LetterboxInBreaks: 1

[Editor]
DistanceSpacing: 1.1
BeatDivisor: 4
GridSize: 8

[Metadata]
Title:Assemble*LOVEsemble
Artist:fripSide
Creator:Natteke
Version:Natteke
Source:The elder sister is editor Erocomi
Tags:eroge nao garven aenna moonfragrance lepidopodus lunet

[Difficulty]
HPDrainRate:6
CircleSize:4
OverallDifficulty:7
ApproachRate:8
SliderMultiplier:1.8
SliderTickRate:0.5

[Events]
//Background and Video events
0,0,"bg_new.jpg"
//Break Periods
2,150234,155097
2,156428,160323
//Storyboard Layer 0 (Background)
//Storyboard Layer 1 (Fail)
//Storyboard Layer 2 (Pass)
//Storyboard Layer 3 (Foreground)
Sprite,Foreground,Centre,"sb_title.png",320,240 M,0,10686,10880,-79,274,192,274 F,0,10686,10880,0,1 F,0,10686,10880,0,1 S,0,10686,13589,0.6319998,0.6399998 F,0,10880,12428,1 M,0,10880,13589,192,274,240,274 F,0,12428,239267,1 F,0,239267,240041,1,0
Sprite,Foreground,Centre,"sb_title.png",320,240 M,0,13589,,240,274 F,0,13589,13879,1,0 S,0,13589,13879,0.6399999,0.872
//Storyboard Sound Samples
//Background Colour Transformations
3,100,163,162,255

[TimingPoints]
10880,387.096774193548,4,1,1,70,1,0
10976,-100,4,2,1,70,0,0
13879,-100,4,1,1,70,0,0
14072,-100,4,2,1,70,0,0
16976,-100,4,1,1,70,0,0
17169,-100,4,2,1,70,0,0
17750,-100,4,1,1,70,0,0
17943,-100,4,2,1,70,0,0
18525,-100,4,1,1,70,0,0
18718,-100,4,2,1,70,0,0
19299,-100,4,1,1,70,0,0
19492,-100,4,2,1,70,0,0
19879,-100,4,1,1,70,0,0
20266,-100,4,2,1,70,0,0
20847,-100,4,1,1,70,0,0
21040,-100,4,2,1,70,0,0
21621,-100,4,1,1,70,0,0
22396,-100,4,2,1,10,0,0
22589,-100,4,2,1,21,0,0
22782,-100,4,2,1,31,0,0
22975,-100,4,2,1,41,0,0
23216,-100,4,1,1,70,0,0
61202,-200,4,1,1,70,0,0
61589,-100,4,1,1,70,0,0
61976,-100,4,1,1,70,0,1
73976,-100,4,1,1,70,0,0
74363,-100,4,1,1,70,0,1
86750,-100,4,1,1,70,0,0
99234,-100,4,2,1,70,0,0
104073,-100,4,1,1,70,0,0
110750,-200,4,1,1,70,0,0
111525,-100,4,1,1,70,0,0
124686,-200,4,1,1,70,0,0
125073,-100,4,1,1,70,0,0
125460,-100,4,1,1,70,0,1
136299,-100,4,1,1,70,0,0
137847,-100,4,1,1,70,0,1
150234,-100,4,1,1,70,0,0
176557,-100,4,2,1,0,0,0
176654,-100,4,2,1,10,0,0
176750,-100,4,2,1,15,0,0
176846,-100,4,2,1,20,0,0
176942,-100,4,2,1,25,0,0
177038,-100,4,2,1,30,0,0
177134,-100,4,2,1,35,0,0
177230,-100,4,2,1,40,0,0
177326,-100,4,2,1,45,0,0
177422,-100,4,2,1,50,0,0
177518,-100,4,2,1,54,0,0
177614,-100,4,2,1,60,0,0
177710,-100,4,2,1,65,0,0
178105,-100,4,1,1,79,0,0
178154,-100,4,2,1,59,0,0
180815,-200,4,2,1,59,0,0
181154,-100,4,1,1,81,0,0
181250,-100,4,2,1,59,0,0
184105,-100,4,1,1,79,0,0
184396,-100,4,2,1,79,0,0
184976,-100,4,1,1,79,0,0
185169,-100,4,2,1,79,0,0
185750,-100,4,1,1,79,0,0
185943,-100,4,2,1,79,0,0
186525,-100,4,1,1,79,0,0
186718,-100,4,2,1,79,0,0
187105,-100,4,1,1,79,0,0
187492,-100,4,2,1,79,0,0
188073,-100,4,1,1,79,0,0
188266,-100,4,2,1,79,0,0
188847,-100,4,1,1,79,0,0
190492,-100,4,1,1,70,0,1
202105,-100,4,1,1,70,0,0
202879,-100,4,1,1,70,0,1
215267,-100,4,1,1,70,0,0
229299,-100,4,2,1,70,0,0
229589,-100,4,1,1,58,0,0
229976,-100,4,1,1,53,0,0
230363,-100,4,1,1,50,0,0
230750,-100,4,1,1,40,0,0
231137,-100,4,1,1,30,0,0
231524,-100,4,1,1,20,0,0
231911,-100,4,1,1,10,0,0
232299,-100,4,2,1,0,0,0

[Colours]
Combo1 : 17,254,176
Combo2 : 173,255,95
Combo3 : 255,88,100
Combo4 : 255,94,55

[HitObjects]
48,88,10879,2,0,B|168:72,1,90,4|2
64,176,11267,2,0,B|184:160,1,90,0|2
56,264,11654,2,0,B|240:248,1,180,0|0
320,280,12234,1,2
392,232,12428,1,0
384,144,12621,1,2
304,112,12815,1,0
232,160,13009,1,2
240,248,13202,1,0
384,144,13589,5,4
64,312,13976,2,0,B|8:240|40:120,3,180,4|0|0|0
80,64,15331,1,2
168,40,15525,1,0
240,96,15718,1,2
216,184,15912,1,0
128,208,16105,1,2
56,152,16299,1,0
149,124,16492,5,0
149,124,16686,1,0
392,328,17073,6,0,B|328:248|384:144,1,180,4|0
504,48,17847,2,0,B|472:208|296:136,1,270,4|2
360,72,18621,5,4
272,64,18815,1,2
208,128,19009,1,0
248,208,19202,1,2
336,216,19396,1,4
200,296,19783,6,0,B|168:328|112:320,1,90,0|0
16,184,20170,2,0,B|48:216|40:272,1,90,4|0
56,96,20557,2,0,B|88:64|144:72,1,90
248,208,20944,2,0,B|216:176|224:120,1,90,4|0
296,72,21331,1,0
384,72,21525,1,0
440,144,21718,5,4
256,296,22009,1,4
72,144,22299,1,4
256,160,22492,2,4,B|248:120,14,22.5
264,184,23267,5,4
320,64,23460,6,0,B|352:152,1,90,2|8
161,148,23847,2,0,B|192:64,1,90,2|0
384,120,24234,6,0,B|400:160|400:224,1,90,2|8
112,208,24621,2,0,B|112:160|128:120,1,90,2|0
432,192,25009,6,2,B|448:240|440:288,1,90,2|10
70,280,25396,2,2,B|64:240|80:192,1,90,2|0
160,320,25783,1,0
240,288,25976,1,8
248,192,26170,1,0
160,232,26363,1,0
320,176,26557,6,0,B|352:136|344:88,1,90,2|8
192,112,26944,2,0,B|160:152|168:200,1,90,2|0
358,112,27331,6,0,B|377:65|339:18,1,90,2|8
129,186,27718,2,0,B|109:233|148:281,1,90,2|2
200,336,28105,1,2
288,352,28299,1,10
384,320,28492,2,0,B|440:240|392:136,1,180,0|2
397,148,29073,1,10
320,96,29267,1,0
96,272,29460,5,4
176,232,29654,2,0,B|208:192|192:136,2,90,2|8|2
104,176,30234,2,0,B|88:120|128:72,1,90,0|2
296,48,30621,2,0,B|312:104|272:152,1,90,8|2
192,136,31009,5,2
248,208,31202,1,2
336,192,31396,1,10
408,136,31589,2,2,B|464:184|392:256|448:304,1,180,0|2
446,302,32170,1,8
360,336,32363,1,0
176,280,32557,5,0
85,121,32750,2,0,B|133:97|173:121|173:121,1,90,2|8
173,283,33138,2,0,B|172:284|212:261|216:208,1,90,2|0
32,208,33525,2,0,B|35:261|75:284|74:283,1,90,2|8
128,208,33912,1,2
208,160,34105,5,4
296,192,34299,1,4
320,280,34492,1,4
400,320,34686,2,0,B|488:272|456:144,1,180,4|0
432,80,35267,1,0
208,160,35654,6,0,B|296:160,1,90,4|0
266,232,36041,2,0,B|176:232,1,90,8|0
356,232,36428,2,0,B|460:232,2,90,0|0|8
304,304,37009,6,0,B|232:376|96:320,1,180
80,264,37589,1,8
72,176,37783,1,0
160,152,37976,1,0
160,240,38170,1,0
240,272,38363,1,8
240,184,38557,1,0
400,56,38750,6,0,B|480:120|456:232,2,180,0|8|0
368,144,39718,1,0
312,72,39912,1,8
272,152,40105,2,0,B|192:128|176:224|80:176,1,180
101,184,40686,1,8
40,120,40879,1,0
104,56,41073,5,0
256,256,41363,1,0
408,56,41654,1,0
472,120,41847,6,0,B|432:152|448:216,1,90,4|0
472,288,42234,1,8
384,296,42428,1,0
440,368,42621,1,0
368,208,42815,2,0,B|288:136|192:192,1,180
201,186,43299,1,0
201,186,43396,5,0
216,96,43589,1,0
256,16,43783,1,8
296,96,43976,1,0
312,184,44170,1,0
296,272,44363,1,8
256,352,44557,1,8
216,272,44750,1,0
136,128,44944,6,0,B|128:240|0:240,2,180,0|8|0
200,64,45912,2,0,B|272:32|296:136|384:72,1,180
448,40,46492,1,0
472,128,46686,1,0
392,168,46879,1,8
472,128,47073,5,0
392,168,47267,1,0
416,256,47460,1,8
496,216,47654,1,8
472,128,47847,1,0
256,192,48041,5,4
256,192,48234,1,4
256,192,48428,1,4
176,136,48621,2,0,B|216:88|304:88|352:152,1,180
337,135,49202,1,0
256,192,49396,1,0
336,248,49589,6,0,B|296:296|208:296|160:232,2,180,0|8|0
416,200,50557,1,8
400,112,50750,1,8
488,96,50944,1,0
512,184,51138,5,4
376,32,51331,1,0
256,184,51525,1,0
136,32,51718,1,0
136,352,52105,1,0
136,352,52202,1,0
136,352,52299,1,8
72,288,52492,1,0
256,184,52686,6,0,B|328:256|272:360,1,180,4|8
208,288,53267,1,0
160,208,53460,1,0
184,120,53654,1,8
272,104,53847,1,8
344,152,54041,1,0
128,288,54234,5,4
104,144,54428,1,4
208,40,54621,1,4
352,72,54815,1,4
296,336,55202,1,0
296,336,55396,1,8
296,336,55589,1,0
376,296,55783,6,0,B|472:240|424:136|424:136,3,180,0|8|0|8
352,88,57138,1,0
320,168,57331,6,0,B|232:200,1,90,4|0
224,296,57718,2,0,B|320:264,1,90,8|0
152,232,58105,6,0,B|112:152,1,90
160,48,58492,2,0,B|200:128,1,90,8|0
88,80,58879,5,4
64,224,59170,1,0
184,304,59460,1,0
328,304,59654,5,0
448,224,59944,1,0
424,80,60235,1,4
376,192,60428,5,4
256,352,60718,1,4
136,192,61009,1,4
256,224,61202,6,0,B|256:136,1,90,0|2
240,120,61686,1,0
224,104,61783,1,0
208,88,61879,1,0
192,72,61976,6,0,B|72:72,1,90,2|0
24,192,62363,2,0,B|24:288,1,90,10|0
136,264,62750,2,2,B|224:208|312:272,1,180,2|10
376,336,63331,1,0
424,248,63525,2,2,B|424:200|464:152,2,90,2|2|10
352,184,64105,1,2
448,152,64299,2,2,B|400:56|272:96,1,180,2|10
240,176,64879,1,0
64,232,65073,6,2,B|112:328|240:288,2,180,2|10|2
40,136,66041,1,2
128,184,66234,1,10
136,56,66428,1,2
176,144,66621,1,2
88,96,66815,1,0
224,104,67009,1,10
184,16,67202,1,2
272,64,67396,2,2,B|360:48|368:160|456:120,1,180,2|10
496,56,67976,1,0
472,216,68170,6,2,B|456:328|328:344,1,180,6|10
40,216,68944,2,2,B|56:328|184:344,2,180,2|10|2
136,232,69912,1,0
152,136,70105,1,10
56,120,70299,1,2
32,216,70492,1,2
376,152,70879,5,10
360,248,71072,1,0
456,264,71266,1,2
480,168,71459,1,2
296,104,71654,5,10
312,200,71847,1,0
424,176,72041,1,2
400,80,72234,1,2
264,280,72428,2,2,B|168:304,1,90
88,256,72815,2,4,B|48:112,2,135
128,344,73589,5,0
384,344,73783,1,2
256,200,73976,1,2
96,120,74170,5,0
88,120,74267,1,0
80,120,74363,2,0,B|168:80,1,90,6|0
160,216,74750,2,0,B|216:136,1,90,10|0
352,216,75138,2,0,B|296:136,1,90,2|2
432,120,75525,2,0,B|344:80,1,90,10|0
256,56,75912,5,2
176,112,76105,1,2
208,208,76299,1,10
304,208,76492,1,2
344,112,76686,1,2
176,112,76879,5,0
344,112,77073,1,10
176,112,77267,1,0
120,192,77460,6,0,B|80:216|80:280,1,90,2|0
176,304,77847,2,0,B|216:280|216:216,1,90,10|0
392,192,78234,2,0,B|432:216|432:280,1,90,2|0
336,304,78621,2,0,B|296:280|296:216,1,90,10|0
256,136,79009,1,2
176,72,79202,1,2
88,120,79396,1,8
168,176,79589,1,2
88,120,79783,5,0
176,72,79976,1,2
256,136,80170,1,10
168,176,80363,1,0
88,240,80557,6,2,B|128:336|240:296,1,180,6|10
440,192,81138,1,0
432,168,81234,1,0
424,144,81331,2,2,B|384:48|272:88,1,180,2|10
328,168,81912,1,0
328,168,82009,1,0
328,168,82105,2,2,B|352:216|344:264,1,90
184,216,82492,2,2,B|160:168|168:120,1,90,10|2
256,168,82879,2,0,B|248:240|320:280|288:352,1,180,2|10
192,328,83460,5,0
96,344,83654,1,4
128,248,83847,1,0
376,64,84234,5,0
472,48,84428,1,4
440,144,84621,1,0
136,64,85009,5,0
40,48,85203,1,4
64,192,85492,1,0
200,136,85783,1,0
152,224,85976,5,0
192,312,86170,1,0
256,232,86363,1,2
256,232,86750,5,4
256,21,86944,5,2
150,352,87331,1,2
431,144,87718,1,2
81,144,88105,1,2
359,352,88492,1,2
256,21,88879,1,2
208,288,89267,5,0
304,288,89460,1,2
256,352,89654,1,0
208,288,89847,5,0
256,352,90041,1,2
150,21,90428,1,2
431,229,90815,1,2
81,229,91202,1,2
359,21,91589,1,2
256,352,91976,1,2
208,152,92363,5,2
296,144,92557,1,2
304,232,92750,1,0
216,240,92944,1,0
32,160,93138,5,2
480,192,93525,1,2
32,240,93912,1,2
480,272,94299,1,2
32,320,94686,1,2
480,352,95073,1,2
208,96,95460,5,0
304,96,95653,1,2
256,32,95847,1,0
208,96,96040,5,0
160,176,96234,1,2
160,176,96621,1,2
256,328,97009,1,2
256,328,97396,1,2
304,256,97589,5,4
352,176,97783,1,4
264,168,97976,1,4
304,256,98170,1,4
224,80,98557,5,4
176,160,98751,1,4
264,168,98944,1,4
224,80,99138,5,4
136,72,99331,1,0
80,144,99525,1,2
112,224,99718,1,0
200,232,99912,1,0
264,168,100105,6,0,B|376:128|416:240|416:240,2,180,2|0|0
240,304,101073,1,2
168,184,101267,1,0
312,248,101460,1,0
160,272,101654,1,0
264,168,101847,1,2
240,304,102041,1,0
88,224,102234,6,0,B|16:136|104:32,2,180,0|2|0
48,304,103202,2,0,B|240:304,2,180,2|2|2
16,216,104170,5,4
192,216,104557,1,4
304,144,104847,1,4
416,72,105138,1,4
464,152,105331,5,0
488,240,105525,1,0
416,296,105718,1,8
384,208,105912,1,0
416,296,106105,1,0
336,336,106299,2,0,B|224:352|192:248,2,180,8|0|0
336,336,107267,5,8
416,296,107460,1,0
416,296,107557,1,8
384,216,107750,1,8
384,216,107847,1,0
448,152,108041,1,8
448,152,108234,1,8
320,80,108428,6,0,B|200:96|232:224|232:224,2,180,0|8|0
360,160,109396,1,0
360,160,109492,1,0
360,160,109589,2,0,B|384:200|368:256,1,90,8|0
280,248,109976,1,0
136,264,110170,2,0,B|240:320,2,90,8|8|0
280,248,110750,6,0,B|456:328,1,180,4|4
480,120,111718,5,0
352,200,111912,1,0
344,48,112105,1,4
48,280,112492,5,0
144,240,112686,1,0
152,336,112879,1,0
48,280,113073,6,0,B|-24:192|56:88,1,180,4|8
136,144,113654,1,0
120,160,113750,1,0
104,176,113847,2,0,B|128:272|256:240,1,180,0|8
280,144,114428,1,0
376,256,114621,5,4
456,320,114815,1,0
480,224,115009,1,0
376,256,115202,2,0,B|272:224|208:320,1,180,4|0
216,307,115783,1,8
152,240,115976,1,0
256,128,116170,6,0,B|336:112|376:40,2,135,4|0|0
184,64,116944,1,0
120,136,117138,1,8
192,200,117331,1,8
448,336,117718,5,4
352,328,117912,1,0
256,352,118105,1,0
160,328,118299,1,4
64,48,118686,5,0
160,56,118880,1,0
256,32,119073,1,0
352,56,119267,6,0,B|448:104|408:216|408:216,1,180,4|8
336,336,119847,1,0
336,336,119944,1,0
336,336,120041,2,0,B|240:288|280:176|280:176,1,180,0|8
416,296,120621,1,0
456,208,120815,6,0,B|464:112,1,90
376,168,121202,2,0,B|368:264,1,90,8|0
288,216,121589,2,0,B|296:120,1,90
208,176,121976,2,0,B|200:272,1,90,8|0
112,312,122363,6,0,B|72:256|80:176,1,135
79,183,122750,2,0,B|144:104,1,90,8|0
400,72,123138,2,0,B|440:128|432:208,1,135
432,200,123525,2,0,B|368:280,1,90,8|0
376,270,123912,5,4
135,270,124202,1,4
256,192,124492,1,4
213,98,124686,6,0,B|245:82|269:82|301:98,1,90,0|2
312,112,125170,1,0
328,128,125267,1,0
344,144,125363,1,0
360,160,125460,6,2,B|432:224|408:336,2,180,6|10|2
272,200,126428,1,0
208,272,126621,1,10
176,368,126815,1,0
104,304,127009,6,2,B|72:264|80:216,1,90
144,144,127396,2,0,B|176:184|168:232,1,90,10|2
56,128,127783,2,0,B|80:64|152:40|224:88,1,180,2|10
272,152,128363,1,0
272,152,128460,1,0
272,152,128557,6,2,B|325:189|397:165|421:101,2,180,6|10|2
224,64,129525,1,0
320,72,129718,1,10
224,64,129912,1,0
136,112,130105,6,2,B|120:160|160:216,1,90
272,280,130492,2,2,B|288:232|248:176,1,90,10|2
192,264,130879,1,2
224,360,131073,1,10
320,336,131267,1,10
296,240,131460,1,0
88,288,131654,6,2,B|16:216|56:96,2,180,6|10|2
184,264,132621,2,2,B|272:232,2,90,2|10|0
144,176,133202,2,2,B|112:80,1,90
184,24,133589,2,0,B|216:120,1,90,10|0
248,200,133976,2,2,B|360:224|392:112,1,180,2|10
368,24,134557,5,2
456,72,134750,1,4
464,168,134944,1,2
464,264,135138,2,0,B|400:232|344:328|288:280,1,180,10|6
312,184,135718,1,2
216,176,135912,1,0
160,256,136105,1,0
200,344,136299,5,4
32,192,136589,1,4
200,40,136879,1,4
312,40,137073,5,4
392,96,137267,1,10
296,128,137460,1,10
72,312,137847,6,0,B|40:264|56:208,1,90,6|0
16,96,138234,2,0,B|71:112|95:165,1,90,10|0
224,200,138621,2,0,B|176:232|120:216,1,90,2|0
168,128,139009,2,0,B|216:96|272:112,1,90,10|0
320,184,139396,5,2
424,288,139589,1,2
408,144,139783,1,8
336,272,139976,1,2
480,208,140170,1,2
320,184,140363,5,2
480,208,140557,1,10
320,184,140750,1,0
480,208,140944,6,0,B|512:112|432:32,3,180,2|10|2|10
352,80,142299,1,0
352,80,142396,1,0
352,80,142492,6,2,B|320:112|264:96,1,90,2|2
392,152,142879,2,2,B|372:193|314:197,1,90,10|2
448,208,143267,2,2,B|444:253|390:276,1,90,0|2
393,274,143654,1,10
296,304,143847,1,0
200,272,144041,6,2,B|96:256|64:136,1,180,2|10
312,112,144815,2,2,B|416:128|448:248,1,180,2|10
344,352,145396,1,0
344,352,145492,1,0
344,352,145589,2,2,B|320:304|336:256,1,90
184,192,145976,2,0,B|208:240|192:288,1,90,10|2
336,176,146363,2,0,B|325:123|353:81,1,90,2|0
176,24,146750,2,0,B|186:76|158:118,1,90,2|0
64,128,147138,5,4
32,224,147331,1,0
112,288,147525,1,8
192,232,147718,1,0
256,304,147912,1,4
320,232,148105,1,0
400,288,148299,1,8
480,224,148493,1,0
448,128,148686,5,4
256,160,148976,1,4
64,128,149267,1,4
176,104,149460,6,4,B|208:56|304:56|344:112,1,180,4|6
152,192,155847,5,8
360,192,156041,1,8
256,192,161073,12,4,162621
336,248,162815,1,0
176,248,163105,1,0
336,208,163396,1,0
176,208,163686,1,0
336,168,163976,1,0
136,112,164363,5,0
376,112,164654,1,0
136,168,164944,1,0
376,168,165235,1,0
136,224,165525,1,0
408,272,165912,5,0
104,272,166202,1,0
408,216,166492,1,0
104,216,166782,1,0
408,160,167073,1,0
352,72,167267,5,0
256,104,167460,1,0
256,104,167557,1,0
160,72,167750,1,0
160,72,167847,1,0
176,216,168041,5,0
256,280,168234,1,0
256,280,168331,1,0
336,216,168525,1,0
336,216,168621,1,0
336,216,168815,5,4
256,152,169009,2,0,B|216:96|264:16,4,135
168,192,170363,1,0
256,232,170557,6,0,B|296:288|248:368,4,135
344,192,171912,5,4
416,128,172105,2,0,B|304:48,1,135
96,128,172686,2,0,B|208:48,1,135
256,136,173170,1,0
256,136,173267,1,0
176,200,173460,6,0,B|120:248|120:328,2,135,4|0|0
336,200,174234,6,0,B|392:248|392:328,2,135
312,104,175009,6,4,B|432:32,2,135
200,104,175783,6,4,B|80:32,2,135
256,192,176557,6,0,B|256:224,32,22.5,0|0|0|0|0|0|0|0|0|0|0|0|0|0|0|0|0|0|0|0|0|0|0|0|0|0|0|0|0|0|0|0|4
256,192,178202,5,0
256,192,178299,1,2
168,152,178492,5,0
168,152,178589,1,0
168,152,178686,1,2
80,192,178879,5,0
80,192,178976,1,0
80,192,179073,1,2
80,288,179267,5,0
80,288,179364,1,0
80,288,179461,1,2
168,336,179654,5,0
168,336,179751,1,0
168,336,179848,1,2
256,288,180041,5,0
256,288,180138,1,0
256,288,180235,1,2
170,245,180428,5,0
170,245,180525,1,0
170,245,180622,1,2
256,56,180815,6,0,B|256:144,1,90,4|4
255,146,181299,1,0
255,146,181396,1,2
343,106,181589,5,0
343,106,181686,1,0
343,106,181783,1,2
431,146,181976,5,0
431,146,182073,1,0
431,146,182170,1,2
431,242,182364,5,0
431,242,182461,1,0
431,242,182558,1,2
343,290,182751,5,0
343,290,182848,1,0
343,290,182945,1,2
255,242,183138,5,0
255,242,183235,1,0
255,242,183332,1,2
341,199,183525,5,0
341,199,183622,1,0
341,199,183719,1,10
171,199,183912,1,10
104,328,184299,6,0,B|51:290|32:211|69:158,1,180,4|0
208,304,185073,2,0,B|121:261|110:127|219:75,1,270,4|0
307,83,185847,2,0,B|401:127|390:261|304:304,1,270,4|0
448,216,186621,2,0,B|479:172|460:93|408:56,1,180,4|0
288,176,187202,1,0
384,176,187396,6,0,B|432:152|432:104,1,90,0|2
288,176,187783,2,0,B|240:200|240:248,1,90,0|2
224,128,188170,6,0,B|272:104|272:56,1,90,4|2
128,128,188557,2,0,B|80:152|80:200,1,90,0|2
136,280,188944,5,4
256,48,189234,1,4
376,280,189525,1,4
257,221,189718,6,4,B|225:165|305:117|249:37,1,180
56,240,190492,6,2,B|104:336|216:296,2,180,6|10|2
104,104,191460,1,0
104,104,191557,1,0
104,104,191654,2,2,B|88:144|116:189,1,90,10|0
312,160,192041,5,2
200,224,192234,1,2
368,240,192428,5,10
144,144,192621,1,0
424,176,192815,5,2
88,208,193009,1,0
256,192,193202,1,10
312,56,193589,6,2,B|416:32|480:120,2,180,2|10|2
264,144,194557,1,0
264,144,194654,1,0
264,144,194750,1,10
296,240,194944,1,0
392,272,195138,5,2
360,176,195331,1,2
136,40,195525,5,10
168,136,195718,1,2
464,208,195912,5,2
432,112,196105,1,10
360,176,196299,1,10
464,208,196492,1,0
334,91,196686,6,2,B|231:59|159:147,2,180,2|10|2
360,176,197654,1,0
360,176,197750,1,0
360,176,197847,2,0,B|408:192|456:160,1,90,10|2
400,80,198234,5,2
272,112,198428,1,2
264,248,198621,1,10
400,232,198815,1,2
400,80,199009,1,2
152,192,199396,6,0,B|128:232|152:280,1,90,0|0
360,278,199783,2,0,B|384:232|360:192,1,90,4|0
256,136,200170,1,8
256,136,200363,1,8
152,74,200557,6,0,B|128:114|152:162,1,90,4|0
360,160,200944,2,8,B|383:113|359:73,1,90,8|8
256,136,201331,5,4
128,312,201621,1,4
384,312,201912,1,4
256,216,202105,5,4
208,304,202299,1,8
304,304,202492,1,8
48,336,202879,6,2,B|0:248|40:152,2,180,6|10|2
112,264,203847,1,0
184,192,204041,1,10
256,256,204234,1,0
328,192,204428,5,2
400,264,204621,1,2
472,192,204815,2,2,B|488:144|472:96,1,90,10|2
328,192,205202,5,2
256,256,205396,1,0
184,192,205589,1,10
256,120,205783,1,0
184,312,205976,6,2,B|96:360|8:304|8:304,1,180,2|10
328,312,206750,2,2,B|416:360|504:304|504:304,1,180,2|10
456,192,207331,2,2,B|400:120,1,90,0|2
328,312,207718,2,10,B|383:240,1,90,2|10
304,192,208105,2,2,B|248:120,1,90
176,312,208492,2,0,B|231:240,1,90,10|10
144,192,208879,1,0
32,136,209073,6,2,B|80:48|192:80,2,180,2|10|2
48,232,210041,2,2,B|64:328,2,90,2|10|2
136,192,210621,5,2
216,104,210815,1,2
216,280,211009,1,10
304,56,211202,1,0
304,328,211396,1,2
304,56,211783,5,2
392,104,211976,1,2
312,160,212170,1,4
208,224,212363,5,2
120,176,212556,1,2
200,120,212750,1,2
312,232,212944,5,6
400,280,213137,1,2
320,336,213331,1,2
192,336,213525,1,2
112,280,213719,5,4
256,64,214009,1,4
400,280,214299,1,4
440,192,214492,5,0
72,192,214879,1,2
256,152,215267,5,4
256,32,215460,5,2
150,363,215847,1,2
431,155,216234,1,2
81,155,216621,1,2
359,363,217008,1,2
256,32,217395,1,2
304,288,217784,5,0
208,288,217977,1,2
256,352,218171,1,0
256,352,218363,5,0
256,352,218557,1,2
150,21,218944,1,2
431,229,219331,1,2
81,229,219718,1,2
359,21,220105,1,2
256,352,220492,1,2
296,104,220880,5,2
208,112,221073,1,2
216,200,221267,1,0
304,192,221460,1,4
480,224,221655,5,2
32,192,222042,1,2
480,144,222429,1,2
32,112,222816,1,2
480,64,223203,1,2
32,32,223590,1,2
304,288,223977,5,0
208,288,224170,1,2
256,352,224364,1,0
304,288,224557,5,0
352,208,224751,1,2
352,208,225138,1,2
256,56,225526,1,2
256,56,225913,1,2
208,128,226106,5,4
160,208,226300,1,4
256,208,226493,1,4
208,128,226687,1,4
112,296,227073,1,4
296,296,227267,1,4
304,128,227654,5,4
352,208,227848,1,4
256,208,228041,1,4
304,128,228235,1,4
400,296,228621,1,4
216,296,228815,1,4
256,192,229202,12,0,239267
