osu file format v9

[General]
AudioFilename: asadsdada.mp3
AudioLeadIn: 0
PreviewTime: 61589
Countdown: 0
SampleSet: Normal
StackLeniency: 0.3
Mode: 0
LetterboxInBreaks: 1

[Editor]
DistanceSpacing: 1.6
BeatDivisor: 4
GridSize: 8

[Metadata]
Title:Assemble*LOVEsemble
Artist:fripSide
Creator:Natteke
Version:Moon*FRAGrance
Source:The elder sister is editor Erocomi
Tags:eroge nao garven aenna moonfragrance lepidopodus lunet

[Difficulty]
HPDrainRate:6
CircleSize:4
OverallDifficulty:6
ApproachRate:7
SliderMultiplier:1.6
SliderTickRate:0.5

[Events]
//Background and Video events
0,0,"bg_new.jpg"
//Break Periods
2,98950,104431
2,150434,161141
//Storyboard Layer 0 (Background)
//Storyboard Layer 1 (Fail)
//Storyboard Layer 2 (Pass)
//Storyboard Layer 3 (Foreground)
Sprite,Foreground,Centre,"sb_title.png",320,240 M,0,10686,10880,-79,274,192,274 F,0,10686,10880,0,1 F,0,10686,10880,0,1 S,0,10686,13589,0.6319998,0.6399998 F,0,10880,12428,1 M,0,10880,13589,192,274,240,274 F,0,12428,239267,1 F,0,239267,240041,1,0
Sprite,Foreground,Centre,"sb_title.png",320,240 M,0,13589,,240,274 F,0,13589,13879,1,0 S,0,13589,13879,0.6399999,0.872
//Storyboard Sound Samples
//Background Colour Transformations

[TimingPoints]
10880,387.096774193548,4,1,1,79,1,0
10976,-100,4,2,1,70,0,0
13879,-100,4,1,1,80,0,0
14072,-100,4,2,1,70,0,0
16976,-100,4,1,1,79,0,0
17169,-100,4,2,1,85,0,0
20073,-100,4,1,1,70,0,0
20266,-100,4,2,1,70,0,0
20847,-100,4,1,1,70,0,0
21040,-100,4,2,1,70,0,0
21621,-100,4,1,1,70,0,0
34879,-100,4,2,1,100,0,0
61396,-100,4,1,1,59,0,0
61976,-100,4,1,1,79,0,1
74362,-100,4,1,1,79,0,0
74363,-100,4,1,1,79,0,1
86750,-100,4,1,1,79,0,0
98363,-100,4,2,1,100,0,0
124879,-100,4,1,1,59,0,0
125460,-100,4,1,1,79,0,1
137267,-100,4,1,1,59,0,0
137847,-100,4,1,1,79,0,1
149847,-100,4,1,1,59,0,1
150234,-100,4,1,1,79,0,0
176557,-100,4,2,1,0,0,0
176654,-100,4,2,1,10,0,0
176750,-100,4,2,1,15,0,0
176846,-100,4,2,1,20,0,0
176942,-100,4,2,1,25,0,0
177038,-100,4,2,1,30,0,0
177134,-100,4,2,1,35,0,0
177230,-100,4,2,1,40,0,0
177326,-100,4,2,1,45,0,0
177422,-100,4,2,1,50,0,0
177518,-100,4,2,1,54,0,0
177614,-100,4,2,1,60,0,0
177710,-100,4,2,1,65,0,0
178105,-100,4,1,1,79,0,0
178154,-100,4,2,1,70,0,0
181154,-100,4,1,1,81,0,0
181250,-100,4,2,1,59,0,0
184105,-100,4,1,1,79,0,0
184396,-100,4,2,1,79,0,0
184976,-100,4,1,1,79,0,0
185169,-100,4,2,1,79,0,0
185750,-100,4,1,1,79,0,0
185943,-100,4,2,1,79,0,0
186525,-100,4,1,1,79,0,0
186718,-100,4,2,1,79,0,0
187105,-100,4,1,1,79,0,0
187492,-100,4,2,1,79,0,0
188073,-100,4,1,1,79,0,0
188266,-100,4,2,1,79,0,0
188847,-100,4,1,1,79,0,0
190009,-100,4,1,1,59,0,0
190492,-100,4,1,1,70,0,1
202105,-100,4,1,1,70,0,0
202396,-100,4,1,1,59,0,0
202879,-100,4,1,1,70,0,1
214686,-100,4,1,1,59,0,0
215267,-100,4,1,1,80,0,0
226879,-100,4,2,1,100,0,0
227460,-100,4,1,1,80,0,0
228428,-100,4,2,1,100,0,0
229299,-100,4,2,1,79,0,0
229589,-100,4,1,1,70,0,0
229976,-100,4,1,1,60,0,0
230363,-100,4,1,1,50,0,0
230750,-100,4,1,1,40,0,0
231137,-100,4,1,1,30,0,0
231524,-100,4,1,1,20,0,0
231911,-100,4,1,1,10,0,0
232299,-100,4,2,1,0,0,0

[Colours]
Combo1 : 17,254,176
Combo2 : 173,255,95
Combo3 : 255,88,100
Combo4 : 255,94,55

[HitObjects]
184,272,10879,2,0,B|256:336|328:272,1,160,4|2
336,112,11654,2,0,B|264:48|192:112,1,160,0|2
176,192,12234,1,0
184,272,12428,2,0,B|160:312|112:312,2,80,0|2|0
256,240,13009,1,2
256,240,13202,2,0,B|424:240,2,160,0|4|4
176,104,14363,5,2
336,96,14750,2,0,B|376:144|376:192|336:240,1,160,0|2
256,264,15331,1,0
216,192,15525,2,0,B|192:152|216:112,1,80,0|2
298,115,15912,2,0,B|320:152|296:192,2,80,0|2|0
256,48,16492,1,4
256,48,16686,1,4
176,184,17073,5,4
336,184,17460,1,0
192,264,17847,2,2,B|268:272|276:304|256:332|256:332|236:304|244:272|328:264,1,240,2|2
400,232,18621,1,0
336,184,18815,1,2
256,160,19009,1,0
176,184,19202,1,2
112,232,19396,1,2
128,72,19783,5,0
200,104,19976,1,0
272,72,20170,2,0,B|352:72,1,80,4|2
296,152,20557,2,0,B|392:152,1,80,0|2
272,312,20944,6,0,B|352:312,1,80,4|2
296,232,21331,2,0,B|392:232,1,80,0|2
376,152,21718,2,4,B|348:24|180:24|152:152,1,320
256,272,22879,1,2
216,120,23267,6,0,B|136:120,1,80,4|2
296,120,23654,2,0,B|392:120,1,80,0|2
200,200,24041,6,0,B|120:200,1,80,0|2
312,200,24428,2,0,B|392:200,1,80,0|2
216,280,24815,6,0,B|136:280,1,80,4|2
296,280,25202,2,0,B|392:280,1,80,0|2
256,176,25783,5,0
256,176,25976,1,2
120,96,26363,6,0,B|72:112|72:152,1,80,4|2
120,288,26750,2,0,B|72:272|72:232,1,80,0|2
224,80,27138,6,0,B|192:120|192:160,1,80,0|2
224,304,27525,2,0,B|192:264|192:224,1,80,0|2
328,72,27912,6,0,B|312:112|312:160,1,80,0|2
328,312,28299,2,0,B|312:272|312:224,1,80,0|2
464,192,28879,5,4
464,192,29073,1,4
352,72,29460,6,0,B|312:144,1,80,4|2
156,155,29847,2,0,B|232:128,1,80,0|2
160,312,30234,6,0,B|200:240,1,80,4|2
355,228,30621,2,0,B|280:256,1,80,0|2
192,65,31009,6,0,B|215:142,1,80,0|2
326,68,31396,2,0,B|296:142,1,80,0|2
216,280,31976,5,0
296,280,32170,1,2
352,128,32557,6,0,B|336:81|296:76,1,80,4|2
164,131,32944,2,0,B|169:91|216:76,1,80,0|2
351,256,33331,6,0,B|336:302|296:307,1,80,4|2
164,252,33718,2,0,B|169:292|215:308,1,80,0|2
256,240,34105,5,4
224,168,34299,1,4
280,112,34492,1,4
248,40,34686,1,4
96,96,35073,1,12
96,96,35267,1,4
184,232,35654,6,0,B|160:272|184:312,2,80,0|0|2
256,272,36234,1,0
328,232,36428,2,0,B|352:272|328:312,2,80,0|0|2
256,192,37009,2,0,B|256:16,1,160
184,56,37589,1,2
256,96,37783,1,0
328,56,37976,2,0,B|372:76|372:168|328:192,1,160,0|2
256,232,38557,1,0
185,191,38750,6,0,B|140:216|140:308|184:328,2,160,0|2|0
256,152,39718,2,0,B|256:64,2,80,0|2|0
216,304,40492,1,0
296,304,40686,1,2
320,148,41073,2,2,B|300:104|208:104|184:148,1,160,0|2
136,304,41847,5,4
136,224,42041,2,0,B|136:144,2,80,0|2|0
216,208,42621,2,0,B|216:296,2,80,0|0|2
216,128,43202,2,2,B|200:80|256:48|312:80|296:128,1,160,0|0
296,208,43783,2,0,B|296:296,2,80,2|0|0
216,72,44557,5,2
296,72,44750,1,0
256,144,44944,2,0,B|256:304,2,160,0|2|0
296,72,45912,1,0
216,72,46105,1,2
176,144,46299,2,0,B|192:244|328:244|336:144,1,240,0|2
256,8,47267,2,2,B|248:16|248:16|264:24|264:24|248:32|248:32|264:40|264:40|248:48|248:48|264:56|264:56|248:64|248:64|264:72|264:72|248:80|248:80|264:88|264:88|248:96|248:96|264:104|264:104|248:112|248:112|264:120|264:120|248:128|248:128|264:136|264:136|248:144|248:144|256:152|256:152|256:168,1,320,0|4
192,208,48234,5,0
256,256,48428,1,2
320,208,48621,2,0,B|344:264|424:264|448:208,2,160,4|0|2
320,128,49589,2,0,B|336:48|256:20|176:48|192:128,1,240,4|2
192,208,50363,2,0,B|216:264|296:264|320:208,1,160,0|2
336,48,51138,5,4
296,120,51331,1,0
216,120,51525,1,2
176,52,51718,2,0,B|108:132|184:196,2,160,4|2|0
256,40,52686,1,4
368,80,52976,2,0,B|360:144|408:192,1,120,0|2
480,152,53460,1,0
480,232,53654,1,4
416,280,53847,2,12,B|256:280,1,160,4|4
180,304,54428,5,0
104,280,54621,1,2
32,248,54815,2,0,B|32:80,2,160,4|2|0
104,208,55783,2,0,B|112:200|112:200|104:192|104:192|112:184|112:184|104:176|104:176|112:168|112:168|104:160|104:160|112:152|112:152|104:144|104:144|112:136|112:136|104:128|104:128|112:120|112:120|104:112|104:112|112:104|112:104|104:96|104:96|112:88|112:88|104:80|104:80|112:72|112:72|104:64|104:64|112:56|112:56|104:48|104:48|104:16,1,240,4|2
104,34,56460,1,0
104,34,56557,1,0
264,32,56944,5,0
344,32,57138,1,0
424,32,57331,2,0,B|472:104|424:184,2,160,4|2|0
328,112,58396,2,0,B|184:112,1,120,2|0
128,112,58879,2,0,B|92:164|128:224,2,120,4|2|0
208,112,59654,2,0,B|336:112,2,120,0|2|0
144,160,60428,5,4
256,208,60718,1,4
368,168,61009,1,4
368,168,61202,1,0
256,48,61589,2,0,B|256:24,8,20,0|0|0|0|0|0|0|0|4
208,128,62170,6,0,B|184:160|136:160,2,80,0|8|0
304,128,62750,2,0,B|328:160|376:160,2,80,0|0|8
256,48,63331,1,0
160,48,63525,6,0,B|72:72,1,80,0|2
144,144,63912,2,0,B|56:168,1,80,8|2
128,240,64299,2,0,B|40:264,1,80,0|2
112,336,64686,2,0,B|34:357,1,80,8|2
208,336,65073,6,0,B|296:360,1,80,4|0
368,312,65460,1,8
464,312,65654,2,0,B|488:224,2,80,0|0|0
368,312,66234,2,0,B|336:224,1,80,8|0
320,144,66621,5,0
320,144,66815,1,2
248,80,67009,1,8
248,80,67202,1,2
184,152,67396,1,0
184,152,67589,1,2
256,216,67783,2,0,B|256:296,1,80,8|2
160,320,68170,6,0,B|104:244|168:176,1,160,4|8
351,320,68944,2,0,B|408:244|343:175,1,160,0|8
256,136,69525,1,0
208,56,69718,6,0,B|184:24|136:24,2,80,0|2|8
256,136,70299,1,2
304,56,70492,2,0,B|328:24|376:24,2,80,0|2|8
256,136,71073,1,2
160,160,71267,6,0,B|86:192,1,80,4|2
208,240,71654,2,0,B|169:309,1,80,8|2
304,240,72041,2,0,B|342:309,1,80,4|2
352,160,72428,2,0,B|425:192,1,80,8|2
400,72,72815,5,4
256,40,73105,1,4
112,72,73396,1,4
112,72,73589,1,4
152,160,73783,1,0
112,248,73976,2,2,B|80:320,2,80,2|0|4
192,296,74557,5,0
256,224,74750,1,8
320,296,74944,1,0
400,248,75138,2,0,B|432:320,2,80,0|0|8
392,152,75718,1,0
320,88,75912,6,0,B|288:16,2,80,0|2|8
256,160,76492,1,2
192,88,76686,2,0,B|224:16,2,80,0|2|8
256,160,77267,1,2
160,184,77460,6,0,B|120:160|80:176,2,80,4|0|8
208,272,78041,1,0
304,272,78234,1,0
352,184,78428,2,0,B|392:160|432:176,2,80,0|8|0
304,104,79009,5,0
304,104,79202,1,2
208,80,79396,1,8
208,80,79589,1,2
128,136,79783,1,0
128,136,79976,1,2
32,112,80170,2,0,B|16:200,1,80,8|2
88,256,80557,5,4
136,344,80750,2,0,B|224:360,2,80,0|8|0
88,256,81331,2,0,B|96:232|96:232|112:240|112:240|120:224|120:224|136:232|136:232|144:216|144:216|160:224|160:224|168:208|168:208|184:216|184:216|192:216,1,160,0|8
288,216,81912,1,0
352,288,82105,5,0
384,200,82299,1,2
320,128,82492,1,8
224,144,82686,1,2
144,200,82879,2,0,B|104:224|64:208,2,80,0|2|8
208,272,83460,1,2
304,272,83654,5,4
368,200,83847,2,0,B|408:224|448:208,2,80,0|8|0
304,128,84428,1,4
208,128,84621,1,0
152,208,84815,2,0,B|144:248|168:288,1,80,8|0
256,320,85202,5,4
320,192,85492,1,4
256,64,85783,1,4
256,64,85976,1,4
168,96,86170,1,0
72,72,86363,2,2,B|24:144|72:224,1,160,2|4
136,272,86944,6,0,B|112:312|64:304,2,80,2|0|2
200,224,87525,1,0
256,280,87718,1,2
312,224,87912,1,0
376,272,88105,2,0,B|400:312|448:304,2,80,2|0|2
384,192,88686,1,0
320,144,88879,1,2
192,48,89267,5,0
192,48,89460,1,2
80,160,89847,6,0,B|56:200|80:240,2,80,0|2|0
152,200,90428,1,2
232,200,90621,2,0,B|248:280,1,80,0|2
320,240,91009,2,0,B|336:320,1,80,0|2
416,296,91396,1,0
408,216,91589,1,2
416,296,91783,1,0
488,256,91976,1,2
448,104,92363,5,4
448,104,92557,1,4
304,40,92944,6,0,B|227:17,1,80,0|2
256,104,93331,2,0,B|177:88,1,80,0|2
224,176,93718,2,0,B|144:168,1,80,0|2
224,256,94105,2,0,B|144:263,1,80,0|2
256,328,94492,2,0,B|177:343,2,80,0|2|0
336,312,95073,1,2
472,232,95460,5,0
472,152,95654,1,2
320,112,96041,5,0
256,64,96234,1,2
248,144,96428,2,0,B|168:120,1,80,0|2
160,200,96815,1,0
80,200,97009,1,2
104,280,97202,2,0,B|24:304,1,80,0|2
8,224,97589,5,4
24,144,97783,1,4
96,120,97976,1,4
152,64,98170,1,4
256,184,98557,1,12
256,184,98750,1,4
176,192,105331,6,0,B|136:216|136:264,2,80,0|0|2
216,264,105912,1,0
296,264,106105,1,0
336,192,106299,2,0,B|416:192,1,80,0|2
440,112,106686,2,2,B|404:64|348:64|304:112,1,160,0|0
256,176,107267,1,2
256,176,107460,1,0
208,112,107654,2,0,B|172:64|116:64|72:112,1,160,0|2
72,192,108234,1,0
72,192,108428,6,0,B|72:360,2,160,0|2|0
152,208,109396,2,0,B|152:128,1,80,0|2
152,48,109783,2,0,B|208:16|256:48|256:48|320:88|384:48,1,240,0|2
472,184,110750,2,2,B|460:184|460:184|466:200|466:200|449:195|449:195|455:212|455:212|438:206|438:206|443:223|443:223|426:217|426:217|432:234|432:234|415:229|415:229|421:246|421:246|404:240|404:240|409:257|409:257|392:251|392:251|398:268|398:268|381:263|381:263|387:280|387:280|370:274|370:274|370:285|370:285|358:297,1,320,0|4
296,336,111718,5,0
216,336,111912,1,2
152,288,112105,2,0,B|92:216|152:144,2,160,4|2|0
208,232,113073,2,0,B|256:200|276:168|256:136|256:136|236:168|256:200|304:232,1,240,4|2
360,288,113847,2,0,B|420:216|360:144,1,160,0|2
216,72,114621,5,4
192,148,114815,1,0
128,96,115009,1,2
128,96,115202,2,0,B|88:144|104:208|152:232,2,160,4|2|0
200,56,116170,2,0,B|256:24|320:56,2,120,4|0|2
216,136,116944,1,0
296,136,117138,1,4
296,136,117331,2,4,B|344:208|296:288,1,160
216,280,117912,5,0
136,288,118105,1,2
136,288,118299,2,0,B|88:209|136:137,2,160,4|2|0
216,280,119267,2,0,B|224:272|224:272|216:264|216:264|224:256|224:256|216:248|216:248|224:240|224:240|216:232|216:232|224:224|224:224|216:216|216:216|224:208|224:208|216:200|216:200|224:192|224:192|216:184|216:184|224:176|224:176|216:168|216:168|224:160|224:160|216:152|216:152|224:144|224:144|216:136|216:136|224:128|224:128|216:120|216:120|216:88,1,240,4|2
216,106,119944,1,0
216,106,120041,1,0
376,112,120428,5,0
448,144,120621,1,0
448,144,120815,2,0,B|496:224|448:296,2,160,4|2|0
352,216,121879,2,0,B|232:216,1,120,2|0
152,216,122363,2,0,B|112:272|152:328,2,120,4|2|0
152,136,123138,2,0,B|112:80|152:24,2,120,4|2|0
224,96,123912,5,4
296,192,124202,1,4
224,288,124492,1,4
224,288,124686,1,0
96,192,125073,2,0,B|72:192,8,20,0|0|0|0|0|0|0|0|4
176,144,125654,5,0
208,232,125847,2,0,B|208:272|176:304,2,80,8|0|0
304,232,126428,2,0,B|304:272|336:304,2,80,0|8|0
400,216,127009,6,0,B|400:176|368:144,1,80,0|2
272,128,127396,2,0,B|252:93|208:81,1,80,8|2
144,152,127783,2,0,B|109:131|65:143,2,80,0|2|8
200,232,128363,1,2
160,320,128557,6,0,B|128:352|80:352,2,80,4|0|8
256,312,129138,1,0
352,320,129331,2,0,B|384:352|432:352,2,80,0|0|8
256,312,129912,1,0
320,240,130105,6,0,B|386:195,1,80,0|2
304,144,130492,2,0,B|325:67,1,80,8|2
208,144,130879,2,0,B|185:67,1,80,0|2
192,240,131267,2,0,B|125:195,1,80,8|2
256,312,131654,6,0,B|224:336|176:328,2,80,4|0|8
336,248,132234,1,0
432,264,132428,2,0,B|496:192|432:120,1,160,0|8
336,136,133009,1,0
264,72,133202,6,0,B|190:39,1,80,0|2
200,144,133589,2,0,B|120:136,1,80,8|2
200,240,133976,2,0,B|112:248,1,80,0|2
264,312,134363,2,0,B|190:344,1,80,8|2
96,352,134750,5,4
16,296,134944,1,0
16,200,135138,2,0,B|16:120,2,80,8|0|4
96,248,135718,1,0
176,192,135912,2,0,B|176:112,1,80,8|0
264,72,136299,5,4
344,192,136589,1,4
264,312,136879,1,4
264,312,137073,1,4
112,192,137460,2,0,B|88:192,8,20,0|0|0|0|0|0|0|0|4
144,104,138041,5,0
232,64,138234,2,0,B|272:64|304:104,1,80,8|0
300,196,138621,1,0
300,196,138718,1,0
300,196,138815,2,0,B|300:276,2,80,0|8|0
216,240,139396,6,0,B|184:320,1,80,0|2
216,144,139783,2,0,B|184:64,1,80,8|2
120,256,140170,2,0,B|88:336,1,80,0|2
120,128,140557,2,0,B|88:48,1,80,8|2
8,104,140944,5,4
56,192,141138,1,0
8,280,141331,1,8
56,192,141525,1,0
152,192,141718,1,0
152,192,141815,1,0
152,192,141912,2,0,B|232:192,2,80,0|8|0
72,144,142492,6,0,B|104:64,1,80,0|2
72,240,142879,2,0,B|104:320,1,80,8|2
168,128,143266,2,0,B|200:48,1,80,0|2
168,256,143653,2,0,B|200:336,1,80,8|2
296,328,144041,6,0,B|336:328|368:288,2,80,4|0|8
256,240,144621,1,0
200,160,144815,2,0,B|296:120|256:80|216:120|312:160,1,160,0|8
400,200,145396,1,0
380,292,145589,6,0,B|300:324,1,80,0|2
134,291,145976,2,0,B|208:320,1,80,8|2
400,200,146363,2,0,B|320:232,1,80,0|2
112,200,146750,2,0,B|192:232,1,80,8|2
272,184,147138,5,0
312,96,147331,1,0
248,24,147525,2,0,B|204:16|176:48,2,80,8|0|4
312,96,148105,1,0
400,136,148299,2,0,B|432:164|424:208,1,80,8|0
392,296,148686,5,4
256,344,148976,1,4
120,296,149267,1,4
120,296,149460,1,4
256,160,149847,2,0,B|256:136,8,20
256,192,162041,5,4
256,192,162234,1,4
104,152,162621,6,0,B|96:112|136:80,2,80,0|2|8
104,232,163202,2,0,B|96:272|136:304,2,80,2|0|2
176,192,163783,1,8
176,192,163976,2,2,B|184:184|184:184|192:192|192:192|200:184|200:184|208:192|208:192|216:184|216:184|224:192|224:192|232:184|232:184|240:192|240:192|248:184|248:184|256:192|256:192|264:184|264:184|272:192|272:192|280:184|280:184|288:192|288:192|296:192,1,160
368,192,164557,1,0
368,192,164654,1,2
368,192,164750,1,0
416,128,164944,2,2,B|452:140|472:192|452:240|416:256,2,160,2|12|0
336,112,165912,5,2
256,128,166105,1,8
176,104,166299,1,0
96,120,166492,2,0,B|72:168|72:168|80:208,1,80,2|0
133,305,166879,2,0,B|157:257|157:257|152:232,2,80,10|2|0
56,280,167460,5,0
56,280,167557,1,2
56,280,167654,2,0,B|56:192,1,80,8|0
56,120,168041,2,2,B|128:56|200:120,2,160,2|8|4
80,192,169009,6,0,B|104:272,1,80,2|8
198,308,169396,2,0,B|176:232,1,80,2|0
233,147,169783,1,8
233,147,169879,1,2
233,147,169976,2,2,B|256:224,2,80,8|2|0
358,300,170557,6,0,B|336:224,1,80,2|8
353,75,170944,2,0,B|376:152,1,80,2|0
472,288,171331,1,8
472,288,171428,1,2
472,288,171525,2,2,B|449:211,2,80,8|0|4
400,320,172105,6,0,B|312:336,1,80,2|8
358,249,172492,2,0,B|280:264,1,80,2|0
320,176,172879,2,0,B|232:192,2,80,10|8|2
400,160,173460,6,0,B|424:96|376:48,2,120,4|0|0
112,224,174234,2,0,B|88:288|136:336,2,120,4|0|0
160,160,175009,1,4
256,232,175299,1,4
352,160,175589,1,4
352,160,175783,1,4
320,48,176073,1,4
200,48,176363,1,4
256,192,176557,12,4,178105
256,192,178492,5,2
400,128,178879,2,0,B|464:192|400:272,1,160,0|2
328,232,179460,1,0
256,192,179654,2,0,B|160:192,2,80,0|0|2
328,152,180234,1,0
256,112,180428,2,0,B|176:112|176:112|136:112|96:160,2,160,0|4|4
256,272,181589,6,0,B|336:272|336:272|376:272|416:224,2,160,2|0|2
176,272,182557,1,0
96,272,182750,2,0,B|16:248,1,80
96,192,183138,2,0,B|16:168,2,80,2|0|0
176,192,183718,1,12
176,192,183912,1,12
336,192,184299,6,0,B|396:120|336:48,1,160,4|2
176,192,185073,2,0,B|116:264|176:336,1,160,4|0
256,312,185654,1,0
336,328,185847,2,0,B|416:328,2,80,4|0|2
256,312,186428,1,0
256,312,186621,2,0,B|216:240|296:240|256:160,1,160,4|2
184,120,187202,1,0
136,184,187396,5,0
208,224,187589,1,0
256,160,187783,2,0,B|304:96,2,80,2|0|4
304,224,188363,1,0
256,288,188557,2,0,B|208:352,2,80,2|0|4
376,192,189234,2,4,B|432:224|432:160|488:192,2,120
136,192,190105,2,0,B|112:192,8,20,0|0|0|0|0|0|0|0|4
208,128,190686,5,0
280,192,190879,2,0,B|223:248,1,80,8|0
344,264,191267,1,0
344,264,191363,1,0
344,264,191460,2,0,B|400:208,2,80,0|8|0
256,312,192041,6,0,B|224:280|232:240,1,80,0|2
256,79,192428,2,0,B|288:111|280:152,1,80,8|2
111,183,192815,2,0,B|143:150|184:160,1,80,0|2
400,208,193202,2,0,B|367:240|327:231,1,80,8|2
232,240,193589,5,4
232,240,193686,1,0
232,240,193783,2,0,B|200:328,2,80,0|8|0
280,144,194363,1,0
280,144,194460,1,0
280,144,194557,2,0,B|312:56,2,80,0|8|0
184,160,195138,6,0,B|104:136,1,80,0|2
328,224,195525,2,0,B|408:248,1,80,8|2
232,240,195912,2,0,B|155:262,1,80,0|10
280,144,196299,2,0,B|356:121,1,80,8|2
208,88,196686,6,0,B|131:65,2,80,4|0|8
296,56,197267,1,0
368,120,197460,2,0,B|408:196|328:196|368:272,1,160,0|8
448,328,198041,1,0
464,232,198234,6,0,B|480:152,1,80,0|2
368,97,198621,2,0,B|384:176,1,80,8|2
280,286,199009,2,0,B|296:208,1,80,0|2
200,81,199396,2,0,B|216:160,1,80,8|2
184,248,199783,5,4
96,288,199976,1,0
24,224,200170,2,0,B|16:176|48:152,2,80,8|0|4
96,288,200750,1,0
160,360,200944,2,0,B|208:368|232:336,1,80,8|0
256,240,201331,5,4
328,112,201621,1,4
184,112,201912,1,4
184,112,202105,1,4
256,48,202299,1,0
256,48,202492,2,0,B|256:16,8,20
328,112,203073,5,0
344,208,203267,2,0,B|344:288,1,80,8|0
256,240,203654,1,0
256,240,203750,1,0
256,240,203847,2,0,B|256:320,2,80,0|8|0
168,208,204428,6,0,B|168:288,1,80,0|2
208,120,204815,2,0,B|208:40,1,80,0|2
304,40,205202,2,0,B|304:120,1,80,0|2
336,288,205589,2,0,B|336:208,1,80,0|2
256,240,205976,5,4
256,240,206072,1,0
256,240,206169,2,0,B|256:320,2,80,0|8|0
256,144,206750,1,0
256,144,206846,1,0
256,144,206943,2,0,B|256:64,2,80,0|8|0
176,200,207525,6,0,B|160:240|176:280,1,80,0|2
336,278,207912,2,0,B|352:240|336:200,1,80,8|2
256,66,208299,2,0,B|240:105|256:144,1,80,0|2
416,144,208686,2,0,B|431:105|415:65,1,80,8|2
336,200,209073,6,0,B|276:272|336:344,1,160,4|8
176,184,209847,2,0,B|236:112|176:40,1,160,0|8
80,40,210428,1,0
16,112,210621,6,0,B|0:150|16:190,1,80,0|2
176,184,211008,2,0,B|191:144|175:106,1,80,8|2
103,249,211395,2,0,B|88:288|104:328,1,80,0|2
264,328,211782,2,0,B|279:288|264:249,1,80,8|2
232,160,212170,5,4
232,64,212363,1,0
320,32,212557,2,0,B|400:56,1,80,8|0
344,136,212944,2,0,B|424:160,1,80,4|0
368,240,213331,2,0,B|448:264,1,80,8|0
376,328,213718,5,4
256,248,214009,1,4
136,328,214299,1,4
136,328,214492,1,4
256,168,214879,2,0,B|256:136,8,20,0|0|0|0|0|0|0|0|4
304,256,215460,6,0,B|384:256,1,80,2|0
208,256,215847,2,0,B|128:256,1,80,2|0
336,168,216234,6,0,B|416:168,1,80,2|0
176,168,216621,2,0,B|96:168,1,80,2|0
304,80,217009,6,0,B|384:80,1,80,2|0
208,80,217396,2,0,B|128:80,2,80,2|0|0
256,168,217976,5,2
256,264,218170,1,0
160,288,218363,6,0,B|176:336|216:336,1,80,4|2
352,288,218750,2,0,B|336:336|296:336,1,80,0|2
144,184,219138,6,0,B|184:216|224:216,1,80,0|2
368,184,219525,2,0,B|328:216|288:216,1,80,0|2
136,80,219912,6,0,B|176:96|224:96,1,80,0|2
376,80,220299,2,0,B|336:96|288:96,1,80,0|2
256,184,220686,5,0
208,264,220879,1,4
208,264,221073,1,4
304,264,221267,1,0
400,264,221460,6,0,B|432:240|432:240|432:200,1,80,4|2
376,80,221847,2,0,B|344:104|344:104|344:144,1,80,0|2
272,328,222234,6,0,B|304:304|304:304|304:264,1,80,0|2
248,144,222621,2,0,B|216:168|216:168|216:208,1,80,0|2
112,352,223009,6,0,B|144:328|144:328|144:288,1,80,0|2
88,168,223396,2,0,B|56:192|56:192|56:232,2,80,0|2|0
184,168,223976,1,0
256,104,224170,1,2
328,168,224363,1,0
408,224,224557,6,0,B|384:256|384:256|336:256,1,80,4|2
192,256,224944,2,0,B|216:224|216:224|256:224,1,80,0|2
368,120,225331,2,0,B|344:152|344:152|296:152,1,80,0|2
152,152,225718,2,0,B|176:120|176:120|216:120,1,80,0|2
288,64,226105,5,4
368,120,226299,1,4
416,200,226492,1,4
400,296,226686,1,4
144,256,227073,1,12
144,256,227267,1,12
256,24,227654,5,4
256,24,227847,1,4
256,24,228041,1,4
256,24,228234,1,4
304,272,228621,1,12
208,272,228815,1,12
256,192,229202,12,0,239267
