osu file format v9

[General]
AudioFilename: asadsdada.mp3
AudioLeadIn: 0
PreviewTime: 61589
Countdown: 0
SampleSet: Normal
StackLeniency: 0.7
Mode: 0
LetterboxInBreaks: 1

[Editor]
Bookmarks: 227654
DistanceSpacing: 0.8
BeatDivisor: 4
GridSize: 16

[Metadata]
Title:Assemble*LOVEsemble
Artist:fripSide
Creator:Natteke
Version:Lunet
Source:The elder sister is editor Erocomi
Tags:eroge nao garven aenna moonfragrance lepidopodus lunet

[Difficulty]
HPDrainRate:2
CircleSize:3
OverallDifficulty:1
ApproachRate:3
SliderMultiplier:0.8
SliderTickRate:0.5

[Events]
//Background and Video events
0,0,"bg_new.jpg"
//Break Periods
2,23466,34214
2,86950,97698
2,150434,161181
//Storyboard Layer 0 (Background)
//Storyboard Layer 1 (Fail)
//Storyboard Layer 2 (Pass)
//Storyboard Layer 3 (Foreground)
Sprite,Foreground,Centre,"sb_title.png",320,240 M,0,10686,10880,-79,274,192,274 F,0,10686,10880,0,1 F,0,10686,10880,0,1 S,0,10686,13589,0.6319998,0.6399998 F,0,10880,12428,1 M,0,10880,13589,192,274,240,274 F,0,12428,239267,1 F,0,239267,240041,1,0
Sprite,Foreground,Centre,"sb_title.png",320,240 M,0,13589,,240,274 F,0,13589,13879,1,0 S,0,13589,13879,0.6399999,0.872
//Storyboard Sound Samples
//Background Colour Transformations
3,100,163,162,255

[TimingPoints]
10880,387.096774193548,4,1,1,80,1,0
10976,-100,4,1,1,60,0,0
23267,-100,4,1,1,80,0,0
35654,-100,4,1,1,80,0,0
61976,-100,4,1,1,80,0,1
74363,-100,4,1,1,80,0,1
86750,-100,4,1,1,80,0,0
98944,-133.333333333333,4,1,1,80,0,0
105138,-100,4,1,1,80,0,0
125460,-100,4,1,1,80,0,1
150234,-100,4,1,1,80,0,0
177912,-133.333333333333,4,1,1,80,0,0
190492,-100,4,1,1,80,0,1
215267,-100,4,1,1,80,0,0
229009,-100,4,2,1,0,0,0

[Colours]
Combo1 : 17,254,176
Combo2 : 173,255,95
Combo3 : 255,88,100
Combo4 : 255,94,55

[HitObjects]
80,320,10880,6,0,B|320:272,1,240
400,256,12428,1,0
384,96,13202,1,0
384,96,13976,6,0,B|144:144,1,240
64,160,15525,1,0
80,320,16299,1,0
224,256,17073,6,0,B|96:160,1,160
176,64,18621,2,0,B|304:160,1,160
400,240,20170,5,0
400,240,20557,1,0
400,240,20944,2,0,B|384:224|384:224|384:240|384:240|368:224|368:224|368:240|368:240|352:224|352:224|352:240|352:240|336:224|336:224|336:240|336:240|320:224|320:224|320:240|320:240|304:224|304:224|304:240|304:240|288:224|288:224|288:240|288:240|272:224|272:224|272:240|272:240|256:224|256:224|256:240|256:240|240:224|240:224|240:240|240:240|224:224|224:224|224:240|224:240|208:224|208:224|208:240|208:240|192:224,1,480
112,80,35654,6,0,B|192:64|272:80,1,160
384,128,37202,2,0,B|416:208|336:272,1,160
224,336,38750,1,0
160,224,39525,1,0
272,160,40299,2,0,B|352:128,2,80
224,48,41847,6,0,B|144:64|96:144,1,160
80,272,43396,2,0,B|144:336|240:288,1,160
336,240,44944,2,0,B|416:208,3,80
464,176,46492,2,0,B|464:160|464:160|448:160|448:160|448:144|448:144|432:144|432:144|432:128|432:128|416:128|416:128|416:112|416:112|400:112|400:112|400:96|400:96|384:96,1,160
256,48,48041,6,0,B|112:128,1,160
192,240,49589,2,0,B|336:160,1,160
432,96,51138,5,0
432,96,51525,1,0
432,96,51912,1,0
432,96,52299,1,0
448,160,52686,2,0,B|464:240|384:304,1,160
272,336,54234,6,0,B|192:320|128:256,1,160
176,144,55783,2,0,B|240:96,1,80
304,80,56557,2,0,B|384:96,1,80
448,112,57331,6,0,B|432:192|352:240,1,160
304,288,58492,1,0
240,320,58879,2,0,B|176:272|144:192,1,160
112,128,60041,1,0
256,192,60428,12,0,61589
384,304,61976,6,2,B|320:144,1,160
208,80,63525,1,8
160,128,63912,1,8
112,176,64299,1,8
160,288,65073,6,2,B|320:240,1,160,0|8
400,144,66621,1,8
368,80,67009,1,8
304,96,67396,1,8
176,144,68170,6,2,B|208:224,1,80
256,256,68944,2,2,B|336:224,1,80
352,176,69718,2,2,B|320:96,2,80
384,304,71267,6,0,B|304:272|304:336|224:304,1,160
128,224,72815,2,0,B|64:176,2,80
176,256,73976,1,8
240,288,74363,6,2,B|400:256,1,160
464,144,75912,1,8
416,112,76299,1,8
352,96,76686,1,8
224,80,77460,6,2,B|144:224,1,160,0|8
192,336,79009,1,8
256,320,79396,1,8
320,304,79783,1,8
384,192,80557,6,2,B|336:128,1,80
272,112,81331,2,2,B|208:160,1,80
208,224,82105,1,4
240,272,82492,1,4
288,240,82879,1,4
368,144,83654,6,0,B|320:80|240:48,1,160
176,160,85202,2,0,B|304:256,2,160
160,144,99138,6,0,B|288:112,1,119.999996423721
400,192,100686,2,0,B|272:224,1,119.999996423721
176,304,102234,6,0,B|144:176,1,119.999996423721
208,64,103783,1,0
208,64,104170,2,0,B|272:80,2,59.9999982118607
240,160,105331,6,0,B|160:192,1,80
128,288,106105,2,0,B|208:320,1,80
288,352,106879,2,0,B|336:192,1,160
192,64,108428,6,0,B|240:64|272:96,1,80
288,176,109202,2,0,B|272:224|224:240,1,80
256,192,109976,12,0,111138
96,224,111525,6,0,B|144:176|192:208|240:160,1,160
336,80,113073,1,0
336,80,113460,1,0
336,80,113847,1,0
336,80,114621,6,0,B|416:112|400:224,1,160
304,288,116170,2,0,B|256:208|160:240,1,160
48,176,117718,6,0,B|144:160|176:80,1,160
304,64,119267,2,0,B|368:112,1,80
416,160,120041,2,0,B|384:240,1,80
352,288,120815,6,0,B|304:256|240:288|192:240,1,160
176,192,121976,1,0
192,128,122363,6,0,B|208:112|208:112|208:128|208:128|224:112|224:112|224:128|224:128|240:112|240:112|240:128|240:128|256:112|256:112|256:128|256:128|272:112|272:112|272:128|272:128|288:112|288:112|288:128|288:128|304:112,1,240
256,192,123912,12,0,125073
320,96,125460,6,2,B|368:160|336:256,1,160
224,288,127009,1,8
240,224,127396,1,8
176,208,127783,1,8
240,96,128557,6,2,B|320:128,1,80
352,176,129331,2,2,B|320:256,1,80
272,272,130105,2,6,B|192:240,2,80
160,224,131654,5,0
144,160,132041,1,0
160,96,132428,2,2,B|240:64,1,80
304,80,133202,2,2,B|400:96|432:176,1,160
352,272,134750,6,2,B|288:224|192:240,1,160
80,192,136299,2,2,B|48:272,2,80
160,80,137847,6,2,B|256:64|304:128,1,160
208,208,139396,2,2,B|272:272,1,80
304,304,140170,1,4
400,224,140944,5,2
400,224,141331,1,2
416,160,141718,1,2
416,160,142105,1,2
464,128,142492,2,8,B|416:96|464:64,2,80
336,160,144041,6,2,B|272:96|176:128,1,160
80,192,145589,2,8,B|80:240|112:272,1,80
160,304,146363,2,8,B|208:288|224:256,1,80
288,224,147138,6,2,B|320:128|416:144,1,160
464,160,148299,1,8
256,192,148686,12,0,150234
96,144,162621,6,0,B|416:96,1,320
432,224,164944,1,0
432,224,165718,2,0,B|112:272,1,320
96,144,168041,1,0
96,144,168815,6,0,B|416:192,1,320
432,64,171138,1,0
368,96,171525,1,0
304,128,171912,2,0,B|272:160|288:208,1,80
304,256,172686,2,0,B|336:288|320:336,1,80
256,192,173460,12,0,176557
160,304,178105,6,0,B|144:240|160:176,1,119.999996423721
208,96,179654,2,0,B|272:64,1,59.9999982118607
304,48,180428,1,0
400,80,181202,6,0,B|448:128|448:192,1,119.999996423721
416,272,182750,1,0
416,272,183138,1,0
416,272,183525,1,0
336,208,184299,6,0,B|288:256,1,59.9999982118607
336,208,185073,2,0,B|384:160,1,59.9999982118607
336,208,185847,2,0,B|240:128,1,119.999996423721
240,224,187396,6,0,B|224:224|224:224|224:240|224:240|208:240|208:240|208:256|208:256|192:256|192:256|192:272|192:272|176:272|176:272|176:288,2,119.999996423721
320,160,189718,1,0
400,64,190492,6,2,B|320:48|240:64,1,160
112,112,192041,1,8
128,176,192428,1,8
176,208,192815,1,8
304,192,193589,6,2,B|384:144,1,80
304,192,194363,2,2,B|224:240,1,80
224,304,195138,1,8
288,320,195525,1,8
352,304,195912,1,8
432,208,196686,6,2,B|416:128|336:80,1,160
208,64,198234,1,8
160,96,198621,1,8
208,64,199009,1,8
272,176,199783,6,2,B|208:224,1,80
144,240,200557,2,2,B|96:176,1,80
256,192,201331,12,0,202492
256,192,202879,6,2,B|416:192,1,160
336,96,204428,1,0
272,128,204815,1,0
208,128,205202,2,0,B|128:112,1,80
208,128,205976,6,2,B|240:208,2,80
144,144,207138,1,8
80,160,207525,2,2,B|48:80,2,80
128,272,209073,6,2,B|208:256|272:192,1,160
208,80,210621,2,2,B|288:32|368:64,1,160
448,160,212170,5,8
416,224,212557,1,8
384,288,212944,2,2,B|304:256,1,80
256,192,213718,12,4,215267
64,96,216041,6,0,B|144:96,1,80
208,128,216815,2,0,B|208:288,2,160
448,96,219138,6,0,B|368:96,1,80
304,128,219912,2,0,B|304:288,2,160,0|0|4
112,112,222234,6,0,B|93:148|112:192,1,80
176,192,223009,2,0,B|336:192,1,160
400,192,224170,2,0,B|417:150|398:114,1,80
336,96,224944,6,0,B|160:96,1,160
208,160,226105,6,0,B|80:160,2,120
304,160,227654,6,0,B|432:160,2,120
256,192,229202,12,0,239267
