osu file format v14

[General]
AudioFilename: New game op remix.mp3
AudioLeadIn: 0
PreviewTime: 52114
Countdown: 0
SampleSet: Soft
StackLeniency: 0.7
Mode: 0
LetterboxInBreaks: 0
WidescreenStoryboard: 0

[Editor]
DistanceSpacing: 1.2
BeatDivisor: 4
GridSize: 4
TimelineZoom: 3.1

[Metadata]
Title:SAKURA Skip (Inulloid DnB Remix)
TitleUnicode:SAKURA Skip (Inulloid DnB Remix)
Artist:fourfolium
ArtistUnicode:fourfolium
Creator:chucentry
Version:Hifumi
Source:New Game!
Tags:
BeatmapID:1077725
BeatmapSetID:506649

[Difficulty]
HPDrainRate:6
CircleSize:4
OverallDifficulty:8
ApproachRate:9.1
SliderMultiplier:1.8
SliderTickRate:2

[Events]
//Background and Video events
0,0,"maxresdefault (6).jpg",0,0
//Break Periods
//Storyboard Layer 0 (Background)
//Storyboard Layer 1 (Fail)
//Storyboard Layer 2 (Pass)
//Storyboard Layer 3 (Foreground)
//Storyboard Sound Samples

[TimingPoints]
-1371,342.857142857143,4,2,1,40,1,0
0,-125,4,2,1,40,0,0
5143,-66.6666666666667,4,2,1,50,0,0
5486,-100,4,2,1,50,0,0
9429,-83.3333333333333,4,2,1,50,0,0
10971,-100,4,2,1,50,0,0
13714,-125,4,2,1,40,0,0
16457,-100,4,2,1,60,0,0
20400,-133.333333333333,4,2,1,60,0,0
21943,-100,4,2,1,60,0,0
35657,-100,4,2,3,40,0,0
36857,-100,4,2,1,60,0,0
38057,-66.6666666666667,4,2,1,60,0,0
38400,-111.111111111111,4,2,1,60,0,0
42000,-66.6666666666667,4,2,1,60,0,0
43543,-133.333333333333,4,2,1,30,0,0
43886,-100,4,2,1,60,0,0
51771,-166.666666666667,4,2,1,40,0,0
52114,-90.9090909090909,4,2,3,80,0,1
52200,-90.9090909090909,4,2,1,80,0,0
56057,-133.333333333333,4,2,1,40,0,0
56400,-90.9090909090909,4,2,1,80,0,0
60343,-125,4,2,1,40,0,0
61886,-125,4,2,1,50,0,0
63086,-166.666666666667,4,2,1,40,0,0
63429,-83.3333333333333,4,2,1,60,0,0
64457,-166.666666666667,4,2,1,40,0,0
64800,-83.3333333333333,4,2,1,60,0,0
65829,-166.666666666667,4,2,1,40,0,0
66171,-83.3333333333333,4,2,1,60,0,0
67029,-166.666666666667,4,2,1,40,0,0
67371,-83.3333333333333,4,2,1,60,0,0
67886,-166.666666666667,4,2,1,40,0,0
68229,-76.9230769230769,4,2,3,70,0,0
68571,-166.666666666667,4,2,1,40,0,0
68914,-83.3333333333333,4,2,1,60,0,0
69943,-166.666666666667,4,2,1,60,0,0
71314,-100,4,2,1,60,0,0
72857,-100,4,2,1,50,0,0
74057,-100,4,2,1,60,0,0
85029,-100,4,2,1,60,0,0
93257,-100,4,2,3,40,0,0
94800,-100,4,2,1,60,0,0
96000,-111.111111111111,4,2,1,60,0,0
99600,-66.6666666666667,4,2,1,60,0,0
101143,-133.333333333333,4,2,1,30,0,0
101486,-100,4,2,1,60,0,0
109371,-166.666666666667,4,2,1,40,0,0
109714,-90.9090909090909,4,2,3,80,0,1
109800,-90.9090909090909,4,2,1,80,0,0
113657,-166.666666666667,4,2,1,40,0,0
114171,-90.9090909090909,4,2,1,80,0,0
117943,-125,4,2,1,40,0,0
119486,-125,4,2,1,60,0,0
120686,-166.666666666667,4,2,1,40,0,0
121200,-83.3333333333333,4,2,1,60,0,0
122057,-166.666666666667,4,2,1,40,0,0
122743,-83.3333333333333,4,2,1,60,0,0
123429,-166.666666666667,4,2,1,40,0,0
124114,-83.3333333333333,4,2,1,60,0,0
124629,-166.666666666667,4,2,1,40,0,0
124971,-83.3333333333333,4,2,1,60,0,0
125486,-166.666666666667,4,2,1,40,0,0
125829,-76.9230769230769,4,2,3,70,0,0
126171,-166.666666666667,4,2,1,40,0,0
126857,-83.3333333333333,4,2,1,60,0,0
127543,-166.666666666667,4,2,1,40,0,0
128914,-100,4,2,1,60,0,0
131314,-125,4,2,1,40,0,0
131657,-76.9230769230769,4,2,3,80,0,1
131743,-76.9230769230769,4,2,1,80,0,0
133714,-142.857142857143,4,2,1,80,0,0
133886,-76.923076923077,4,2,1,80,0,0
134057,-142.857142857143,4,2,1,80,0,0
134229,-76.923076923077,4,2,1,80,0,0
136457,-66.6666666666667,4,2,1,80,0,0
136629,-76.9230769230769,4,2,1,80,0,0
137829,-66.6666666666667,4,2,1,80,0,0
138514,-76.9230769230769,4,2,1,80,0,0
139886,-100,4,2,1,60,0,0
153257,-76.9230769230769,4,2,1,50,0,0
153600,-125,4,2,1,40,0,0
159086,-125,4,2,1,50,0,0
164229,-166.666666666667,4,2,1,40,0,0
164571,-100,4,2,1,60,0,0
172800,-90.9090909090909,4,2,3,80,0,1
172886,-90.9090909090909,4,2,1,80,0,0
176743,-166.666666666667,4,2,1,40,0,0
177943,-90.9090909090909,4,2,1,80,0,0
181029,-125,4,2,1,40,0,0
183771,-125,4,2,1,50,0,0
187714,-166.666666666667,4,2,1,40,0,0
188057,-83.3333333333334,4,2,1,60,0,0
188571,-166.666666666667,4,2,1,40,0,0
188914,-76.9230769230769,4,2,3,70,0,0
189257,-125,4,2,1,40,0,0
192000,-100,4,2,1,60,0,0
194400,-133.333333333333,4,2,1,40,0,0
194743,-100,4,2,1,60,0,0
205714,-100,4,2,0,30,0,0

[HitObjects]
464,202,0,6,0,L|319:197,1,144,2|8,0:0|0:0,0:0:0:0:
219,157,514,1,0,0:0:0:0:
308,19,686,2,0,B|312:58|312:58|300:109,1,72,0|2,0:0|0:0,0:0:0:0:
142,197,1029,2,0,B|134:165|134:165|138:126,1,72,8|0,0:0|0:0,0:0:0:0:
271,280,1371,6,0,B|225:263|225:263|121:280,1,144,2|8,0:0|0:0,0:0:0:0:
44,343,1886,1,0,0:0:0:0:
37,164,2057,2,0,L|30:260,1,72
176,109,2400,2,0,L|170:37,1,72,8|0,0:0|0:0,0:0:0:0:
281,136,2743,6,0,L|270:284,1,144,2|8,0:0|0:0,0:0:0:0:
183,215,3257,1,0,0:0:0:0:
352,146,3429,2,0,L|251:131,1,72,0|2,0:0|0:0,0:0:0:0:
170,37,3771,2,0,L|271:22,1,72,8|0,0:0|0:0,0:0:0:0:
139,141,4114,6,0,P|99:198|116:266,1,144,2|8,0:0|0:0,0:0:0:0:
202,333,4629,1,0,0:0:0:0:
298,207,4800,2,0,L|295:291,1,72
139,141,5143,6,2,B|211:115|278:138|278:138|246:145|223:193,1,202.500007724762,10|2,0:0|0:0,0:0:0:0:
166,235,5486,5,4,0:0:0:0:
256,56,5657,1,0,0:0:0:0:
298,207,5829,1,8,0:0:0:0:
406,156,6000,1,0,0:0:0:0:
406,156,6086,1,0,0:0:0:0:
406,156,6171,2,0,P|413:199|399:273,1,90
208,340,6514,2,0,P|241:312|312:287,1,90,8|0,0:0|0:0,0:0:0:0:
166,140,6857,5,2,0:0:0:0:
139,293,7029,1,0,0:0:0:0:
298,207,7200,1,8,0:0:0:0:
400,334,7371,1,0,0:0:0:0:
400,334,7457,1,0,0:0:0:0:
400,334,7543,2,0,L|409:234,1,90
256,140,7886,2,0,B|297:158|297:158|356:136,1,90,8|0,0:0|0:0,0:0:0:0:
146,72,8229,6,0,L|130:198,1,90,2|0,0:0|0:0,0:0:0:0:
158,265,8571,1,8,0:0:0:0:
269,341,8743,1,0,0:0:0:0:
268,310,8828,1,0,0:0:0:0:
269,280,8914,1,0,0:0:0:0:
256,140,9086,1,0,0:0:0:0:
370,248,9257,1,8,0:0:0:0:
422,101,9429,6,0,B|372:120|310:91|310:91|332:118|328:135,1,161.999995056153,4|0,0:0|0:0,0:0:0:0:
290,229,9771,6,0,B|281:178|328:133|328:133|290:136|243:127,1,161.999995056153,4|0,0:0|0:0,0:0:0:0:
145,137,10114,6,0,B|208:148|274:132|274:132|248:114|251:110,1,161.999995056153,4|0,0:0|0:0,0:0:0:0:
194,51,10457,1,2,0:0:0:0:
145,137,10629,6,0,P|84:164|103:101,1,161.999995056153,4|0,0:0|0:0,0:0:0:0:
194,51,10971,5,2,0:0:0:0:
253,141,11143,1,0,0:0:0:0:
253,141,11229,1,0,0:0:0:0:
253,141,11314,2,0,L|310:134,1,45,8|0,0:0|0:0,0:0:0:0:
447,85,11486,2,0,L|390:78,1,45
283,44,11657,2,0,L|179:52,1,90
108,160,12000,1,8,0:0:0:0:
85,43,12171,1,0,0:0:0:0:
62,224,12343,6,0,P|100:240|156:223,1,90,2|0,0:0|0:0,0:0:0:0:
253,141,12686,1,8,0:0:0:0:
272,283,12857,1,0,0:0:0:0:
272,283,12943,1,0,0:0:0:0:
272,283,13029,2,0,L|277:225,1,45
241,76,13200,2,0,L|244:120,1,45
348,167,13371,2,0,L|461:161,1,90,8|0,0:0|0:0,0:0:0:0:
352,353,13714,6,0,B|342:316|342:316|351:275,1,72,2|0,0:0|0:0,0:0:0:0:
270,88,14057,2,0,B|277:120|277:120|267:157,1,72,8|0,0:0|0:0,0:0:0:0:
411,214,14400,6,0,B|424:178|424:178|421:144,1,72,2|0,0:0|0:0,0:0:0:0:
204,246,14743,2,0,B|193:277|193:277|199:315,1,72,8|0,0:0|0:0,0:0:0:0:
137,144,15086,5,8,0:0:0:0:
312,226,15257,1,2,0:0:0:0:
94,257,15429,1,8,0:0:0:0:
270,88,15600,1,2,0:0:0:0:
204,246,15771,5,8,0:0:0:0:
190,303,15856,1,8,0:0:0:0:
243,333,15942,1,8,0:0:0:0:
288,292,16028,1,8,0:0:0:0:
264,238,16113,1,8,0:0:0:0:
221,25,16286,5,8,0:0:0:0:
271,8,16371,1,8,0:0:0:0:
321,26,16457,6,0,L|315:141,1,90,6|0,0:0|0:0,0:0:0:0:
385,234,16800,2,0,P|357:233|318:221,1,45,8|0,0:0|0:0,0:0:0:0:
225,169,16971,2,0,P|205:189|186:225,1,45
303,343,17143,1,0,0:0:0:0:
264,238,17314,1,0,0:0:0:0:
118,345,17486,2,0,L|116:244,1,90,8|0,0:0|0:0,0:0:0:0:
191,37,17829,5,2,0:0:0:0:
225,169,18000,1,0,0:0:0:0:
328,87,18171,1,8,0:0:0:0:
127,128,18343,1,0,0:0:0:0:
127,128,18429,1,0,0:0:0:0:
127,128,18514,2,0,L|124:221,1,90
186,333,18857,2,0,P|190:303|202:267,1,45,8|0,0:0|0:0,0:0:0:0:
225,169,19029,1,0,0:0:0:0:
351,325,19200,6,0,L|262:322,1,90,2|0,0:0|0:0,0:0:0:0:
313,200,19543,1,8,0:0:0:0:
438,290,19714,1,0,0:0:0:0:
438,290,19800,1,0,0:0:0:0:
438,290,19886,2,0,L|445:186,1,90
311,90,20229,1,8,0:0:0:0:
434,88,20400,6,0,P|392:72|334:79,1,101.250003862381,2|0,0:0|0:0,0:0:0:0:
311,90,20743,5,2,0:0:0:0:
109,88,20914,1,8,0:0:0:0:
328,200,21086,5,2,0:0:0:0:
82,196,21257,1,8,0:0:0:0:
210,43,21429,5,2,0:0:0:0:
197,288,21600,1,8,0:0:0:0:
202,144,21771,5,2,0:0:0:0:
286,274,21943,6,0,P|371:272|410:196,1,180,6|8,0:0|0:0,0:0:0:0:
321,33,22457,1,0,0:0:0:0:
321,33,22543,1,0,0:0:0:0:
321,33,22629,2,0,L|318:105,1,45
202,144,22800,2,0,L|205:216,1,45
286,274,22971,2,0,L|285:368,1,90,8|0,0:0|0:0,0:0:0:0:
133,310,23314,6,0,P|119:238|121:208,1,90,2|0,0:0|0:0,0:0:0:0:
202,144,23657,1,8,0:0:0:0:
70,66,23829,1,0,0:0:0:0:
70,66,23914,1,0,0:0:0:0:
70,66,24000,2,0,L|74:124,1,45
85,230,24171,1,0,0:0:0:0:
202,144,24343,2,0,L|314:141,1,90,8|0,0:0|0:0,0:0:0:0:
432,266,24686,5,8,0:0:0:0:
429,287,24857,1,2,0:0:0:0:
285,242,25029,5,8,0:0:0:0:
282,221,25200,1,2,0:0:0:0:
427,119,25371,5,8,0:0:0:0:
424,140,25542,1,2,0:0:0:0:
280,95,25714,5,8,0:0:0:0:
277,74,25885,1,2,0:0:0:0:
274,53,26229,5,2,0:0:0:0:
429,287,26400,1,8,0:0:0:0:
430,98,26571,1,2,0:0:0:0:
285,242,26743,1,8,0:0:0:0:
285,242,26829,1,8,0:0:0:0:
285,242,26914,1,8,0:0:0:0:
285,242,27000,1,8,0:0:0:0:
285,242,27086,1,8,0:0:0:0:
165,331,27257,5,8,0:0:0:0:
120,331,27342,1,8,0:0:0:0:
75,331,27429,6,0,L|73:216,1,90,6|0,0:0|0:0,0:0:0:0:
185,102,27771,1,8,0:0:0:0:
166,237,27943,1,0,0:0:0:0:
55,140,28114,1,0,0:0:0:0:
217,120,28286,1,0,0:0:0:0:
285,242,28457,2,0,L|278:331,1,90,8|0,0:0|0:0,0:0:0:0:
416,272,28800,6,0,P|415:210|404:178,1,90,2|0,0:0|0:0,0:0:0:0:
285,242,29143,1,8,0:0:0:0:
303,94,29314,1,0,0:0:0:0:
303,94,29400,1,0,0:0:0:0:
303,94,29486,1,0,0:0:0:0:
406,183,29657,1,0,0:0:0:0:
217,120,29829,1,8,0:0:0:0:
285,242,30000,1,0,0:0:0:0:
237,32,30171,5,2,0:0:0:0:
197,208,30343,1,0,0:0:0:0:
303,94,30514,1,8,0:0:0:0:
130,146,30686,1,0,0:0:0:0:
112,177,30771,1,0,0:0:0:0:
108,213,30857,1,0,0:0:0:0:
117,248,30943,1,0,0:0:0:0:
140,277,31028,1,0,0:0:0:0:
285,242,31200,1,8,0:0:0:0:
402,338,31371,6,0,L|410:237,1,90,4|0,0:0|0:0,0:0:0:0:
416,155,31714,1,2,0:0:0:0:
271,59,31886,5,8,0:0:0:0:
285,242,32057,1,2,0:0:0:0:
140,277,32229,5,8,0:0:0:0:
154,94,32400,1,2,0:0:0:0:
9,129,32571,5,8,0:0:0:0:
23,312,32742,1,2,0:0:0:0:
104,187,32914,5,2,0:0:0:0:
285,242,33086,1,2,0:0:0:0:
226,125,33257,1,8,0:0:0:0:
140,277,33429,1,0,0:0:0:0:
140,277,33514,1,0,0:0:0:0:
140,277,33600,2,0,L|135:352,1,45
96,163,33771,1,0,0:0:0:0:
213,206,33943,2,0,L|325:201,1,90,8|0,0:0|0:0,0:0:0:0:
382,158,34200,1,0,0:0:0:0:
382,158,34286,6,0,P|390:206|369:265,1,90,8|0,0:0|0:0,0:0:0:0:
237,304,34629,1,8,0:0:0:0:
237,304,34714,1,0,0:0:0:0:
237,304,34800,2,0,L|230:243,1,45
198,58,34971,1,8,0:0:0:0:
382,158,35143,1,0,0:0:0:0:
213,206,35314,2,0,L|105:209,1,90,8|0,0:0|0:0,0:0:0:0:
198,58,35657,5,2,0:0:0:0:
237,304,35829,1,2,0:0:0:0:
99,188,36000,1,2,0:0:0:0:
345,149,36172,1,2,0:0:0:0:
213,206,36343,5,0,0:0:0:0:
355,48,36514,1,2,0:0:0:0:
99,188,36686,1,2,0:0:0:0:
335,250,36857,5,2,0:0:0:0:
345,149,37200,5,2,0:0:0:0:
355,48,37543,5,2,0:0:0:0:
325,351,37886,5,2,0:0:0:0:
424,347,38057,6,2,B|360:330|324:352|324:352|373:372,1,135.000005149842
449,254,38400,6,0,B|386:220|333:251|333:251|357:250|377:264,1,161.999995056153,2|0,0:0|0:0,0:0:0:0:
269,285,38914,2,0,P|261:259|270:220,1,40.4999987640381,2|0,0:0|0:0,0:0:0:0:
307,127,39086,2,0,P|306:147|299:166,1,40.4999987640381,2|0,0:0|0:0,0:0:0:0:
205,172,39257,6,0,B|148:150|89:180|89:180|148:197,1,161.999995056153,2|0,0:0|0:0,0:0:0:0:
52,353,39771,2,0,P|48:320|55:287,1,40.4999987640381
130,271,39943,5,10,0:0:0:0:
162,266,40029,1,10,0:0:0:0:
238,295,40114,5,10,0:0:0:0:
269,285,40200,1,10,0:0:0:0:
321,220,40286,5,10,0:0:0:0:
352,226,40371,1,10,0:0:0:0:
416,278,40457,6,0,P|460:327|385:347,1,161.999995056153,2|0,0:0|0:0,0:0:0:0:
269,285,40971,1,8,0:0:0:0:
384,196,41143,6,0,B|258:198|258:198|289:213,1,161.999995056153,2|0,0:0|0:0,0:0:0:0:
318,117,41657,1,0,0:0:0:0:
318,117,41743,1,0,0:0:0:0:
318,117,41829,1,8,0:0:0:0:
204,77,42000,6,0,B|197:110|197:110|200:160,1,67.5000025749208,2|0,0:0|0:0,0:0:0:0:
269,285,42171,2,0,B|271:251|271:251|264:218,1,67.5000025749208,2|0,0:0|0:0,0:0:0:0:
105,252,42343,2,0,B|138:259|138:259|188:256,1,67.5000025749208,2|0,0:0|0:0,0:0:0:0:
318,117,42514,6,2,P|377:131|380:205,1,135.000005149842
350,295,42771,6,2,P|332:236|395:197,1,135.000005149842
464,179,43029,6,2,P|427:219|368:188,1,67.5000025749208
267,188,43200,6,0,B|209:171|163:190|163:190|184:214|186:240,1,135.000005149842,2|0,0:0|0:0,0:0:0:0:
391,145,43543,6,2,P|395:95|367:54,1,101.250003862381
279,39,43886,6,0,L|178:34,1,90,6|0,0:0|0:0,0:0:0:0:
52,137,44229,2,0,L|153:132,1,90,8|0,0:0|0:0,0:0:0:0:
391,145,44571,6,0,L|290:140,1,90,2|0,0:0|0:0,0:0:0:0:
164,243,44914,2,0,L|265:238,1,90,8|0,0:0|0:0,0:0:0:0:
455,189,45257,2,0,P|466:129|448:90,1,90,2|0,0:0|0:0,0:0:0:0:
253,238,45600,2,0,P|242:298|260:337,1,90,8|0,0:0|0:0,0:0:0:0:
413,281,45943,2,0,P|369:273|326:282,1,90,2|0,0:0|0:0,0:0:0:0:
114,176,46286,2,0,P|157:184|201:175,1,90,8|0,0:0|0:0,0:0:0:0:
324,74,46629,5,8,0:0:0:0:
158,88,46800,1,2,0:0:0:0:
367,191,46971,5,8,0:0:0:0:
201,175,47143,1,2,0:0:0:0:
324,74,47314,5,8,0:0:0:0:
293,254,47486,1,2,0:0:0:0:
114,176,47657,5,8,0:0:0:0:
145,356,47828,1,2,0:0:0:0:
286,158,48000,5,8,0:0:0:0:
155,256,48171,1,2,0:0:0:0:
352,324,48343,1,8,0:0:0:0:
428,217,48514,5,8,0:0:0:0:
441,198,48600,1,8,0:0:0:0:
448,176,48686,2,8,L|443:104,1,45
298,39,48857,5,8,0:0:0:0:
285,58,48943,1,8,0:0:0:0:
278,80,49029,2,8,L|283:152,1,45
293,254,49200,1,8,0:0:0:0:
364,101,49371,5,2,0:0:0:0:
162,154,49714,1,2,0:0:0:0:
352,324,50057,5,2,0:0:0:0:
140,317,50229,5,2,0:0:0:0:
293,254,50400,1,8,0:0:0:0:
114,188,50572,1,2,0:0:0:0:
364,101,50743,5,8,0:0:0:0:
190,108,50915,1,2,0:0:0:0:
227,334,51086,5,8,0:0:0:0:
271,364,51171,1,8,0:0:0:0:
321,343,51257,1,8,0:0:0:0:
331,290,51343,1,8,0:0:0:0:
293,254,51429,5,8,0:0:0:0:
265,205,51514,1,8,0:0:0:0:
272,150,51600,1,8,0:0:0:0:
311,110,51686,1,8,0:0:0:0:
364,101,51771,6,0,B|405:90|429:101|429:101|410:131,1,80.9999975280763,14|0,0:0|0:0,0:0:0:0:
368,196,52114,5,6,0:0:0:0:
325,26,52286,1,0,0:0:0:0:
173,146,52457,2,0,L|271:149,1,99.0000030212403,8|0,0:0|0:0,0:0:0:0:
272,150,52714,1,0,0:0:0:0:
272,150,52800,1,0,0:0:0:0:
89,44,52971,1,0,0:0:0:0:
167,244,53143,2,0,L|173:146,1,99.0000030212403,8|0,0:0|0:0,0:0:0:0:
313,269,53486,5,2,0:0:0:0:
364,101,53657,1,0,0:0:0:0:
417,314,53829,1,8,0:0:0:0:
464,196,54000,1,0,0:0:0:0:
464,196,54086,1,0,0:0:0:0:
464,196,54171,2,0,P|414:186|360:198,1,99.0000030212403
199,285,54514,2,0,P|248:294|302:282,1,99.0000030212403,8|0,0:0|0:0,0:0:0:0:
364,101,54857,6,0,B|307:80|261:104|261:104|222:84|158:102,1,198.000006042481,2|8,0:0|0:0,0:0:0:0:
315,207,55371,1,0,0:0:0:0:
327,241,55456,1,0,0:0:0:0:
323,278,55542,1,0,0:0:0:0:
303,309,55628,1,0,0:0:0:0:
272,328,55713,1,0,0:0:0:0:
186,243,55886,1,8,0:0:0:0:
343,25,56057,6,0,P|395:28|439:82,1,101.250003862381,2|0,0:0|0:0,0:0:0:0:
451,141,56400,1,2,0:0:0:0:
199,98,56571,5,8,0:0:0:0:
155,292,56743,1,2,0:0:0:0:
364,101,56914,5,8,0:0:0:0:
402,296,57086,1,2,0:0:0:0:
160,189,57257,5,8,0:0:0:0:
381,194,57429,1,2,0:0:0:0:
265,317,57600,6,0,B|204:355|116:304|116:304|181:281,1,198.000006042481,6|8,0:0|0:0,0:0:0:0:
350,350,58114,1,0,0:0:0:0:
392,325,58199,1,0,0:0:0:0:
414,281,58285,1,0,0:0:0:0:
410,233,58371,1,0,0:0:0:0:
381,194,58456,1,0,0:0:0:0:
238,232,58629,1,8,0:0:0:0:
118,80,58800,5,0,0:0:0:0:
118,80,58886,1,0,0:0:0:0:
118,80,58971,2,0,L|113:200,1,99.0000030212403,2|0,0:0|0:0,0:0:0:0:
241,38,59314,1,8,0:0:0:0:
303,157,59486,1,0,0:0:0:0:
303,157,59571,1,0,0:0:0:0:
303,157,59657,2,0,L|310:233,1,49.5000015106202
369,76,59829,1,0,0:0:0:0:
479,195,60000,2,0,L|367:193,1,99.0000030212403,8|0,0:0|0:0,0:0:0:0:
116,238,60343,6,0,P|103:181|111:144,1,72,2|0,0:0|0:0,0:0:0:0:
241,38,60686,2,0,P|240:73|229:107,1,72,8|0,0:0|0:0,0:0:0:0:
157,311,61029,6,0,P|123:322|87:322,1,72,2|0,0:0|0:0,0:0:0:0:
217,185,61371,1,8,0:0:0:0:
291,295,61543,1,4,0:0:0:0:
291,295,61886,5,2,0:0:0:0:
291,271,62057,1,2,0:0:0:0:
292,247,62229,1,2,0:0:0:0:
293,223,62400,5,8,0:0:0:0:
327,181,62485,1,8,0:0:0:0:
378,165,62571,1,8,0:0:0:0:
429,182,62657,1,8,0:0:0:0:
461,224,62742,1,8,0:0:0:0:
291,319,62914,5,8,0:0:0:0:
237,327,63000,1,8,0:0:0:0:
183,318,63086,6,0,L|181:194,1,107.999996704102,6|8,0:0|0:0,0:0:0:0:
185,41,63600,1,2,0:0:0:0:
245,104,63771,2,0,P|210:121|147:121,1,53.9999983520508,10|0,0:0|0:0,0:0:0:0:
47,60,63943,2,0,P|79:81|110:136,1,53.9999983520508,2|0,0:0|0:0,0:0:0:0:
108,254,64114,2,0,P|110:215|142:160,1,53.9999983520508,10|0,0:0|0:0,0:0:0:0:
255,280,64286,2,0,P|261:306|262:333,1,53.9999983520508,2|0,0:0|0:0,0:0:0:0:
184,220,64457,6,0,P|227:190|286:192,1,107.999996704102,2|8,0:0|0:0,0:0:0:0:
346,244,64971,1,2,0:0:0:0:
457,335,65143,2,0,L|461:279,1,53.9999983520508,10|0,0:0|0:0,0:0:0:0:
375,215,65314,2,0,L|371:159,1,53.9999983520508,2|0,0:0|0:0,0:0:0:0:
457,95,65486,2,0,L|461:39,1,53.9999983520508,8|0,0:0|0:0,0:0:0:0:
283,140,65657,2,0,P|312:146|339:144,1,53.9999983520508,2|0,0:0|0:0,0:0:0:0:
229,50,65829,6,0,P|174:50|117:56,1,107.999996704102,2|8,0:0|0:0,0:0:0:0:
57,118,66343,1,2,0:0:0:0:
198,183,66514,2,0,L|201:124,1,53.9999983520508,10|0,0:0|0:0,0:0:0:0:
94,263,66686,2,0,L|91:204,1,53.9999983520508,2|0,0:0|0:0,0:0:0:0:
222,332,66857,2,0,L|225:273,1,53.9999983520508,10|0,0:0|0:0,0:0:0:0:
283,140,67029,6,0,P|286:178|334:204,1,80.9999975280763,2|0,0:0|0:0,0:0:0:0:
405,151,67371,6,2,P|365:136|339:147,1,53.9999983520508
148,170,67543,6,2,P|187:184|214:174,1,53.9999983520508
262,31,67714,6,2,P|247:70|258:97,1,53.9999983520508
281,288,67886,6,0,P|295:248|285:222,1,53.9999983520508,8|0,0:0|0:0,0:0:0:0:
158,252,68229,6,0,P|202:271|211:217,1,116.999994644165,2|0,0:0|0:0,0:0:0:0:
82,137,68571,6,0,P|117:101|189:114,1,107.999996704102,6|8,0:0|0:0,0:0:0:0:
237,159,69086,1,2,0:0:0:0:
262,31,69257,2,0,L|266:97,1,53.9999983520508,10|0,0:0|0:0,0:0:0:0:
363,171,69429,2,0,L|303:141,1,53.9999983520508,2|0,0:0|0:0,0:0:0:0:
191,188,69600,2,0,L|246:151,1,53.9999983520508,10|0,0:0|0:0,0:0:0:0:
344,68,69771,1,2,0:0:0:0:
173,91,69943,5,2,0:0:0:0:
288,234,70114,1,0,0:0:0:0:
114,237,70286,1,8,0:0:0:0:
237,159,70457,1,0,0:0:0:0:
144,309,70629,2,0,P|90:314|43:270,1,107.999996704102,2|8,0:0|0:0,0:0:0:0:
38,190,71143,1,0,0:0:0:0:
139,59,71314,6,0,L|146:157,1,90,6|0,0:0|0:0,0:0:0:0:
325,106,71657,2,0,L|319:201,1,90,8|0,0:0|0:0,0:0:0:0:
185,231,72000,2,0,L|190:326,1,90,2|0,0:0|0:0,0:0:0:0:
239,141,72343,1,8,0:0:0:0:
286,321,72514,1,0,0:0:0:0:
286,321,72857,5,2,0:0:0:0:
319,320,73029,1,2,0:0:0:0:
353,320,73200,1,2,0:0:0:0:
387,320,73371,5,8,0:0:0:0:
423,294,73456,1,8,0:0:0:0:
438,253,73542,1,8,0:0:0:0:
427,210,73628,1,8,0:0:0:0:
394,181,73713,1,8,0:0:0:0:
269,214,73886,1,8,0:0:0:0:
224,219,73972,1,8,0:0:0:0:
185,200,74057,6,0,P|180:142|184:99,1,90,6|0,0:0|0:0,0:0:0:0:
272,37,74400,1,8,0:0:0:0:
307,196,74571,1,0,0:0:0:0:
92,118,74743,2,0,P|134:113|197:109,1,90
391,46,75086,2,0,P|349:51|286:55,1,90,8|0,0:0|0:0,0:0:0:0:
136,27,75429,5,2,0:0:0:0:
217,109,75600,5,10,0:0:0:0:
224,158,75686,1,10,0:0:0:0:
133,197,75771,5,10,0:0:0:0:
126,246,75857,1,10,0:0:0:0:
213,292,75943,5,10,0:0:0:0:
220,341,76029,1,10,0:0:0:0:
298,280,76114,6,0,B|356:265|414:285|414:285|388:311,1,135,2|0,0:0|0:0,0:0:0:0:
332,357,76457,1,8,0:0:0:0:
394,203,76629,6,0,P|474:235|487:320,1,180,2|0,0:0|0:0,0:0:0:0:
298,280,77143,2,0,P|277:237|276:186,1,90,8|0,0:0|0:0,0:0:0:0:
339,35,77486,1,0,0:0:0:0:
394,203,77657,1,0,0:0:0:0:
197,119,77829,1,8,0:0:0:0:
348,121,78000,1,0,0:0:0:0:
228,213,78171,6,0,L|217:334,1,90,2|0,0:0|0:0,0:0:0:0:
330,154,78429,6,0,L|341:275,1,90,2|0,0:0|0:0,0:0:0:0:
197,119,78686,5,2,0:0:0:0:
311,344,78857,1,8,0:0:0:0:
127,261,79029,5,2,0:0:0:0:
394,203,79200,1,8,0:0:0:0:
228,213,79371,6,0,L|226:281,1,45,2|0,0:0|0:0,0:0:0:0:
311,344,79543,6,0,P|380:355|440:266,1,180,4|8,0:0|0:0,0:0:0:0:
360,128,80057,1,0,0:0:0:0:
326,157,80142,1,0,0:0:0:0:
312,199,80228,1,0,0:0:0:0:
324,242,80314,1,0,0:0:0:0:
357,273,80399,1,0,0:0:0:0:
483,206,80571,2,0,P|429:200|392:202,1,90,8|0,0:0|0:0,0:0:0:0:
111,247,80914,6,0,P|105:318|113:366,1,90,2|0,0:0|0:0,0:0:0:0:
245,150,81257,2,0,P|251:221|243:269,1,90,8|0,0:0|0:0,0:0:0:0:
240,265,81514,1,0,0:0:0:0:
226,288,81600,1,0,0:0:0:0:
317,71,81771,1,2,0:0:0:0:
155,150,81943,2,0,P|205:147|263:152,1,90,8|0,0:0|0:0,0:0:0:0:
480,248,82286,6,0,L|363:235,1,90,2|0,0:0|0:0,0:0:0:0:
317,71,82629,2,0,L|364:178,1,90,8|0,0:0|0:0,0:0:0:0:
246,301,82971,2,0,L|315:206,1,90,2|0,0:0|0:0,0:0:0:0:
410,78,83314,1,8,0:0:0:0:
446,333,83486,1,0,0:0:0:0:
446,333,83829,5,2,0:0:0:0:
299,228,84000,1,8,0:0:0:0:
442,204,84171,1,2,0:0:0:0:
304,339,84343,1,8,0:0:0:0:
259,336,84428,1,8,0:0:0:0:
214,334,84514,1,8,0:0:0:0:
169,333,84600,1,8,0:0:0:0:
124,331,84686,6,0,P|89:303|126:328,1,135,2|0,0:0|0:0,0:0:0:0:
126,326,85029,6,0,P|80:254|131:173,1,180,4|8,0:0|0:0,0:0:0:0:
120,92,85543,1,0,0:0:0:0:
120,92,85629,1,0,0:0:0:0:
120,92,85714,2,0,P|165:103|202:154,1,90
206,240,86057,1,8,0:0:0:0:
288,181,86229,6,0,L|405:188,1,90,2|0,0:0|0:0,0:0:0:0:
476,191,86571,1,0,0:0:0:0:
368,356,86743,2,0,B|359:309|359:309|371:260,1,90,8|0,0:0|0:0,0:0:0:0:
369,267,87000,1,0,0:0:0:0:
369,267,87086,1,0,0:0:0:0:
463,311,87257,1,2,0:0:0:0:
279,335,87429,2,0,L|188:332,1,90,8|0,0:0|0:0,0:0:0:0:
92,198,87771,5,2,0:0:0:0:
58,314,87943,1,0,0:0:0:0:
206,246,88114,1,8,0:0:0:0:
153,91,88286,2,0,P|154:116|153:159,1,45
132,280,88457,1,2,0:0:0:0:
70,168,88629,1,0,0:0:0:0:
259,187,88800,1,8,0:0:0:0:
413,91,88971,6,0,L|297:88,1,90,2|8,0:0|0:0,0:0:0:0:
153,91,89314,1,2,0:0:0:0:
288,262,89486,5,8,0:0:0:0:
70,168,89657,1,2,0:0:0:0:
259,187,89829,5,8,0:0:0:0:
95,278,90000,1,2,0:0:0:0:
153,91,90171,5,8,0:0:0:0:
238,325,90343,1,2,0:0:0:0:
156,206,90514,5,6,0:0:0:0:
338,199,90686,1,0,0:0:0:0:
153,91,90857,1,8,0:0:0:0:
95,278,91029,1,0,0:0:0:0:
95,278,91114,1,0,0:0:0:0:
95,278,91200,2,0,P|68:237|70:182,1,90
153,91,91543,1,8,0:0:0:0:
217,278,91715,5,0,0:0:0:0:
217,278,91800,1,0,0:0:0:0:
217,278,91886,2,0,P|244:237|242:182,1,90,2|0,0:0|0:0,0:0:0:0:
156,206,92229,1,8,0:0:0:0:
233,65,92400,2,0,P|255:108|277:124,1,45
385,155,92571,2,0,P|335:152|311:163,1,45
185,244,92743,1,0,0:0:0:0:
352,313,92914,2,0,B|364:269|364:269|356:225,1,90,8|0,0:0|0:0,0:0:0:0:
156,206,93257,5,2,0:0:0:0:
249,312,93429,1,2,0:0:0:0:
385,155,93600,2,0,L|283:151,1,90,2|2,0:0|0:0,0:0:0:0:
352,313,93943,5,0,0:0:0:0:
412,151,94115,1,2,0:0:0:0:
266,229,94286,1,2,0:0:0:0:
455,304,94457,1,2,0:0:0:0:
455,304,94800,5,8,0:0:0:0:
456,259,94885,1,8,0:0:0:0:
457,214,94971,1,8,0:0:0:0:
312,150,95143,5,2,0:0:0:0:
353,348,95314,1,8,0:0:0:0:
412,151,95486,5,2,0:0:0:0:
220,308,95657,2,2,B|172:300|172:300|129:311|129:311|183:260,1,135,10|2,0:0|0:0,0:0:0:0:
221,224,96000,6,0,B|284:230|299:292|299:292|317:277|346:273,1,161.999995056153,6|8,0:0|0:0,0:0:0:0:
412,151,96514,1,0,0:0:0:0:
412,151,96600,1,0,0:0:0:0:
412,151,96686,2,0,P|412:181|407:219,1,40.4999987640381
299,164,96857,6,0,B|270:121|299:49|299:49|323:72|316:108,1,161.999995056153,2|0,0:0|0:0,0:0:0:0:
204,137,97371,2,10,L|153:134,1,40.4999987640381
44,147,97543,5,10,0:0:0:0:
39,195,97629,1,10,0:0:0:0:
78,222,97714,5,10,0:0:0:0:
86,269,97800,1,10,0:0:0:0:
58,309,97886,5,10,0:0:0:0:
78,352,97971,1,10,0:0:0:0:
151,318,98057,6,0,B|221:292|278:321|278:321|261:341|262:366,1,161.999995056153,2|8,0:0|0:0,0:0:0:0:
267,214,98571,1,2,0:0:0:0:
461,274,98743,6,0,B|391:248|334:277|334:277|351:297|350:322,1,161.999995056153,0|8,0:0|0:0,0:0:0:0:
353,184,99257,1,0,0:0:0:0:
353,184,99343,1,0,0:0:0:0:
353,184,99429,1,8,0:0:0:0:
190,187,99600,6,0,P|188:221|196:254,1,67.5000025749208,2|0,0:0|0:0,0:0:0:0:
344,72,99771,2,0,P|316:53|283:43,1,67.5000025749208,10|0,0:0|0:0,0:0:0:0:
368,263,99943,2,0,P|398:248|422:225,1,67.5000025749208,2|0,0:0|0:0,0:0:0:0:
256,133,100114,6,2,P|195:102|124:134,1,135.000005149842
120,286,100371,6,2,P|177:248|185:171,1,135.000005149842
40,202,100629,6,2,B|66:202|66:202|76:200|76:200|107:203,1,67.5000025749208
285,208,100800,6,0,B|237:228|190:186|190:186|192:210|188:216,1,135.000005149842,10|0,0:0|0:0,0:0:0:0:
368,263,101143,6,2,P|384:205|376:165,1,101.250003862381
312,114,101486,6,0,L|196:114,1,90,2|0,0:0|0:0,0:0:0:0:
368,263,101829,2,0,L|484:263,1,90,8|0,0:0|0:0,0:0:0:0:
285,208,102171,6,0,P|272:249|281:320,1,90,2|0,0:0|0:0,0:0:0:0:
189,140,102514,2,0,P|190:95|177:52,1,90,8|0,0:0|0:0,0:0:0:0:
312,114,102857,6,0,P|354:100|399:102,1,90,2|0,0:0|0:0,0:0:0:0:
184,234,103200,2,0,P|139:235|96:222,1,90,8|0,0:0|0:0,0:0:0:0:
337,334,103543,6,0,L|342:223,1,90,2|0,0:0|0:0,0:0:0:0:
170,244,103800,1,0,0:0:0:0:
170,244,103886,6,0,L|175:334,1,90,8|0,0:0|0:0,0:0:0:0:
158,114,104229,5,8,0:0:0:0:
272,275,104400,1,2,0:0:0:0:
312,114,104571,1,8,0:0:0:0:
170,244,104743,1,2,0:0:0:0:
147,56,104914,1,8,0:0:0:0:
335,197,105086,1,2,0:0:0:0:
290,192,105171,1,0,0:0:0:0:
245,188,105257,1,8,0:0:0:0:
119,183,105429,1,2,0:0:0:0:
192,350,105600,5,8,0:0:0:0:
347,292,105771,1,8,0:0:0:0:
347,292,105857,1,8,0:0:0:0:
347,292,105943,2,8,L|275:292,1,45
170,244,106114,1,8,0:0:0:0:
156,201,106199,1,8,0:0:0:0:
160,157,106286,2,8,P|169:126|188:98,1,45
308,72,106457,1,8,0:0:0:0:
331,109,106542,1,8,0:0:0:0:
338,152,106629,2,8,P|337:184|326:216,1,45
268,285,106800,1,8,0:0:0:0:
175,114,106971,5,2,0:0:0:0:
123,353,107314,1,2,0:0:0:0:
33,136,107657,1,10,0:0:0:0:
137,235,107829,5,2,0:0:0:0:
211,28,108000,1,8,0:0:0:0:
267,193,108171,1,2,0:0:0:0:
33,136,108343,5,8,0:0:0:0:
156,263,108514,1,2,0:0:0:0:
201,58,108686,5,8,0:0:0:0:
242,73,108771,1,8,0:0:0:0:
287,73,108857,1,8,0:0:0:0:
329,57,108943,1,8,0:0:0:0:
387,54,109029,1,8,0:0:0:0:
432,92,109115,1,8,0:0:0:0:
437,150,109201,1,8,0:0:0:0:
402,196,109286,1,8,0:0:0:0:
344,205,109371,6,0,B|304:205|304:205|294:201|294:201|253:205,1,80.9999975280763,10|0,0:0|0:0,0:0:0:0:
156,263,109714,6,0,P|150:208|165:161,1,99.0000030212403,6|0,0:0|0:0,0:0:0:0:
349,166,110057,2,0,P|362:214|356:263,1,99.0000030212403,8|0,0:0|0:0,0:0:0:0:
346,296,110314,1,0,0:0:0:0:
346,296,110400,1,0,0:0:0:0:
248,224,110571,1,0,0:0:0:0:
301,86,110743,2,0,P|348:73|397:79,1,99.0000030212403,8|0,0:0|0:0,0:0:0:0:
178,173,111086,6,0,P|164:216|186:291,1,99.0000030212403,2|0,0:0|0:0,0:0:0:0:
349,166,111429,1,8,0:0:0:0:
108,44,111600,1,0,0:0:0:0:
108,44,111686,1,0,0:0:0:0:
108,44,111771,2,0,L|221:40,1,99.0000030212403
395,227,112114,2,0,L|282:223,1,99.0000030212403,8|0,0:0|0:0,0:0:0:0:
88,325,112457,6,0,B|107:261|107:261|79:171,1,148.50000453186,2|0,0:0|0:0,0:0:0:0:
66,152,112800,1,8,0:0:0:0:
231,48,112971,1,0,0:0:0:0:
277,63,113056,1,0,0:0:0:0:
308,100,113142,1,0,0:0:0:0:
315,148,113228,1,0,0:0:0:0:
295,193,113313,1,0,0:0:0:0:
180,145,113486,1,8,0:0:0:0:
398,342,113657,6,0,B|401:299|401:299|399:251,1,80.9999975280763,2|0,0:0|0:0,0:0:0:0:
395,227,114000,1,2,0:0:0:0:
129,247,114171,5,8,0:0:0:0:
321,292,114343,1,2,0:0:0:0:
180,145,114514,5,8,0:0:0:0:
236,332,114686,1,2,0:0:0:0:
293,137,114857,5,8,0:0:0:0:
159,280,115029,1,2,0:0:0:0:
395,227,115200,6,0,B|422:129|422:129|386:31,1,198.000006042481,4|8,0:0|0:0,0:0:0:0:
236,56,115714,1,0,0:0:0:0:
200,64,115799,1,0,0:0:0:0:
163,59,115885,1,0,0:0:0:0:
131,42,115971,1,0,0:0:0:0:
107,14,116057,2,0,L|101:67,1,49.5000015106202
67,226,116229,1,8,0:0:0:0:
180,145,116400,1,0,0:0:0:0:
159,280,116571,6,0,L|277:281,1,99.0000030212403,2|0,0:0|0:0,0:0:0:0:
424,216,116914,1,8,0:0:0:0:
345,342,117086,1,0,0:0:0:0:
345,342,117171,1,0,0:0:0:0:
345,342,117257,2,0,P|346:312|344:283,1,49.5000015106202
266,197,117429,1,0,0:0:0:0:
392,118,117600,2,0,P|362:119|285:112,1,99.0000030212403,8|0,0:0|0:0,0:0:0:0:
124,55,117943,6,2,P|86:66|42:105,1,72,2|0,0:0|0:0,0:0:0:0:
266,197,118286,2,0,P|275:158|263:100,1,72,8|0,0:0|0:0,0:0:0:0:
72,248,118629,2,0,P|100:275|156:294,1,72,2|0,0:0|0:0,0:0:0:0:
175,153,118971,1,8,0:0:0:0:
218,331,119143,1,0,0:0:0:0:
218,331,119486,5,2,0:0:0:0:
290,290,119657,1,2,0:0:0:0:
373,294,119829,1,2,0:0:0:0:
440,342,120000,5,8,0:0:0:0:
469,309,120085,1,8,0:0:0:0:
483,266,120171,1,8,0:0:0:0:
478,222,120257,1,8,0:0:0:0:
456,183,120342,1,8,0:0:0:0:
245,79,120514,5,8,0:0:0:0:
285,97,120600,1,8,0:0:0:0:
330,97,120686,6,0,P|381:85|444:93,1,107.999996704102,4|8,0:0|0:0,0:0:0:0:
398,191,121200,1,2,0:0:0:0:
305,228,121371,2,0,B|301:197|301:197|300:160,1,53.9999983520508,10|0,0:0|0:0,0:0:0:0:
214,46,121542,2,0,B|213:68|213:68|209:99,1,53.9999983520508,2|0,0:0|0:0,0:0:0:0:
115,223,121714,2,0,B|111:192|111:192|110:155,1,53.9999983520508,10|0,0:0|0:0,0:0:0:0:
208,285,121885,2,0,B|207:307|207:307|203:338,1,53.9999983520508,2|0,0:0|0:0,0:0:0:0:
305,228,122057,6,0,B|357:222|392:232|392:232|370:261,1,107.999996704102,4|8,0:0|0:0,0:0:0:0:
326,309,122571,1,2,0:0:0:0:
229,255,122743,2,0,P|225:228|228:201,1,53.9999983520508,10|0,0:0|0:0,0:0:0:0:
279,78,122914,2,0,P|282:104|279:131,1,53.9999983520508,2|0,0:0|0:0,0:0:0:0:
157,133,123086,2,0,P|179:116|204:106,1,53.9999983520508,10|0,0:0|0:0,0:0:0:0:
351,201,123257,2,0,P|329:217|304:227,1,53.9999983520508,2|0,0:0|0:0,0:0:0:0:
113,204,123429,6,0,P|81:160|89:92,1,107.999996704102,4|8,0:0|0:0,0:0:0:0:
145,41,123943,1,2,0:0:0:0:
210,136,124114,2,0,P|161:132|141:136,1,53.9999983520508,10|0,0:0|0:0,0:0:0:0:
282,258,124286,2,0,P|255:259|228:254,1,53.9999983520508,2|0,0:0|0:0,0:0:0:0:
332,81,124457,2,0,P|283:77|263:81,1,53.9999983520508,10|0,0:0|0:0,0:0:0:0:
404,204,124629,6,0,P|377:205|350:200,1,53.9999983520508,2|0,0:0|0:0,0:0:0:0:
210,136,124971,6,2,B|210:166|210:166|205:199,1,53.9999983520508
285,311,125143,6,2,B|281:287|281:287|281:257,1,53.9999983520508
177,119,125314,6,2,B|177:149|177:149|172:182,1,53.9999983520508
318,328,125486,6,2,B|318:298|318:298|323:265,1,53.9999983520508
404,204,125829,6,2,P|429:255|401:304,1,116.999994644165
252,294,126171,6,0,P|203:282|143:307,1,107.999996704102,4|8,0:0|0:0,0:0:0:0:
74,354,126686,1,2,0:0:0:0:
150,300,126857,2,0,L|148:231,1,53.9999983520508,10|0,0:0|0:0,0:0:0:0:
39,244,127029,2,0,L|48:176,1,53.9999983520508,2|0,0:0|0:0,0:0:0:0:
152,159,127200,2,0,L|143:91,1,53.9999983520508,10|0,0:0|0:0,0:0:0:0:
55,49,127371,1,2,0:0:0:0:
259,36,127543,5,4,0:0:0:0:
235,219,127714,2,0,P|260:218|310:229,1,53.9999983520508,0|8,0:0|0:0,0:0:0:0:
443,158,128057,1,0,0:0:0:0:
443,158,128143,1,0,0:0:0:0:
443,158,128229,2,0,P|418:159|368:148,1,53.9999983520508,2|0,0:0|0:0,0:0:0:0:
290,89,128571,2,0,P|265:88|215:99,1,53.9999983520508,8|0,0:0|0:0,0:0:0:0:
100,162,128914,6,0,P|89:209|104:284,1,90,2|0,0:0|0:0,0:0:0:0:
242,307,129257,2,0,P|244:262|234:218,1,90,8|0,0:0|0:0,0:0:0:0:
290,89,129600,5,2,0:0:0:0:
100,162,129771,1,2,0:0:0:0:
204,28,129943,1,8,0:0:0:0:
234,218,130114,1,4,0:0:0:0:
234,218,130457,5,2,0:0:0:0:
244,262,130628,1,2,0:0:0:0:
242,307,130800,1,2,0:0:0:0:
226,348,130971,5,8,0:0:0:0:
184,365,131056,1,8,0:0:0:0:
140,368,131142,1,8,0:0:0:0:
97,356,131228,1,8,0:0:0:0:
60,330,131314,6,0,B|48:285|67:245|67:245|81:262|81:262|104:278,1,108,2|0,0:0|0:0,0:0:0:0:
152,289,131657,6,0,B|154:233|154:233|138:203|138:203|161:162|161:162|145:105,1,175.499991966248,6|0,0:0|0:0,0:0:0:0:
121,51,132000,2,0,L|52:48,1,58.4999973220826,8|0,0:0|0:0,0:0:0:0:
230,201,132171,2,0,L|301:203,1,58.4999973220826,2|0,0:0|0:0,0:0:0:0:
430,110,132343,6,0,B|431:116|400:104|389:97|389:97|363:104|340:93|340:93|349:108|347:130,1,116.999994644165,2|0,0:0|0:0,0:0:0:0:
411,237,132600,1,0,0:0:0:0:
411,237,132686,2,0,P|402:212|400:170,1,58.4999973220826,8|0,0:0|0:0,0:0:0:0:
303,336,132857,2,0,P|312:311|314:269,1,58.4999973220826,2|0,0:0|0:0,0:0:0:0:
230,201,133029,6,0,L|171:194,1,58.4999973220826,2|0,0:0|0:0,0:0:0:0:
59,145,133200,5,8,0:0:0:0:
78,90,133286,1,8,0:0:0:0:
121,51,133372,5,8,0:0:0:0:
176,34,133458,1,8,0:0:0:0:
233,45,133543,5,8,0:0:0:0:
279,81,133629,1,8,0:0:0:0:
303,134,133714,6,0,L|348:136,1,31.4999990386963,8|0,0:0|0:0,0:0:0:0:
411,237,133886,6,0,L|352:234,1,58.4999973220826,2|0,0:0|0:0,0:0:0:0:
194,236,134057,6,0,L|239:238,1,31.4999990386963,8|0,0:0|0:0,0:0:0:0:
303,336,134229,6,0,L|244:333,1,58.4999973220826,2|0,0:0|0:0,0:0:0:0:
54,320,134400,5,2,0:0:0:0:
194,236,134571,1,2,0:0:0:0:
69,110,134743,2,0,B|61:134|61:134|70:160|70:160|57:184|57:184|65:232,1,116.999994644165,8|0,0:0|0:0,0:0:0:0:
220,158,135086,2,0,P|191:155|163:162,1,58.4999973220826,8|0,0:0|0:0,0:0:0:0:
271,262,135257,2,0,P|299:265|328:258,1,58.4999973220826,2|0,0:0|0:0,0:0:0:0:
194,236,135429,2,0,P|190:264|197:293,1,58.4999973220826,8|0,0:0|0:0,0:0:0:0:
298,185,135600,2,0,P|301:156|294:127,1,58.4999973220826,2|0,0:0|0:0,0:0:0:0:
148,45,135771,6,0,B|201:42|201:42|213:36|213:36|271:34,1,116.999994644165,2|0,0:0|0:0,0:0:0:0:
439,112,136029,6,0,B|386:109|386:109|374:103|374:103|316:101,1,116.999994644165,2|0,0:0|0:0,0:0:0:0:
220,158,136286,1,0,0:0:0:0:
222,235,136371,1,0,0:0:0:0:
222,235,136457,6,0,P|265:190|203:164,1,135.000005149842,8|0,0:0|0:0,0:0:0:0:
129,212,136800,1,8,0:0:0:0:
101,314,136971,1,2,0:0:0:0:
257,316,137143,6,0,P|293:316|330:321,1,58.4999973220826,10|0,0:0|0:0,0:0:0:0:
442,345,137314,1,0,0:0:0:0:
435,287,137399,1,0,0:0:0:0:
451,231,137486,2,0,P|456:197|451:146,1,58.4999973220826,8|0,0:0|0:0,0:0:0:0:
351,56,137657,2,0,P|345:86|327:126,1,58.4999973220826,2|0,0:0|0:0,0:0:0:0:
309,228,137829,6,0,P|271:225|235:200,1,67.5000025749208,2|0,0:0|0:0,0:0:0:0:
65,229,138000,1,0,0:0:0:0:
65,229,138086,6,0,P|103:226|139:201,1,67.5000025749208,2|8,0:0|0:0,0:0:0:0:
165,77,138257,1,2,0:0:0:0:
165,77,138343,6,0,P|168:115|193:151,1,67.5000025749208,2|0,0:0|0:0,0:0:0:0:
309,228,138514,6,0,B|386:259|452:232|452:232|396:254|386:296,1,233.999989288331,2|8,0:0|0:0,0:0:0:0:
475,379,139029,2,0,P|482:351|482:322,1,58.4999973220826
432,163,139200,2,0,B|377:187|335:160|335:160|372:116,1,116.999994644165,2|0,0:0|0:0,0:0:0:0:
177,71,139457,1,0,0:0:0:0:
177,71,139543,2,0,B|232:47|274:74|274:74|237:118,1,116.999994644165,8|0,0:0|0:0,0:0:0:0:
123,148,139886,6,0,L|117:244,1,90,6|0,0:0|0:0,0:0:0:0:
222,349,140229,1,8,0:0:0:0:
245,234,140400,1,0,0:0:0:0:
152,283,140571,2,0,L|108:274,1,45,2|0,0:0|0:0,0:0:0:0:
306,298,140743,2,0,L|350:289,1,45
253,123,140914,5,8,0:0:0:0:
222,349,141086,1,2,0:0:0:0:
222,349,141429,5,2,0:0:0:0:
306,298,141600,1,2,0:0:0:0:
404,295,141771,1,2,0:0:0:0:
490,342,141943,1,8,0:0:0:0:
490,297,142028,1,8,0:0:0:0:
491,252,142114,1,8,0:0:0:0:
492,207,142200,1,8,0:0:0:0:
493,162,142285,1,8,0:0:0:0:
253,123,142457,2,0,L|321:113,1,45,8|0,0:0|0:0,0:0:0:0:
389,212,142629,6,0,L|272:204,1,90,6|0,0:0|0:0,0:0:0:0:
110,161,142971,2,0,P|116:218|101:280,1,90,8|0,0:0|0:0,0:0:0:0:
222,349,143314,2,0,P|216:304|223:259,1,90,2|0,0:0|0:0,0:0:0:0:
342,124,143657,2,0,P|297:129|252:122,1,90,8|0,0:0|0:0,0:0:0:0:
144,27,144000,5,2,0:0:0:0:
110,161,144171,5,8,0:0:0:0:
98,211,144256,1,8,0:0:0:0:
110,262,144342,5,8,0:0:0:0:
143,301,144428,1,8,0:0:0:0:
191,322,144513,5,8,0:0:0:0:
243,318,144599,1,8,0:0:0:0:
288,291,144686,6,0,B|307:233|286:195|286:195|266:214|242:227,1,135,10|0,0:0|0:0,0:0:0:0:
227,149,145029,1,8,0:0:0:0:
342,124,145200,6,0,B|393:121|422:84|422:84|408:125|422:185,1,180,2|0,0:0|0:0,0:0:0:0:
365,338,145714,2,0,P|373:295|367:245,1,90,8|0,0:0|0:0,0:0:0:0:
286,197,145971,1,0,0:0:0:0:
286,197,146057,1,8,0:0:0:0:
492,131,146229,1,0,0:0:0:0:
303,42,146400,1,8,0:0:0:0:
392,158,146571,1,0,0:0:0:0:
197,258,146743,6,0,L|190:140,1,90,2|0,0:0|0:0,0:0:0:0:
392,158,147000,6,0,L|399:40,1,90,2|0,0:0|0:0,0:0:0:0:
303,42,147257,5,2,0:0:0:0:
307,300,147429,1,8,0:0:0:0:
392,158,147600,5,2,0:0:0:0:
197,258,147771,1,8,0:0:0:0:
202,131,147943,6,0,L|264:130,1,45,2|0,0:0|0:0,0:0:0:0:
442,226,148114,6,0,B|350:270|350:187|267:223,1,180,4|8,0:0|0:0,0:0:0:0:
117,185,148629,1,0,0:0:0:0:
100,143,148714,1,0,0:0:0:0:
104,98,148800,1,0,0:0:0:0:
126,60,148886,1,0,0:0:0:0:
163,34,148971,1,0,0:0:0:0:
291,136,149143,2,0,L|193:130,1,90,8|0,0:0|0:0,0:0:0:0:
289,307,149486,6,0,B|339:302|365:269|365:269|396:312|442:310,1,180,2|8,0:0|0:0,0:0:0:0:
280,192,150000,1,0,0:0:0:0:
280,192,150086,1,0,0:0:0:0:
280,192,150171,1,0,0:0:0:0:
446,210,150343,1,0,0:0:0:0:
184,257,150514,1,8,0:0:0:0:
184,257,150857,6,0,P|184:197|185:161,1,90,6|0,0:0|0:0,0:0:0:0:
364,104,151200,2,0,P|315:94|264:101,1,90,8|0,0:0|0:0,0:0:0:0:
323,291,151543,2,0,P|372:301|423:294,1,90,2|0,0:0|0:0,0:0:0:0:
280,192,151886,1,8,0:0:0:0:
224,362,152057,1,2,0:0:0:0:
224,362,152400,5,2,0:0:0:0:
179,358,152571,1,2,0:0:0:0:
134,355,152743,1,2,0:0:0:0:
89,351,152914,5,8,0:0:0:0:
57,321,152999,1,8,0:0:0:0:
46,278,153085,1,8,0:0:0:0:
59,236,153171,1,8,0:0:0:0:
94,207,153257,6,0,B|147:226|191:210|191:210|183:255|134:261,1,175.499991966248,2|0,0:0|0:0,0:0:0:0:
148,118,153600,6,0,B|228:92|224:147|308:114,1,144,4|8,0:0|0:0,0:0:0:0:
362,51,154114,1,0,0:0:0:0:
413,137,154286,2,0,P|411:180|418:228,1,72
327,296,154629,2,0,P|330:260|327:224,1,72,8|0,0:0|0:0,0:0:0:0:
203,193,154971,6,0,P|225:253|186:353,1,144,2|8,0:0|0:0,0:0:0:0:
101,359,155486,1,0,0:0:0:0:
101,359,155571,1,0,0:0:0:0:
101,359,155657,2,0,P|94:317|98:269,1,72
158,181,156000,1,8,0:0:0:0:
38,221,156171,1,0,0:0:0:0:
203,193,156343,6,0,L|204:115,1,72,2|0,0:0|0:0,0:0:0:0:
289,53,156686,1,8,0:0:0:0:
353,169,156857,1,0,0:0:0:0:
353,169,156943,1,0,0:0:0:0:
353,169,157029,2,0,P|317:160|277:165,1,72
423,255,157371,1,8,0:0:0:0:
438,117,157543,1,0,0:0:0:0:
267,165,157714,6,0,B|252:222|252:222|275:332,1,144,2|8,0:0|0:0,0:0:0:0:
336,360,158229,1,0,0:0:0:0:
186,349,158400,2,0,L|183:269,1,72
353,169,158743,2,0,L|350:240,1,72,8|0,0:0|0:0,0:0:0:0:
133,164,159086,6,0,P|199:141|266:164,1,144,6|8,0:0|0:0,0:0:0:0:
397,97,159600,1,0,0:0:0:0:
397,97,159686,1,0,0:0:0:0:
397,97,159771,2,0,P|359:89|305:100,1,72
182,240,160114,2,0,P|207:211|225:158,1,72,8|0,0:0|0:0,0:0:0:0:
62,329,160457,6,0,B|110:309|110:309|212:332,1,144,2|8,0:0|0:0,0:0:0:0:
45,242,160971,1,0,0:0:0:0:
45,242,161057,1,0,0:0:0:0:
45,242,161143,2,0,P|42:197|49:151,1,72
155,55,161486,1,8,0:0:0:0:
170,170,161657,1,0,0:0:0:0:
260,77,161829,6,0,P|297:138|294:209,1,144,2|8,0:0|0:0,0:0:0:0:
222,349,162343,1,0,0:0:0:0:
222,349,162429,1,0,0:0:0:0:
222,349,162514,2,0,P|235:295|249:273,1,72
339,278,162857,1,8,0:0:0:0:
420,192,163029,6,0,P|390:170|419:95,1,108,2|0,0:0|0:0,0:0:0:0:
464,46,163371,6,0,P|459:82|380:95,1,108,2|0,0:0|0:0,0:0:0:0:
313,80,163714,6,0,P|347:65|397:127,1,108,2|0,0:0|0:0,0:0:0:0:
420,192,164057,1,2,0:0:0:0:
304,171,164229,6,2,L|246:161,1,53.9999983520508,10|2,0:0|0:0,0:0:0:0:
105,61,164571,6,0,P|52:128|85:226,1,180,6|8,0:0|0:0,0:0:0:0:
117,302,165086,1,0,0:0:0:0:
152,274,165171,1,0,0:0:0:0:
171,234,165257,1,0,0:0:0:0:
170,189,165343,1,0,0:0:0:0:
150,150,165428,1,0,0:0:0:0:
304,171,165600,2,0,L|293:269,1,90,8|0,0:0|0:0,0:0:0:0:
436,89,165943,6,0,P|372:106|285:41,1,180,2|8,0:0|0:0,0:0:0:0:
432,177,166457,1,0,0:0:0:0:
450,217,166542,1,0,0:0:0:0:
453,262,166628,1,0,0:0:0:0:
441,305,166714,1,0,0:0:0:0:
415,341,166799,1,0,0:0:0:0:
219,236,166971,1,8,0:0:0:0:
177,350,167143,1,0,0:0:0:0:
333,250,167314,6,0,L|337:153,1,90,6|0,0:0|0:0,0:0:0:0:
194,63,167657,2,0,L|197:152,1,90,8|0,0:0|0:0,0:0:0:0:
360,262,168000,6,0,L|364:165,1,90,2|0,0:0|0:0,0:0:0:0:
167,51,168343,2,0,L|171:148,1,90,8|0,0:0|0:0,0:0:0:0:
323,93,168686,6,0,L|420:93,1,90,2|0,0:0|0:0,0:0:0:0:
217,215,169029,2,0,L|120:215,1,90,8|0,0:0|0:0,0:0:0:0:
224,116,169371,5,8,0:0:0:0:
224,116,169543,1,2,0:0:0:0:
344,248,169714,1,8,0:0:0:0:
344,248,169886,1,2,0:0:0:0:
418,138,170057,5,8,0:0:0:0:
217,215,170229,1,2,0:0:0:0:
300,43,170400,5,8,0:0:0:0:
344,248,170571,1,2,0:0:0:0:
224,116,170743,5,8,0:0:0:0:
180,321,170914,1,2,0:0:0:0:
328,141,171086,5,8,0:0:0:0:
107,225,171257,1,2,0:0:0:0:
327,352,171429,5,8,0:0:0:0:
371,348,171514,1,8,0:0:0:0:
410,326,171600,1,8,0:0:0:0:
437,290,171686,1,8,0:0:0:0:
446,247,171771,1,8,0:0:0:0:
437,203,171857,1,8,0:0:0:0:
411,167,171943,1,8,0:0:0:0:
372,145,172029,1,8,0:0:0:0:
328,141,172114,5,8,0:0:0:0:
290,165,172199,1,8,0:0:0:0:
246,174,172285,1,8,0:0:0:0:
203,165,172371,1,8,0:0:0:0:
166,139,172457,2,0,B|154:88|184:45|184:45|203:88,1,135,8|0,0:0|0:0,0:0:0:0:
199,245,172800,6,0,P|131:256|53:160,1,198.000006042481,6|8,0:0|0:0,0:0:0:0:
274,302,173314,1,0,0:0:0:0:
274,302,173400,1,0,0:0:0:0:
274,302,173486,2,0,P|288:247|272:184,1,99.0000030212403
158,26,173829,1,8,0:0:0:0:
166,139,174000,1,0,0:0:0:0:
309,73,174171,6,0,B|386:48|449:89|449:89|423:108|374:121,1,198.000006042481,2|8,0:0|0:0,0:0:0:0:
285,166,174686,1,0,0:0:0:0:
263,196,174771,1,0,0:0:0:0:
253,232,174857,1,0,0:0:0:0:
257,268,174943,1,0,0:0:0:0:
274,302,175028,1,0,0:0:0:0:
454,244,175200,2,0,L|356:240,1,99.0000030212403,8|0,0:0|0:0,0:0:0:0:
126,351,175543,6,0,P|168:260|115:165,1,198.000006042481,2|8,0:0|0:0,0:0:0:0:
219,28,176057,1,0,0:0:0:0:
219,28,176143,1,0,0:0:0:0:
219,28,176229,2,0,P|211:75|228:147,1,99.0000030212403,0|2,0:0|0:0,0:0:0:0:
357,78,176571,1,8,0:0:0:0:
252,340,176743,6,0,L|248:246,1,80.9999975280763,2|0,0:0|0:0,0:0:0:0:
245,215,177086,1,2,0:0:0:0:
154,151,177257,5,8,0:0:0:0:
370,285,177429,1,2,0:0:0:0:
136,277,177600,5,8,0:0:0:0:
342,159,177771,1,2,0:0:0:0:
248,313,177943,6,2,L|245:215,1,99.0000030212403,0|0,0:0|0:0,0:0:0:0:
206,79,178286,6,0,P|273:96|348:47,1,148.50000453186,4|0,0:0|0:0,0:0:0:0:
364,29,178629,1,8,0:0:0:0:
429,213,178800,1,0,0:0:0:0:
429,213,178886,1,0,0:0:0:0:
429,213,178971,2,0,L|429:106,1,99.0000030212403
325,235,179314,1,8,0:0:0:0:
427,340,179486,1,0,0:0:0:0:
143,274,179657,6,0,L|149:168,1,99.0000030212403,2|0,0:0|0:0,0:0:0:0:
226,345,180000,1,8,0:0:0:0:
18,217,180171,1,0,0:0:0:0:
18,217,180257,1,0,0:0:0:0:
18,217,180343,2,0,L|72:216,1,49.5000015106202
228,216,180514,1,0,0:0:0:0:
143,76,180686,2,0,L|148:174,1,99.0000030212403,8|0,0:0|0:0,0:0:0:0:
276,281,181029,6,0,P|239:268|195:274,1,72,2|0,0:0|0:0,0:0:0:0:
17,327,181371,2,0,P|54:340|98:334,1,72,8|0,0:0|0:0,0:0:0:0:
101,175,181714,2,0,L|96:257,1,72,2|0,0:0|0:0,0:0:0:0:
186,107,182057,1,8,0:0:0:0:
219,322,182229,1,2,0:0:0:0:
219,322,182571,5,2,0:0:0:0:
276,281,182743,1,2,0:0:0:0:
346,291,182914,1,2,0:0:0:0:
392,345,183086,5,8,0:0:0:0:
436,343,183171,1,8,0:0:0:0:
472,318,183257,1,8,0:0:0:0:
490,277,183343,1,8,0:0:0:0:
482,233,183428,1,8,0:0:0:0:
361,36,183600,5,8,0:0:0:0:
359,71,183685,1,8,0:0:0:0:
358,109,183771,6,0,P|398:168|372:233,1,144,6|8,0:0|0:0,0:0:0:0:
372,319,184285,1,0,0:0:0:0:
372,319,184371,1,0,0:0:0:0:
372,319,184456,2,0,P|330:309|294:264,1,72
276,200,184799,2,0,P|248:222|213:229,1,72,8|0,0:0|0:0,0:0:0:0:
102,97,185142,6,0,P|167:91|214:150,1,144,2|8,0:0|0:0,0:0:0:0:
131,214,185656,1,0,0:0:0:0:
131,214,185742,1,0,0:0:0:0:
131,214,185828,2,0,L|137:155,1,36
239,274,185999,2,0,L|204:281,1,36
53,322,186171,2,0,L|146:329,1,72,8|0,0:0|0:0,0:0:0:0:
308,347,186514,6,0,P|337:282|308:204,1,144,2|8,0:0|0:0,0:0:0:0:
242,168,187029,1,0,0:0:0:0:
242,168,187114,1,0,0:0:0:0:
242,168,187200,2,0,L|285:130,1,36,2|0,0:0|0:0,0:0:0:0:
306,36,187371,2,0,L|317:92,1,36
387,158,187543,2,0,L|332:139,1,36,8|0,0:0|0:0,0:0:0:0:
207,82,187714,6,0,L|112:86,1,80.9999975280763,2|0,0:0|0:0,0:0:0:0:
59,50,188057,6,2,P|50:95|55:122,1,53.9999983520508
250,220,188229,6,10,P|249:193|241:167,1,53.9999983520508
89,264,188400,6,2,P|134:273|161:268,1,53.9999983520508
259,73,188572,6,8,P|232:73|206:81,1,53.9999983520508,10|8,0:0|0:0,0:0:0:0:
126,194,188914,6,2,P|161:156|112:117,1,116.999994644165
20,310,189257,6,0,B|69:310|88:264|88:264|93:304|123:339,1,144,4|8,0:0|0:0,0:0:0:0:
236,268,189771,1,0,0:0:0:0:
236,268,189857,1,0,0:0:0:0:
236,268,189943,2,0,P|194:264|164:264,1,72,2|0,0:0|0:0,0:0:0:0:
57,161,190286,2,0,P|99:165|129:165,1,72,8|0,0:0|0:0,0:0:0:0:
322,118,190629,5,2,0:0:0:0:
223,65,190800,2,0,L|220:150,1,72,0|8,0:0|0:0,0:0:0:0:
236,268,191143,5,0,0:0:0:0:
137,321,191314,2,0,L|134:236,1,72,2|0,0:0|0:0,0:0:0:0:
337,249,191657,2,0,L|335:321,1,72,8|0,0:0|0:0,0:0:0:0:
426,176,192000,6,0,L|433:277,1,90,2|0,0:0|0:0,0:0:0:0:
281,104,192343,2,0,L|274:205,1,90,8|0,0:0|0:0,0:0:0:0:
123,176,192686,2,0,L|129:265,1,90,2|0,0:0|0:0,0:0:0:0:
171,89,193029,5,8,0:0:0:0:
224,320,193200,1,4,0:0:0:0:
224,320,193543,5,2,0:0:0:0:
225,290,193714,1,2,0:0:0:0:
226,260,193886,1,2,0:0:0:0:
227,230,194057,5,8,0:0:0:0:
260,201,194142,1,8,0:0:0:0:
304,191,194228,1,8,0:0:0:0:
347,202,194314,1,8,0:0:0:0:
380,231,194400,6,0,B|357:280|388:314|388:314|418:282,1,101.250003862381,8|0,0:0|0:0,0:0:0:0:
468,246,194743,6,0,B|460:197|460:197|476:138,1,90,2|0,0:0|0:0,0:0:0:0:
349,17,195086,2,0,B|359:56|359:56|351:104,1,90,8|0,0:0|0:0,0:0:0:0:
344,133,195343,1,0,0:0:0:0:
344,133,195429,1,0,0:0:0:0:
188,151,195600,1,0,0:0:0:0:
275,220,195771,1,8,0:0:0:0:
257,64,195943,1,0,0:0:0:0:
108,117,196114,5,2,0:0:0:0:
68,259,196286,6,2,L|65:312,1,45
187,150,196457,6,2,L|190:195,1,45
307,259,196629,6,2,L|304:303,1,45
424,195,196800,6,0,L|418:104,1,90,2|0,0:0|0:0,0:0:0:0:
257,64,197143,1,8,0:0:0:0:
359,325,197314,6,0,P|274:336|224:267,1,180,2|0,0:0|0:0,0:0:0:0:
268,168,197829,1,8,0:0:0:0:
91,53,198000,5,2,0:0:0:0:
83,78,198086,2,0,L|77:168,1,90,2|0,0:0|0:0,0:0:0:0:
73,221,198343,1,2,0:0:0:0:
170,145,198514,1,8,0:0:0:0:
257,273,198686,5,2,0:0:0:0:
359,325,198857,6,0,L|365:211,1,90,2|0,0:0|0:0,0:0:0:0:
153,325,199114,6,0,L|147:211,1,90,2|0,0:0|0:0,0:0:0:0:
170,145,199371,5,2,0:0:0:0:
363,235,199543,1,8,0:0:0:0:
148,235,199714,5,2,0:0:0:0:
341,145,199886,1,8,0:0:0:0:
257,273,200057,6,0,L|254:213,1,45,2|0,0:0|0:0,0:0:0:0:
263,52,200229,6,0,B|265:126|265:126|252:145|252:145|254:232,1,180,6|8,0:0|0:0,0:0:0:0:
77,316,200743,1,0,0:0:0:0:
49,281,200828,1,0,0:0:0:0:
41,237,200914,1,0,0:0:0:0:
51,194,201000,1,0,0:0:0:0:
77,158,201085,1,0,0:0:0:0:
257,273,201257,2,0,P|308:273|362:278,1,90,8|0,0:0|0:0,0:0:0:0:
312,159,201600,6,0,P|224:162|157:100,1,180,2|8,0:0|0:0,0:0:0:0:
438,110,202114,1,0,0:0:0:0:
435,154,202199,1,0,0:0:0:0:
433,199,202285,1,0,0:0:0:0:
431,244,202371,1,0,0:0:0:0:
428,289,202456,1,0,0:0:0:0:
263,52,202629,5,8,0:0:0:0:
257,273,202800,1,2,0:0:0:0:
222,160,202971,6,0,P|267:158|312:159,1,90,6|0,0:0|0:0,0:0:0:0:
167,274,203314,2,0,P|211:274|256:272,1,90,8|0,0:0|0:0,0:0:0:0:
433,199,203657,1,8,0:0:0:0:
425,334,203829,1,2,0:0:0:0:
248,137,204000,1,8,0:0:0:0:
256,272,204172,1,2,0:0:0:0:
256,272,204514,5,2,0:0:0:0:
149,83,204686,1,2,0:0:0:0:
81,253,204857,1,2,0:0:0:0:
210,174,205029,5,8,0:0:0:0:
253,171,205114,5,8,0:0:0:0:
298,169,205200,5,8,0:0:0:0:
343,166,205286,5,8,0:0:0:0:
388,164,205371,6,0,B|445:168|482:149|482:149|497:172|480:190|480:190|464:190|420:224,1,180,8|2,0:0|0:0,0:0:0:0:
