osu file format v14

[General]
AudioFilename: new game.mp3
AudioLeadIn: 0
PreviewTime: 59152
Countdown: 0
SampleSet: Soft
StackLeniency: 0.7
Mode: 0
LetterboxInBreaks: 0
WidescreenStoryboard: 0

[Editor]
Bookmarks: 11061
DistanceSpacing: 1
BeatDivisor: 4
GridSize: 4
TimelineZoom: 2.4

[Metadata]
Title:SAKURA Skip
TitleUnicode:SAKURAスキップ
Artist:fourfolium
ArtistUnicode:fourfolium
Creator:Binguo
Version:Insane
Source:NEW GAME!
Tags:fanzhen0019 Pata-Mon [Charlie Lam] Narcissu フォーフォリウム ニューゲーム opening tv size takada yuuki 高田憂希 suzukaze aoba 涼風青葉 yamaguchi megumi 山口愛 takimoto hifumi 滝本ひふみ toda megumi 戸田めぐみ shinoda hazime 篠田はじめ ayumi takeo 竹尾歩美 iizima yun 飯島ゆん
BeatmapID:1043351
BeatmapSetID:484442

[Difficulty]
HPDrainRate:6
CircleSize:4
OverallDifficulty:7.5
ApproachRate:9
SliderMultiplier:1.4
SliderTickRate:1

[Events]
//Background and Video events
0,0,"BG.jpg",0,0
Video,-130,"8629408-1hd_0.avi"
//Break Periods
//Storyboard Layer 0 (Background)
//Storyboard Layer 1 (Fail)
//Storyboard Layer 2 (Pass)
//Storyboard Layer 3 (Foreground)
//Storyboard Sound Samples

[TimingPoints]
-393,363.636363636364,4,2,1,60,1,0
5243,-66.6666666666667,4,2,1,60,0,0
5334,-66.6666666666667,4,2,1,10,0,0
5607,-66.6666666666667,4,2,1,60,0,0
5697,-66.6666666666667,4,2,1,10,0,0
5970,-66.6666666666667,4,2,1,60,0,0
6061,-66.6666666666667,4,2,1,10,0,0
6334,-66.6666666666667,4,2,1,60,0,0
6879,-83.3333333333333,4,2,1,70,0,0
12697,-83.3333333333333,4,2,1,60,0,0
14243,-83.3333333333333,4,2,1,10,0,0
14334,-83.3333333333333,4,2,1,60,0,0
16879,-66.6666666666667,4,2,1,60,0,0
17152,-66.6666666666667,4,2,1,10,0,0
17243,-66.6666666666667,4,2,1,60,0,0
17697,-66.6666666666667,4,2,1,10,0,0
17788,-66.6666666666667,4,2,1,60,0,0
18061,-66.6666666666667,4,2,1,10,0,0
18152,-83.3333333333333,4,2,1,60,0,0
20061,-83.3333333333333,4,2,1,10,0,0
20152,-83.3333333333333,4,2,1,60,0,0
26516,-71.4285714285714,4,2,1,60,0,0
27061,-83.3333333333333,4,2,1,60,0,0
35970,-100,4,2,1,60,0,0
47607,-111.111111111111,4,2,1,50,0,0
56334,-100,4,2,1,50,0,0
62152,-83.3333333333333,4,2,1,70,0,1
63697,-83.3333333333333,4,2,1,10,0,1
63788,-83.3333333333333,4,2,1,70,0,1
66334,-66.6666666666667,4,2,1,70,0,1
66607,-66.6666666666667,4,2,1,10,0,1
66697,-66.6666666666667,4,2,1,70,0,1
67152,-66.6666666666667,4,2,1,10,0,1
67243,-66.6666666666667,4,2,1,70,0,1
67516,-66.6666666666667,4,2,1,10,0,1
67607,-83.3333333333333,4,2,1,70,0,1
69516,-83.3333333333333,4,2,1,10,0,1
69607,-83.3333333333333,4,2,1,70,0,1
70879,-83.3333333333333,4,2,1,70,0,0
73788,-83.3333333333333,4,2,1,70,0,1
75334,-83.3333333333333,4,2,1,10,0,1
75425,-83.3333333333333,4,2,1,70,0,1
77970,-66.6666666666667,4,2,1,70,0,1
78243,-66.6666666666667,4,2,1,10,0,1
78334,-66.6666666666667,4,2,1,70,0,1
78788,-66.6666666666667,4,2,1,10,0,1
78879,-66.6666666666667,4,2,1,70,0,1
79152,-66.6666666666667,4,2,1,10,0,1
79243,-83.3333333333333,4,2,1,70,0,1
81152,-83.3333333333333,4,2,1,10,0,1
81243,-83.3333333333333,4,2,1,70,0,1
85425,-100,4,2,1,50,0,0

[Colours]
Combo1 : 125,190,255
Combo2 : 202,149,255
Combo3 : 255,255,128
Combo4 : 128,255,255

[HitObjects]
272,36,334,5,0,1:0:0:0:
264,70,425,1,2,0:3:0:0:
242,98,516,1,2,0:3:0:0:
220,125,607,1,2,0:3:0:0:
191,144,697,1,0,1:0:0:0:
379,139,879,1,2,0:3:0:0:
379,139,970,1,8,0:0:0:0:
379,139,1061,6,0,P|414:152|447:194,1,70,2|0,0:1|0:0,0:0:0:0:
345,259,1425,2,0,P|269:257|221:218,1,140,2|2,0:1|0:1,0:0:0:0:
286,356,1970,1,0,0:0:0:0:
221,218,2152,1,2,0:1:0:0:
176,369,2334,1,4,0:0:0:0:
56,140,2697,6,0,L|43:58,1,70,2|8,0:1|0:0,0:0:0:0:
216,33,3061,1,2,0:1:0:0:
216,33,3152,1,0,0:0:0:0:
216,33,3243,2,0,L|205:107,1,70,8|0,0:0|0:0,0:0:0:0:
151,203,3607,1,8,0:0:0:0:
332,75,3970,6,0,P|366:71|401:77,1,70,2|0,0:1|0:0,0:0:0:0:
482,228,4334,2,0,P|450:215|418:186,1,70,2|2,0:1|0:3,0:0:0:0:
342,163,4607,1,0,0:0:0:0:
342,163,4697,2,0,P|330:195|308:223,1,70,2|2,0:1|0:3,0:0:0:0:
394,332,5061,1,8,0:0:0:0:
207,313,5243,6,0,P|190:292|182:266,1,52.5000020027161,4|0,0:0|0:0,0:0:0:0:
83,234,5607,6,0,P|92:208|111:188,1,52.5000020027161,4|0,0:0|0:0,0:0:0:0:
87,87,5970,6,0,P|113:82|140:88,1,52.5000020027161,4|0,0:0|0:0,0:0:0:0:
221,19,6334,6,0,P|245:84|237:128,1,105.000004005432,4|0,0:0|0:0,0:0:0:0:
240,118,6607,1,2,0:3:0:0:
240,118,6697,1,2,0:3:0:0:
325,226,6879,6,0,P|379:158|468:160,1,167.999994873047,4|8,0:0|0:0,0:0:0:0:
346,326,7425,1,2,0:3:0:0:
346,326,7516,1,0,0:0:0:0:
346,326,7607,2,0,P|302:324|249:302,1,83.9999974365235,8|0,0:0|0:0,0:0:0:0:
117,359,7970,1,8,0:0:0:0:
80,213,8152,2,0,B|83:180|110:151|110:151|64:117|85:44,1,167.999994873047,4|0,0:0|0:0,0:0:0:0:
229,249,8697,5,8,0:0:0:0:
283,108,8879,2,0,P|243:43|176:80,1,167.999994873047,4|0,0:0|0:0,0:0:0:0:
307,199,9425,1,8,0:0:0:0:
375,53,9607,1,0,0:0:0:0:
389,270,9788,6,0,P|390:306|386:364,1,83.9999974365235,4|0,0:0|0:0,0:0:0:0:
471,184,10152,2,0,P|470:142|473:101,1,83.9999974365235,8|0,0:0|0:0,0:0:0:0:
307,199,10516,1,8,0:0:0:0:
477,315,10697,1,0,0:0:0:0:
279,308,10879,1,8,0:0:0:0:
121,191,11061,6,0,B|117:138|77:115|77:115|82:75|113:48,1,167.999994873047,4|0,0:0|0:0,0:0:0:0:
25,197,11607,2,0,P|36:239|65:273,1,83.9999974365235,8|0,0:0|0:0,0:0:0:0:
167,364,11970,1,2,0:3:0:0:
192,342,12061,1,2,0:3:0:0:
205,311,12152,1,2,0:3:0:0:
210,277,12243,1,2,0:3:0:0:
212,243,12334,2,0,L|219:195,1,41.9999987182618,2|2,0:3|0:3,0:3:0:0:
176,123,12516,2,0,L|164:82,1,41.9999987182618,2|2,0:3|0:3,0:3:0:0:
294,101,12697,6,0,P|316:65|314:23,1,83.9999974365235,4|0,0:3|0:0,0:0:0:0:
319,199,13061,1,12,0:0:0:0:
236,44,13243,1,0,0:0:0:0:
399,128,13425,2,0,P|431:101|443:62,1,83.9999974365235,2|0,0:3|0:0,0:0:0:0:
416,227,13788,1,8,0:0:0:0:
421,340,13970,6,0,P|362:330|319:282,1,125.999996154785,4|0,0:0|0:0,0:0:0:0:
289,276,14334,1,0,0:0:0:0:
234,367,14516,1,8,0:0:0:0:
134,274,14697,1,0,0:0:0:0:
134,274,14788,1,2,0:3:0:0:
134,274,14879,2,0,P|134:229|150:192,1,83.9999974365235,2|0,0:0|0:0,0:0:0:0:
259,118,15243,2,0,P|256:76|241:38,1,83.9999974365235,2|0,0:0|0:0,0:0:0:0:
91,40,15607,6,0,P|90:109|172:73,1,167.999994873047,2|8,0:0|0:0,0:0:0:0:
26,193,16152,1,2,0:3:0:0:
26,193,16243,1,0,0:0:0:0:
26,193,16334,2,0,P|41:232|41:274,1,83.9999974365235,2|0,0:3|0:0,0:0:0:0:
201,346,16697,1,8,0:0:0:0:
371,311,16879,6,0,B|410:288|406:240|406:240|447:252|481:230,1,157.500006008148,4|0,0:0|0:0,0:0:0:0:
433,146,17243,1,0,0:0:0:0:
259,118,17425,2,0,P|268:194|325:245,1,157.500006008148,4|0,0:0|0:0,0:0:0:0:
354,150,17788,2,0,B|365:83|325:42|325:42|351:31|364:8,1,157.500006008148,4|0,0:0|0:0,0:0:0:0:
451,49,18152,1,2,0:0:0:0:
259,118,18334,1,0,0:0:0:0:
406,241,18516,6,0,P|420:281|427:336,1,83.9999974365235
302,312,18879,2,0,L|218:312,1,83.9999974365235,8|0,0:0|0:0,0:0:0:0:
87,209,19243,2,0,L|177:217,1,83.9999974365235
127,365,19607,1,8,0:0:0:0:
279,230,19788,6,0,P|266:166|215:116,1,125.999996154785,4|0,0:0|0:0,0:0:0:0:
198,112,20152,1,0,0:0:0:0:
307,33,20334,1,8,0:0:0:0:
438,56,20516,1,2,0:3:0:0:
438,56,20607,1,0,0:0:0:0:
438,56,20697,2,0,P|442:95|435:139,1,83.9999974365235,2|0,0:0|0:0,0:0:0:0:
377,268,21061,2,0,L|379:351,1,83.9999974365235,4|0,0:0|0:0,0:0:0:0:
175,343,21425,6,0,L|178:260,1,83.9999974365235,4|0,0:0|0:0,0:0:0:0:
67,135,21788,1,8,0:0:0:0:
79,295,21970,1,0,0:0:0:0:
218,122,22152,2,0,L|221:39,1,83.9999974365235,4|0,0:0|0:0,0:0:0:0:
329,247,22516,1,8,0:0:0:0:
401,76,22697,6,0,P|359:77|318:86,1,83.9999974365235,4|0,0:0|0:0,0:0:0:0:
318,85,23061,1,2,0:0:0:0:
428,279,23243,1,8,0:0:0:0:
480,152,23425,1,2,0:3:0:0:
274,184,23607,1,2,0:3:0:0:
254,210,23697,1,2,0:3:0:0:
247,243,23788,1,2,0:3:0:0:
251,276,23879,1,2,0:3:0:0:
269,304,23970,1,12,0:0:0:0:
39,197,24334,6,0,L|27:29,1,167.999994873047,6|8,0:0|0:0,0:0:0:0:
294,54,24879,1,0,0:0:0:0:
116,63,25061,1,10,0:0:0:0:
194,186,25243,1,0,0:0:0:0:
203,16,25425,1,8,0:0:0:0:
315,176,25607,6,0,P|357:243|446:283,1,167.999994873047,4|0,0:0|0:0,0:0:0:0:
470,120,26152,1,8,0:0:0:0:
434,281,26334,1,0,0:0:0:0:
248,237,26516,2,0,P|228:193|229:145,1,97.9999970092774,10|0,0:0|0:0,0:0:0:0:
88,112,26879,1,8,0:0:0:0:
107,255,27061,6,0,P|78:285|27:305,1,83.9999974365235,2|0,0:3|0:0,0:0:0:0:
190,343,27425,1,0,0:0:0:0:
373,239,27607,1,8,0:0:0:0:
248,237,27788,1,0,0:0:0:0:
436,343,27970,1,10,0:0:0:0:
459,209,28152,1,2,0:0:0:0:
309,305,28334,1,2,0:0:0:0:
312,100,28516,6,0,B|350:84|395:84|435:102|435:102|412:107|398:121,1,167.999994873047,6|0,0:0|0:0,0:0:0:0:
296,17,29061,1,8,0:0:0:0:
242,155,29243,1,0,0:0:0:0:
72,29,29425,1,8,0:0:0:0:
216,64,29607,1,0,0:0:0:0:
21,122,29788,1,8,0:0:0:0:
216,64,29970,1,0,0:0:0:0:
119,211,30152,6,0,B|92:267|143:329|119:376,1,167.999994873047,6|8,0:0|0:0,0:0:0:0:
195,254,30697,1,0,0:0:0:0:
42,342,30879,1,2,0:0:0:0:
212,382,31061,1,0,0:0:0:0:
42,342,31243,1,8,0:0:0:0:
284,323,31425,6,0,B|308:340|352:324|352:324|379:280|421:278|454:293,1,167.999994873047,4|0,0:0|0:0,0:0:0:0:
306,233,31970,1,8,0:0:0:0:
431,380,32152,1,0,0:0:0:0:
484,189,32334,2,0,P|489:137|477:88,1,83.9999974365235,4|0,0:0|0:0,0:0:0:0:
389,187,32697,1,8,0:0:0:0:
289,87,32879,6,0,B|192:60|220:112|121:80,1,167.999994873047,4|0,0:0|0:0,0:0:0:0:
241,181,33425,1,8,0:0:0:0:
70,306,33607,1,2,0:3:0:0:
37,80,33788,1,8,0:0:0:0:
197,256,33970,1,2,0:3:0:0:
8,245,34152,1,8,0:0:0:0:
124,81,34334,1,4,0:0:0:0:
341,35,34697,6,0,L|432:33,1,83.9999974365235,12|0,0:0|0:0,0:0:0:0:
424,33,35061,1,4,0:0:0:0:
302,112,35243,2,0,P|312:152|342:180,1,83.9999974365235,4|0,0:0|0:0,0:0:0:0:
427,179,35516,1,6,0:3:0:0:
427,179,35607,2,0,P|432:221|427:262,1,83.9999974365235,12|0,0:0|0:0,0:0:0:0:
470,354,35970,6,0,P|434:364|382:354,1,70,2|0,0:3|0:0,0:0:0:0:
304,322,36334,1,8,0:0:0:0:
205,359,36516,1,2,0:3:0:0:
298,312,36697,1,2,0:3:0:0:
202,269,36879,1,0,0:0:0:0:
293,303,37061,1,8,0:0:0:0:
256,182,37243,2,0,P|230:121|163:84,1,140,2|0,0:3|0:0,0:0:0:0:
152,188,37788,5,8,0:0:0:0:
71,115,37970,1,2,0:3:0:0:
71,115,38061,1,0,0:0:0:0:
71,115,38152,2,0,P|69:81|75:46,1,70,8|0,0:0|0:0,0:0:0:0:
54,220,38516,2,0,P|54:256|58:301,1,70,8|0,0:0|0:0,0:0:0:0:
114,377,38879,5,2,0:3:0:0:
160,282,39061,1,0,0:0:0:0:
251,334,39243,1,8,0:0:0:0:
309,246,39425,1,2,0:3:0:0:
309,246,39516,1,2,0:3:0:0:
309,246,39607,2,0,P|348:257|381:287,1,70,2|0,0:3|0:0,0:0:0:0:
364,377,39970,1,8,0:0:0:0:
452,330,40152,6,0,P|463:261|497:200,1,140,2|2,0:0|0:3,0:0:0:0:
371,274,40697,1,8,0:0:0:0:
395,171,40879,1,2,0:3:0:0:
395,171,40970,1,0,0:0:0:0:
395,171,41061,2,0,L|387:85,1,70,2|0,0:0|0:0,0:0:0:0:
288,27,41425,2,0,L|282:97,1,70,10|0,0:0|0:0,0:0:0:0:
189,147,41788,6,0,L|173:67,1,70,4|0,0:0|0:0,0:0:0:0:
282,97,42152,1,8,0:0:0:0:
277,201,42334,1,2,0:3:0:0:
277,201,42425,1,0,0:0:0:0:
277,201,42516,1,2,0:3:0:0:
185,252,42697,1,0,0:0:0:0:
97,194,42879,1,8,0:0:0:0:
68,295,43061,2,0,L|74:364,1,70,2|0,0:0|0:0,0:0:0:0:
74,364,43425,5,0,0:0:0:0:
178,354,43607,2,0,P|214:353|250:332,1,70,8|0,0:0|0:0,0:0:0:0:
185,252,43970,1,2,0:3:0:0:
243,337,44152,1,2,0:3:0:0:
341,299,44334,1,8,0:0:0:0:
425,361,44516,1,2,0:3:0:0:
491,280,44697,6,0,P|492:241|476:192,1,70
391,162,45061,1,8,0:0:0:0:
478,103,45243,1,2,0:3:0:0:
478,103,45334,1,0,0:0:0:0:
478,103,45425,1,0,0:0:0:0:
383,56,45607,1,0,0:0:0:0:
391,162,45788,1,8,0:0:0:0:
265,34,45970,6,0,P|219:33|189:36,1,70,4|0,0:0|0:0,0:0:0:0:
59,118,46334,2,0,P|94:119|129:116,1,70
195,35,46697,1,0,0:0:0:0:
231,199,46879,1,6,0:3:0:0:
231,199,46970,1,2,0:3:0:0:
231,199,47061,1,2,0:3:0:0:
129,116,47243,1,8,0:3:0:0:
231,112,47425,1,4,0:3:0:0:
151,219,47607,6,0,B|81:213|92:235|24:220,1,125.999996154785,6|8,0:0|0:0,0:0:0:0:
124,303,48152,1,2,0:3:0:0:
124,303,48243,1,8,0:0:0:0:
124,303,48334,1,2,0:3:0:0:
223,291,48516,1,0,0:0:0:0:
327,312,48697,1,8,0:0:0:0:
421,362,48879,6,0,P|450:300|503:277,1,125.999996154785,6|0,0:0|0:0,0:0:0:0:
403,228,49425,1,8,0:0:0:0:
338,142,49607,2,0,L|343:98,2,31.4999990386963,2|0|8,0:3|0:0|0:0,0:0:0:0:
443,125,49970,1,0,0:0:0:0:
403,228,50152,1,10,0:0:0:0:
338,142,50334,1,0,0:0:0:0:
251,205,50516,6,0,B|181:199|192:221|124:206,1,125.999996154785,4|8,0:0|0:0,0:0:0:0:
48,97,51061,1,2,0:3:0:0:
48,97,51152,1,8,0:0:0:0:
48,97,51243,1,2,0:3:0:0:
160,133,51425,1,0,0:0:0:0:
251,205,51607,1,8,0:0:0:0:
247,104,51788,6,0,P|183:44|141:44,1,125.999996154785,4|0,0:0|0:0,0:0:0:0:
329,69,52334,2,0,P|414:48|451:69,1,125.999996154785,4|0,0:0|0:0,0:0:0:0:
463,208,52879,1,12,0:3:0:0:
391,130,53061,1,4,0:3:0:0:
512,118,53243,1,4,0:3:0:0:
369,251,53425,6,0,P|360:303|406:362,1,125.999996154785,4|0,0:0|0:0,0:0:0:0:
444,288,53970,1,0,0:0:0:0:
264,348,54152,2,0,P|194:348|145:320,1,125.999996154785,8|0,0:0|0:0,0:0:0:0:
290,269,54697,1,0,0:0:0:0:
126,240,54879,6,0,L|117:169,1,62.9999980773926,2|8,0:3|0:0,0:0:0:0:
31,112,55243,1,2,0:3:0:0:
111,40,55425,1,0,0:0:0:0:
209,81,55607,2,0,P|243:86|271:82,1,62.9999980773926,8|0,0:0|0:0,0:0:0:0:
422,22,55970,2,0,P|391:17|360:22,1,62.9999980773926,8|0,0:0|0:0,0:0:0:0:
388,138,56334,6,0,L|388:216,1,70,4|0,0:0|0:0,0:0:0:0:
489,326,56697,2,0,P|455:311|421:287,1,70,8|0,0:0|0:0,0:0:0:0:
291,326,57061,2,0,P|323:312|352:292,1,70
476,190,57425,1,8,0:0:0:0:
301,190,57607,1,0,0:0:0:0:
171,308,57788,5,8,0:0:0:0:
52,234,57970,1,2,0:3:0:0:
209,201,58152,1,8,0:0:0:0:
56,148,58334,1,2,0:3:0:0:
248,126,58516,1,2,0:3:0:0:
135,234,58697,1,2,0:3:0:0:
239,44,58879,1,2,0:3:0:0:
380,213,59061,1,2,0:3:0:0:
301,272,59243,6,0,P|292:238|291:204,1,70,2|0,0:1|0:0,0:0:0:0:
380,350,59607,2,0,P|354:372|321:383,1,70,2|0,0:1|0:0,0:0:0:0:
459,272,59970,2,0,P|468:238|469:204,1,70,2|0,0:1|0:0,0:0:0:0:
380,350,60334,2,0,P|406:372|439:383,1,70,2|4,0:1|0:0,0:0:0:0:
380,108,60879,6,0,L|380:38,1,70,4|0,0:0|0:0,0:0:0:0:
283,123,61243,2,0,L|301:201,1,70,4|0,0:0|0:0,0:0:0:0:
329,209,61516,1,2,0:3:0:0:
362,220,61607,1,2,0:3:0:0:
396,220,61697,1,2,0:3:0:0:
430,214,61788,2,0,L|445:172,1,35,2|2,0:3|0:3,0:0:0:0:
379,107,61970,2,0,L|386:73,1,35,2|2,0:3|0:3,0:0:0:0:
299,21,62152,6,0,P|257:22|220:42,1,83.9999974365235,4|0,0:0|0:0,0:0:0:0:
224,262,62516,1,8,0:0:0:0:
283,123,62697,1,0,0:0:0:0:
129,220,62879,2,0,P|122:264|138:318,1,83.9999974365235,2|0,0:3|0:0,0:0:0:0:
231,364,63243,1,8,0:0:0:0:
35,338,63425,6,0,P|24:275|26:212,1,125.999996154785,4|0,0:0|0:0,0:0:0:0:
29,180,63788,1,0,0:0:0:0:
184,109,63970,1,8,0:0:0:0:
101,11,64152,1,0,0:0:0:0:
101,11,64243,1,2,0:3:0:0:
100,11,64334,2,0,P|91:51|93:93,1,83.9999974365235,2|0,0:0|0:0,0:0:0:0:
254,173,64697,2,0,P|275:129|277:93,1,83.9999974365235,10|0,0:0|0:0,0:0:0:0:
128,255,65061,6,0,L|219:273,1,83.9999974365235,2|0,0:0|0:0,0:0:0:0:
314,361,65425,1,8,0:0:0:0:
414,270,65607,1,0,0:0:0:0:
414,270,65697,1,2,0:3:0:0:
414,270,65788,2,0,L|323:252,1,83.9999974365235,0|0,0:3|0:0,0:0:0:0:
208,383,66152,1,8,0:0:0:0:
59,333,66334,6,0,P|25:244|51:184,1,157.500006008148,4|0,0:0|0:0,0:0:0:0:
128,255,66697,1,0,0:0:0:0:
87,66,66879,2,0,P|24:41|15:109,1,157.500006008148,4|0,0:0|0:0,0:0:0:0:
125,150,67243,2,0,P|203:155|280:140,1,157.500006008148,4|0,0:0|0:0,0:0:0:0:
321,60,67607,1,2,0:0:0:0:
296,245,67788,1,0,0:0:0:0:
249,373,67970,6,0,P|209:382|167:384,1,83.9999974365235
360,305,68334,2,0,P|377:267|381:226,1,83.9999974365235
220,203,68697,2,0,P|210:247|221:287,1,83.9999974365235
403,384,69061,1,8,0:0:0:0:
449,223,69243,6,0,P|481:139|479:87,1,125.999996154785,4|0,0:0|0:0,0:0:0:0:
477,72,69607,1,0,0:0:0:0:
339,121,69788,1,8,0:0:0:0:
243,27,69970,1,2,0:3:0:0:
243,27,70061,1,0,0:0:0:0:
243,27,70152,2,0,P|212:26|152:31,1,83.9999974365235,2|0,0:0|0:0,0:0:0:0:
26,162,70516,2,0,L|109:168,1,83.9999974365235,4|0,0:0|0:0,0:0:0:0:
68,14,70879,6,0,P|70:56|91:91,1,83.9999974365235,4|0,0:0|0:0,0:0:0:0:
222,159,71243,1,8,0:0:0:0:
117,261,71425,1,0,0:0:0:0:
183,84,71607,2,0,P|224:75|265:85,1,83.9999974365235,4|0,0:0|0:0,0:0:0:0:
338,217,71970,1,8,0:0:0:0:
164,332,72152,6,0,P|119:344|79:332,1,83.9999974365235,4|0,0:0|0:0,0:0:0:0:
83,334,72516,1,2,0:0:0:0:
226,257,72697,1,8,0:0:0:0:
372,337,72879,1,2,0:3:0:0:
482,212,73061,2,0,P|499:147|483:77,1,125.999996154785,2|2,0:3|0:3,0:3:0:0:
458,76,73425,2,0,L|443:35,1,41.9999987182618,2|2,0:3|0:3,0:0:0:0:
358,51,73607,2,0,L|312:14,1,41.9999987182618,2|2,0:3|0:3,0:0:0:0:
258,154,73788,6,0,P|304:149|341:137,1,83.9999974365235,4|0,0:0|0:0,0:0:0:0:
154,205,74152,1,8,0:0:0:0:
275,38,74334,1,0,0:0:0:0:
323,241,74516,2,0,P|282:250|225:250,1,83.9999974365235,2|0,0:3|0:0,0:0:0:0:
165,96,74879,1,8,0:0:0:0:
54,238,75061,6,0,P|94:293|163:308,1,125.999996154785,4|0,0:0|0:0,0:0:0:0:
179,306,75425,1,0,0:0:0:0:
316,358,75607,1,8,0:0:0:0:
429,266,75788,1,2,0:3:0:0:
429,266,75879,1,0,0:0:0:0:
429,266,75970,2,0,P|452:306|452:349,1,83.9999974365235,2|0,0:0|0:0,0:0:0:0:
323,241,76334,2,0,P|300:201|300:158,1,83.9999974365235,10|0,0:0|0:0,0:0:0:0:
440,28,76697,6,0,P|440:121|385:183,1,167.999994873047,2|8,0:0|0:0,0:0:0:0:
246,71,77243,1,2,0:3:0:0:
246,71,77334,1,0,0:0:0:0:
246,71,77425,2,0,P|288:63|330:62,1,83.9999974365235,2|0,0:3|0:0,0:0:0:0:
208,196,77788,1,8,0:0:0:0:
86,351,77970,6,0,B|68:314|79:288|79:288|38:265|36:203,1,157.500006008148,4|0,0:0|0:0,0:0:0:0:
128,209,78334,1,0,0:0:0:0:
291,155,78516,2,0,P|289:244|228:289,1,157.500006008148,4|0,0:0|0:0,0:0:0:0:
368,257,78879,2,0,P|426:217|504:242,1,157.500006008148,4|0,0:0|0:0,0:0:0:0:
443,315,79243,1,2,0:0:0:0:
385,141,79425,5,2,0:3:0:0:
385,141,79516,1,2,0:3:0:0:
385,141,79607,2,0,L|323:53,1,83.9999974365235
209,161,79970,2,0,P|250:166|290:154,1,83.9999974365235,4|0,0:0|0:0,0:0:0:0:
508,38,80334,2,0,P|467:34|427:45,1,83.9999974365235
338,252,80697,1,8,0:0:0:0:
466,333,80879,6,0,P|485:260|480:207,1,125.999996154785,4|0,0:0|0:0,0:0:0:0:
475,178,81243,1,0,0:0:0:0:
338,252,81425,1,8,0:0:0:0:
244,82,81607,1,2,0:3:0:0:
244,82,81697,1,0,0:0:0:0:
244,82,81788,2,0,P|196:79|158:91,1,83.9999974365235,2|0,0:0|0:0,0:0:0:0:
45,202,82152,2,0,P|93:205|131:193,1,83.9999974365235,4|0,0:0|0:0,0:0:0:0:
82,31,82516,6,0,P|66:79|67:123,1,83.9999974365235,2|0,0:0|0:0,0:0:0:0:
210,160,82879,1,8,0:0:0:0:
152,307,83061,1,2,0:3:0:0:
152,307,83152,1,0,0:0:0:0:
152,307,83243,1,2,0:0:0:0:
286,265,83425,1,0,0:0:0:0:
122,219,83607,1,8,0:0:0:0:
365,298,83788,6,0,P|370:257|357:218,1,83.9999974365235,4|0,0:0|0:0,0:0:0:0:
356,217,84152,1,2,0:0:0:0:
506,342,84334,1,8,0:0:0:0:
292,356,84516,1,2,0:3:0:0:
434,190,84697,2,0,P|383:139|320:143,1,125.999996154785,2|0,0:3|0:3,0:3:0:0:
302,153,85061,1,0,0:0:0:0:
268,150,85152,1,2,0:3:0:0:
240,130,85243,1,2,0:3:0:0:
427,62,85425,5,4,0:3:0:0:
356,217,85607,1,4,0:3:0:0:
298,58,85788,1,6,0:3:0:0:
160,217,85970,1,4,0:3:0:0:
299,277,86152,5,6,0:3:0:0:
131,110,86334,1,4,0:3:0:0:
98,313,86516,1,4,0:3:0:0:
255,207,86697,1,6,0:0:0:0:
255,207,87061,5,4,0:0:0:0:
98,313,87243,1,4,0:3:0:0:
40,117,87425,1,4,0:3:0:0:
188,310,87607,1,4,0:0:0:0:
